  0
SECTION
  2
HEADER
  9
$ACADVER
  1
AC1018
  9
$ACADMAINTVER
 70
   104
  9
$DWGCODEPAGE
  3
ANSI_1252
  9
$LASTSAVEDBY
  1
ibasyouni
  9
$CUSTOMPROPERTYTAG
  1
AmdtFileType
  9
$CUSTOMPROPERTY
  1
84
  9
$INSBASE
 10
0.0
 20
0.0
 30
0.0
  9
$EXTMIN
 10
22.48574583720938
 20
163.5406510014329
 30
-0.0015258207003583
  9
$EXTMAX
 10
1063.063071239759
 20
508.5571301967804
 30
0.0000000349246037
  9
$LIMMIN
 10
0.0
 20
0.0
  9
$LIMMAX
 10
1100.0
 20
600.0
  9
$ORTHOMODE
 70
     1
  9
$REGENMODE
 70
     1
  9
$FILLMODE
 70
     1
  9
$QTEXTMODE
 70
     0
  9
$MIRRTEXT
 70
     1
  9
$LTSCALE
 40
1.0
  9
$ATTMODE
 70
     1
  9
$TEXTSIZE
 40
3.5
  9
$TRACEWID
 40
1.0
  9
$TEXTSTYLE
  7
STANDARD
  9
$CLAYER
  8
0
  9
$CELTYPE
  6
BYLAYER
  9
$CECOLOR
 62
   256
  9
$CELTSCALE
 40
10.0
  9
$DISPSILH
 70
     0
  9
$DIMSCALE
 40
1.0
  9
$DIMASZ
 40
7.0
  9
$DIMEXO
 40
0.0
  9
$DIMDLI
 40
7.0
  9
$DIMRND
 40
0.0
  9
$DIMDLE
 40
0.0
  9
$DIMEXE
 40
1.25
  9
$DIMTP
 40
0.0
  9
$DIMTM
 40
0.0
  9
$DIMTXT
 40
10.0
  9
$DIMCEN
 40
0.0
  9
$DIMTSZ
 40
0.0
  9
$DIMTOL
 70
     0
  9
$DIMLIM
 70
     0
  9
$DIMTIH
 70
     0
  9
$DIMTOH
 70
     0
  9
$DIMSE1
 70
     0
  9
$DIMSE2
 70
     0
  9
$DIMTAD
 70
     1
  9
$DIMZIN
 70
     8
  9
$DIMBLK
  1

  9
$DIMASO
 70
     1
  9
$DIMSHO
 70
     1
  9
$DIMPOST
  1

  9
$DIMAPOST
  1

  9
$DIMALT
 70
     0
  9
$DIMALTD
 70
     2
  9
$DIMALTF
 40
25.4
  9
$DIMLFAC
 40
1.0
  9
$DIMTOFL
 70
     1
  9
$DIMTVP
 40
0.0
  9
$DIMTIX
 70
     0
  9
$DIMSOXD
 70
     0
  9
$DIMSAH
 70
     0
  9
$DIMBLK1
  1

  9
$DIMBLK2
  1

  9
$DIMSTYLE
  2
ISO-25
  9
$DIMCLRD
 70
   256
  9
$DIMCLRE
 70
   256
  9
$DIMCLRT
 70
   256
  9
$DIMTFAC
 40
1.0
  9
$DIMGAP
 40
4.0
  9
$DIMJUST
 70
     0
  9
$DIMSD1
 70
     0
  9
$DIMSD2
 70
     0
  9
$DIMTOLJ
 70
     1
  9
$DIMTZIN
 70
     0
  9
$DIMALTZ
 70
     0
  9
$DIMALTTZ
 70
     0
  9
$DIMUPT
 70
     1
  9
$DIMDEC
 70
     4
  9
$DIMTDEC
 70
     4
  9
$DIMALTU
 70
     2
  9
$DIMALTTD
 70
     2
  9
$DIMTXSTY
  7
STANDARD
  9
$DIMAUNIT
 70
     0
  9
$DIMADEC
 70
     0
  9
$DIMALTRND
 40
0.0
  9
$DIMAZIN
 70
     0
  9
$DIMDSEP
 70
    46
  9
$DIMATFIT
 70
     0
  9
$DIMFRAC
 70
     0
  9
$DIMLDRBLK
  1

  9
$DIMLUNIT
 70
     2
  9
$DIMLWD
 70
    -1
  9
$DIMLWE
 70
    -1
  9
$DIMTMOVE
 70
     0
  9
$LUNITS
 70
     2
  9
$LUPREC
 70
     2
  9
$SKETCHINC
 40
1.0
  9
$FILLETRAD
 40
2.5
  9
$AUNITS
 70
     0
  9
$AUPREC
 70
     0
  9
$MENU
  1
.
  9
$ELEVATION
 40
0.0
  9
$PELEVATION
 40
0.0
  9
$THICKNESS
 40
0.0
  9
$LIMCHECK
 70
     0
  9
$CHAMFERA
 40
2.5
  9
$CHAMFERB
 40
2.5
  9
$CHAMFERC
 40
0.0
  9
$CHAMFERD
 40
0.0
  9
$SKPOLY
 70
     0
  9
$TDCREATE
 40
2450848.753473218
  9
$TDUCREATE
 40
2450848.711806551
  9
$TDUPDATE
 40
2456000.406021193
  9
$TDUUPDATE
 40
2456000.364354526
  9
$TDINDWG
 40
2.1244747454
  9
$TDUSRTIMER
 40
2.1244747454
  9
$USRTIMER
 70
     1
  9
$ANGBASE
 50
0.0
  9
$ANGDIR
 70
     0
  9
$PDMODE
 70
     0
  9
$PDSIZE
 40
0.0
  9
$PLINEWID
 40
0.5
  9
$SPLFRAME
 70
     0
  9
$SPLINETYPE
 70
     6
  9
$SPLINESEGS
 70
     8
  9
$HANDSEED
  5
609A
  9
$SURFTAB1
 70
     6
  9
$SURFTAB2
 70
     6
  9
$SURFTYPE
 70
     6
  9
$SURFU
 70
     6
  9
$SURFV
 70
     6
  9
$UCSBASE
  2

  9
$UCSNAME
  2

  9
$UCSORG
 10
0.0
 20
0.0
 30
0.0
  9
$UCSXDIR
 10
1.0
 20
0.0
 30
0.0
  9
$UCSYDIR
 10
0.0
 20
1.0
 30
0.0
  9
$UCSORTHOREF
  2

  9
$UCSORTHOVIEW
 70
     0
  9
$UCSORGTOP
 10
0.0
 20
0.0
 30
0.0
  9
$UCSORGBOTTOM
 10
0.0
 20
0.0
 30
0.0
  9
$UCSORGLEFT
 10
0.0
 20
0.0
 30
0.0
  9
$UCSORGRIGHT
 10
0.0
 20
0.0
 30
0.0
  9
$UCSORGFRONT
 10
0.0
 20
0.0
 30
0.0
  9
$UCSORGBACK
 10
0.0
 20
0.0
 30
0.0
  9
$PUCSBASE
  2

  9
$PUCSNAME
  2

  9
$PUCSORG
 10
0.0
 20
0.0
 30
0.0
  9
$PUCSXDIR
 10
1.0
 20
0.0
 30
0.0
  9
$PUCSYDIR
 10
0.0
 20
1.0
 30
0.0
  9
$PUCSORTHOREF
  2

  9
$PUCSORTHOVIEW
 70
     0
  9
$PUCSORGTOP
 10
0.0
 20
0.0
 30
0.0
  9
$PUCSORGBOTTOM
 10
0.0
 20
0.0
 30
0.0
  9
$PUCSORGLEFT
 10
0.0
 20
0.0
 30
0.0
  9
$PUCSORGRIGHT
 10
0.0
 20
0.0
 30
0.0
  9
$PUCSORGFRONT
 10
0.0
 20
0.0
 30
0.0
  9
$PUCSORGBACK
 10
0.0
 20
0.0
 30
0.0
  9
$USERI1
 70
     0
  9
$USERI2
 70
     0
  9
$USERI3
 70
     0
  9
$USERI4
 70
     0
  9
$USERI5
 70
     0
  9
$USERR1
 40
0.0
  9
$USERR2
 40
0.0
  9
$USERR3
 40
0.0
  9
$USERR4
 40
0.0
  9
$USERR5
 40
0.0
  9
$WORLDVIEW
 70
     1
  9
$SHADEDGE
 70
     3
  9
$SHADEDIF
 70
    70
  9
$TILEMODE
 70
     1
  9
$MAXACTVP
 70
    16
  9
$PINSBASE
 10
0.0
 20
0.0
 30
0.0
  9
$PLIMCHECK
 70
     0
  9
$PEXTMIN
 10
1.000000000000000E+20
 20
1.000000000000000E+20
 30
1.000000000000000E+20
  9
$PEXTMAX
 10
-1.000000000000000E+20
 20
-1.000000000000000E+20
 30
-1.000000000000000E+20
  9
$PLIMMIN
 10
0.0
 20
0.0
  9
$PLIMMAX
 10
420.0
 20
297.0
  9
$UNITMODE
 70
     0
  9
$VISRETAIN
 70
     0
  9
$PLINEGEN
 70
     0
  9
$PSLTSCALE
 70
     0
  9
$TREEDEPTH
 70
  3020
  9
$CMLSTYLE
  2
STANDARD
  9
$CMLJUST
 70
     0
  9
$CMLSCALE
 40
1.0
  9
$PROXYGRAPHICS
 70
     1
  9
$MEASUREMENT
 70
     1
  9
$CELWEIGHT
370
    -1
  9
$ENDCAPS
280
     0
  9
$JOINSTYLE
280
     0
  9
$LWDISPLAY
290
     0
  9
$INSUNITS
 70
     4
  9
$HYPERLINKBASE
  1

  9
$STYLESHEET
  1
Zeich.ctb
  9
$XEDIT
290
     1
  9
$CEPSNTYPE
380
     0
  9
$PSTYLEMODE
290
     1
  9
$FINGERPRINTGUID
  2
{785BA218-F8F7-11D4-B795-0010B575C074}
  9
$VERSIONGUID
  2
{883E1A0A-4BDA-44DE-8130-8F032AFD4A2F}
  9
$EXTNAMES
290
     1
  9
$PSVPSCALE
 40
0.0
  9
$OLESTARTUP
290
     0
  9
$SORTENTS
280
    96
  9
$INDEXCTL
280
     0
  9
$HIDETEXT
280
     0
  9
$XCLIPFRAME
290
     0
  9
$HALOGAP
280
     0
  9
$OBSCOLOR
 70
   257
  9
$OBSLTYPE
280
     0
  9
$INTERSECTIONDISPLAY
280
     0
  9
$INTERSECTIONCOLOR
 70
   257
  9
$DIMASSOC
280
     1
  9
$PROJECTNAME
  1

  0
ENDSEC
  0
SECTION
  2
CLASSES
  0
CLASS
  1
IDBUFFER
  2
AcDbIdBuffer
  3
ObjectDBX Classes
 90
        0
 91
        5
280
     0
281
     0
  0
CLASS
  1
DICTIONARYVAR
  2
AcDbDictionaryVar
  3
ObjectDBX Classes
 90
        0
 91
       40
280
     0
281
     0
  0
CLASS
  1
ACMESTATEMGR
  2
AcMeStateMgr
  3
AcMeServices
 90
     1024
 91
        1
280
     0
281
     0
  0
CLASS
  1
ACMESCOPE
  2
AcMeScope
  3
AcMeServices
 90
     1024
 91
        1
280
     0
281
     0
  0
CLASS
  1
ACMECOMMANDHISTORY
  2
AcMeCommandHistory
  3
AcMeServices
 90
     1024
 91
        1
280
     0
281
     0
  0
CLASS
  1
ACRFINSADJUSTERMGR
  2
AcRfInsAdjusterMgr
  3
AcMeServices
 90
     1024
 91
        1
280
     0
281
     0
  0
CLASS
  1
ACMEDRAWINGMAN
  2
AcMeDrawingMan
  3
AcMeServices
 90
     1024
 91
        1
280
     0
281
     0
  0
CLASS
  1
AMATTR
  2
AcMeAttribute
  3
AcMeServices
 90
     1024
 91
        0
280
     0
281
     0
  0
CLASS
  1
ACMEBOMCOLUMN
  2
AcMeBOMColumn
  3
AcMeServices
 90
     1024
 91
        0
280
     0
281
     0
  0
CLASS
  1
ACMEBOMCONF
  2
AcMeBOMConf
  3
AcMeServices
 90
     1024
 91
        0
280
     0
281
     0
  0
CLASS
  1
ACMEBOMTABLE
  2
AcMeBOMTable
  3
AcMeServices
 90
     1024
 91
        0
280
     0
281
     0
  0
CLASS
  1
ACMEBOMENTRY
  2
AcMeBOMEntry
  3
AcMeServices
 90
     1024
 91
        0
280
     0
281
     0
  0
CLASS
  1
ACMEVIEW
  2
AcMeView
  3
AcMeServices
 90
     1024
 91
        0
280
     0
281
     0
  0
CLASS
  1
ACIMSYSVARMAN
  2
AcImSysVarManager
  3
AcMeServices
 90
     1024
 91
        5
280
     0
281
     0
  0
CLASS
  1
ACIMINTSYSVAR
  2
AcImIntSysVar
  3
AcMeServices
 90
     1024
 91
       28
280
     0
281
     0
  0
CLASS
  1
ACIMSTRSYSVAR
  2
AcImStrSysVar
  3
AcMeServices
 90
     1024
 91
        5
280
     0
281
     0
  0
CLASS
  1
ACMSTANDARDJIS
  2
AcmStandardJIS
  3
"Amdt_StdImp|Product Description: AutoCAD Mechanical|Company: Autodesk, Inc."
 90
     1024
 91
        1
280
     0
281
     0
  0
CLASS
  1
ACMSTANDARDANSI
  2
AcmStandardANSI
  3
"Amdt_StdImp|Product Description: AutoCAD Mechanical|Company: Autodesk, Inc."
 90
     1024
 91
        1
280
     0
281
     0
  0
CLASS
  1
ACMSTANDARDBSI
  2
AcmStandardBSI
  3
"Amdt_StdImp|Product Description: AutoCAD Mechanical|Company: Autodesk, Inc."
 90
     1024
 91
        1
280
     0
281
     0
  0
CLASS
  1
ACMSTANDARDDIN
  2
AcmStandardDIN
  3
"Amdt_StdImp|Product Description: AutoCAD Mechanical|Company: Autodesk, Inc."
 90
     1024
 91
        1
280
     0
281
     0
  0
CLASS
  1
ACMSTANDARDISO
  2
AcmStandardISO
  3
"Amdt_StdImp|Product Description: AutoCAD Mechanical|Company: Autodesk, Inc."
 90
     1024
 91
        1
280
     0
281
     0
  0
CLASS
  1
LAYER_INDEX
  2
AcDbLayerIndex
  3
ObjectDBX Classes
 90
        0
 91
        1
280
     0
281
     0
  0
CLASS
  1
ACDBDICTIONARYWDFLT
  2
AcDbDictionaryWithDefault
  3
ObjectDBX Classes
 90
        0
 91
        1
280
     0
281
     0
  0
CLASS
  1
ACME_DOCUMENT
  2
AcMeDbDoc
  3
AcMeServices
 90
     1024
 91
        2
280
     0
281
     0
  0
CLASS
  1
AMGSETTINGSOBJ
  2
AmgSettingsObj
  3
"AcadM|Product Description: AutoCAD Mechanical|Company: Autodesk, Inc."
 90
     1024
 91
        3
280
     0
281
     0
  0
CLASS
  1
ACIMREALSYSVAR
  2
AcImRealSysVar
  3
AcMeServices
 90
     1024
 91
        3
280
     0
281
     0
  0
CLASS
  1
ACDBENTITYCACHE
  2
AcMeEntityCache
  3
AcMeServices
 90
     1024
 91
        1
280
     0
281
     0
  0
CLASS
  1
GSMANAGER
  2
AcMeGSManager
  3
AcMeServices
 90
     1024
 91
        1
280
     0
281
     0
  0
CLASS
  1
AMDTINTERNALREACTOR
  2
AmdtInternalReactor
  3
AcMeServices
 90
     1024
 91
        2
280
     0
281
     0
  0
CLASS
  1
ACME_DATABASE
  2
AcMeDbDatabase
  3
AcMeServices
 90
     1024
 91
        1
280
     0
281
     0
  0
CLASS
  1
ACMDATADICTIONARY
  2
AcmDataDictionary
  3
"AcmSymBB|Product Description: AutoCAD Mechanical|Company: Autodesk, Inc."
 90
     1024
 91
        1
280
     0
281
     0
  0
CLASS
  1
ACMDATAENTRYBLOCK
  2
AcmDataEntryBlock
  3
AcmSymBB|Product Description: AutoCAD Mechanical|Company: Autodesk, Inc.
 90
     1024
 91
        1
280
     0
281
     0
  0
CLASS
  1
ACMSURFSTANDARDJIS
  2
AcmSurfTextStdJIS
  3
"Amdt_StdImp|Product Description: AutoCAD Mechanical|Company: Autodesk, Inc."
 90
     1024
 91
        2
280
     0
281
     0
  0
CLASS
  1
ACMFCFSTANDARDJIS
  2
AcmFCFStdJIS
  3
"Amdt_StdImp|Product Description: AutoCAD Mechanical|Company: Autodesk, Inc."
 90
     1024
 91
        2
280
     0
281
     0
  0
CLASS
  1
ACMWELDSTANDARDJIS
  2
AcmWeldingStdJIS
  3
"Amdt_StdImp|Product Description: AutoCAD Mechanical|Company: Autodesk, Inc."
 90
     1024
 91
        2
280
     0
281
     0
  0
CLASS
  1
ACMIDSTANDARDJIS
  2
AcmIdStdJIS
  3
"Amdt_StdImp|Product Description: AutoCAD Mechanical|Company: Autodesk, Inc."
 90
     1024
 91
        2
280
     0
281
     0
  0
CLASS
  1
ACMDATUMSTANDARDJIS
  2
AcmDatumStdJIS
  3
"Amdt_StdImp|Product Description: AutoCAD Mechanical|Company: Autodesk, Inc."
 90
     1024
 91
        2
280
     0
281
     0
  0
CLASS
  1
ACMBOMSTANDARDJIS
  2
AcmBOMStdJIS
  3
"Amdt_StdImp|Product Description: AutoCAD Mechanical|Company: Autodesk, Inc."
 90
     1024
 91
        2
280
     0
281
     0
  0
CLASS
  1
AMGOBJPROPCFG
  2
AmgObjPropCfg
  3
"AmgLay|Product Description: AutoCAD Mechanical|Company: Autodesk, Inc."
 90
     1025
 91
        1
280
     0
281
     0
  0
CLASS
  1
ACMSURFSTANDARDANSI
  2
AcmSurfTextStdANSI
  3
"Amdt_StdImp|Product Description: AutoCAD Mechanical|Company: Autodesk, Inc."
 90
     1024
 91
        2
280
     0
281
     0
  0
CLASS
  1
ACMFCFSTANDARDANSI
  2
AcmFCFStdANSI
  3
"Amdt_StdImp|Product Description: AutoCAD Mechanical|Company: Autodesk, Inc."
 90
     1024
 91
        2
280
     0
281
     0
  0
CLASS
  1
ACMWELDSTANDARDANSI
  2
AcmWeldingStdANSI
  3
"Amdt_StdImp|Product Description: AutoCAD Mechanical|Company: Autodesk, Inc."
 90
     1024
 91
        2
280
     0
281
     0
  0
CLASS
  1
ACMIDSTANDARDANSI
  2
AcmIdStdANSI
  3
"Amdt_StdImp|Product Description: AutoCAD Mechanical|Company: Autodesk, Inc."
 90
     1024
 91
        2
280
     0
281
     0
  0
CLASS
  1
ACMDATUMSTANDARDANSI
  2
AcmDatumStdANSI
  3
"Amdt_StdImp|Product Description: AutoCAD Mechanical|Company: Autodesk, Inc."
 90
     1024
 91
        2
280
     0
281
     0
  0
CLASS
  1
ACMBOMSTANDARDANSI
  2
AcmBOMStdANSI
  3
"Amdt_StdImp|Product Description: AutoCAD Mechanical|Company: Autodesk, Inc."
 90
     1024
 91
        2
280
     0
281
     0
  0
CLASS
  1
ACMSURFSTANDARDBSI
  2
AcmSurfTextStdBSI
  3
"Amdt_StdImp|Product Description: AutoCAD Mechanical|Company: Autodesk, Inc."
 90
     1024
 91
        2
280
     0
281
     0
  0
CLASS
  1
ACMFCFSTANDARDBSI
  2
AcmFCFStdBSI
  3
"Amdt_StdImp|Product Description: AutoCAD Mechanical|Company: Autodesk, Inc."
 90
     1024
 91
        2
280
     0
281
     0
  0
CLASS
  1
ACMWELDSTANDARDBSI
  2
AcmWeldingStdBSI
  3
"Amdt_StdImp|Product Description: AutoCAD Mechanical|Company: Autodesk, Inc."
 90
     1024
 91
        2
280
     0
281
     0
  0
CLASS
  1
ACMIDSTANDARDBSI
  2
AcmIdStdBSI
  3
"Amdt_StdImp|Product Description: AutoCAD Mechanical|Company: Autodesk, Inc."
 90
     1024
 91
        2
280
     0
281
     0
  0
CLASS
  1
ACMDATUMSTANDARDBSI
  2
AcmDatumStdBSI
  3
"Amdt_StdImp|Product Description: AutoCAD Mechanical|Company: Autodesk, Inc."
 90
     1024
 91
        2
280
     0
281
     0
  0
CLASS
  1
ACMBOMSTANDARDBSI
  2
AcmBOMStdBSI
  3
"Amdt_StdImp|Product Description: AutoCAD Mechanical|Company: Autodesk, Inc."
 90
     1024
 91
        2
280
     0
281
     0
  0
CLASS
  1
AMDTEDGESTANDARDDIN
  2
AmdtEdgeStdDIN
  3
"Amdt_StdImp|Product Description: AutoCAD Mechanical|Company: Autodesk, Inc."
 90
     1024
 91
        2
280
     0
281
     0
  0
CLASS
  1
ACMSURFSTANDARDDIN
  2
AcmSurfTextStdDIN
  3
"Amdt_StdImp|Product Description: AutoCAD Mechanical|Company: Autodesk, Inc."
 90
     1024
 91
        2
280
     0
281
     0
  0
CLASS
  1
ACMFCFSTANDARDDIN
  2
AcmFCFStdDIN
  3
"Amdt_StdImp|Product Description: AutoCAD Mechanical|Company: Autodesk, Inc."
 90
     1024
 91
        2
280
     0
281
     0
  0
CLASS
  1
ACMWELDSTANDARDDIN
  2
AcmWeldingStdDIN
  3
"Amdt_StdImp|Product Description: AutoCAD Mechanical|Company: Autodesk, Inc."
 90
     1024
 91
        2
280
     0
281
     0
  0
CLASS
  1
ACMIDSTANDARDDIN
  2
AcmIdStdDIN
  3
"Amdt_StdImp|Product Description: AutoCAD Mechanical|Company: Autodesk, Inc."
 90
     1024
 91
        2
280
     0
281
     0
  0
CLASS
  1
ACMDATUMSTANDARDDIN
  2
AcmDatumStdDIN
  3
"Amdt_StdImp|Product Description: AutoCAD Mechanical|Company: Autodesk, Inc."
 90
     1024
 91
        2
280
     0
281
     0
  0
CLASS
  1
ACMBOMSTANDARDDIN
  2
AcmBOMStdDIN
  3
"Amdt_StdImp|Product Description: AutoCAD Mechanical|Company: Autodesk, Inc."
 90
     1024
 91
        2
280
     0
281
     0
  0
CLASS
  1
AMDTEDGESTANDARDISO
  2
AmdtEdgeStdISO
  3
"Amdt_StdImp|Product Description: AutoCAD Mechanical|Company: Autodesk, Inc."
 90
     1024
 91
        2
280
     0
281
     0
  0
CLASS
  1
ACMSURFSTANDARDISO
  2
AcmSurfTextStdISO
  3
"Amdt_StdImp|Product Description: AutoCAD Mechanical|Company: Autodesk, Inc."
 90
     1024
 91
        2
280
     0
281
     0
  0
CLASS
  1
ACMFCFSTANDARDISO
  2
AcmFCFStdISO
  3
"Amdt_StdImp|Product Description: AutoCAD Mechanical|Company: Autodesk, Inc."
 90
     1024
 91
        2
280
     0
281
     0
  0
CLASS
  1
ACMWELDSTANDARDISO
  2
AcmWeldingStdISO
  3
"Amdt_StdImp|Product Description: AutoCAD Mechanical|Company: Autodesk, Inc."
 90
     1024
 91
        2
280
     0
281
     0
  0
CLASS
  1
ACMIDSTANDARDISO
  2
AcmIdStdISO
  3
"Amdt_StdImp|Product Description: AutoCAD Mechanical|Company: Autodesk, Inc."
 90
     1024
 91
        2
280
     0
281
     0
  0
CLASS
  1
ACMDATUMSTANDARDISO
  2
AcmDatumStdISO
  3
"Amdt_StdImp|Product Description: AutoCAD Mechanical|Company: Autodesk, Inc."
 90
     1024
 91
        2
280
     0
281
     0
  0
CLASS
  1
ACMBOMSTANDARDISO
  2
AcmBOMStdISO
  3
"Amdt_StdImp|Product Description: AutoCAD Mechanical|Company: Autodesk, Inc."
 90
     1024
 91
        2
280
     0
281
     0
  0
CLASS
  1
ACAMGFILTERDAT
  2
AcAmgFilterDat
  3
"AcadM|Product Description: AutoCAD Mechanical|Company: Autodesk, Inc."
 90
     1024
 91
        5
280
     0
281
     0
  0
CLASS
  1
ACMDIMBREAKPERSREACTOR
  2
AcmDimBreakPersReactor
  3
AmgDim|Product Description: AutoCAD Mechanical|Company: Autodesk, Inc.
 90
     4095
 91
        1
280
     0
281
     0
  0
CLASS
  1
AMDTNOTE
  2
AmdtNote
  3
"AcmSymBB|Product Description: AutoCAD Mechanical|Company: Autodesk, Inc."
 90
     4095
 91
        0
280
     0
281
     1
  0
CLASS
  1
ACGREFMASTER
  2
AcGrefMaster
  3
AcAttribServices
 90
     1024
 91
        1
280
     0
281
     0
  0
CLASS
  1
AM_DRAWING_MGR
  2
AcDmDwgMgr
  3
AcMechDwgViewMgmt
 90
     1024
 91
        1
280
     0
281
     0
  0
CLASS
  1
AM_DWG_DOCUMENT
  2
AcDmDwgDocument
  3
AcMechDwgViewMgmt
 90
     1024
 91
        1
280
     0
281
     0
  0
CLASS
  1
AM_DWG_SHEET
  2
AcDmSheet
  3
AcMechDwgViewMgmt
 90
     1024
 91
        1
280
     0
281
     0
  0
CLASS
  1
AM_VIEWDIMPARMAP
  2
AcDmViewDimParMap
  3
AcMechDwgViewMgmt
 90
     1024
 91
        1
280
     0
281
     0
  0
CLASS
  1
AM_DWGMGR_NAME
  2
AcDmDwgMgrName
  3
AcMechDwgViewMgmt
 90
     1024
 91
        1
280
     0
281
     0
  0
CLASS
  1
ACGREFACADMASTER
  2
AcGrefacadMaster
  3
AcGrefServices
 90
     1024
 91
        1
280
     0
281
     0
  0
CLASS
  1
AMDTMENUSTATEMGR
  2
AmdtMenuStateMgr
  3
McadcomServices
 90
     1024
 91
        1
280
     0
281
     0
  0
CLASS
  1
AMDTMCOMMENUSTATE
  2
AmdtMcomMenuState
  3
McadcomServices
 90
     1024
 91
        1
280
     0
281
     0
  0
CLASS
  1
AMIMASTER
  2
AmiMaster
  3
AmiServices
 90
     1024
 91
        1
280
     0
281
     0
  0
CLASS
  1
MAPIAMMOUDLE
  2
MApiAmModule
  3
MApiAmServices
 90
     1024
 91
        1
280
     0
281
     0
  0
CLASS
  1
AMDTADMENUSTATE
  2
AmdtAdMenuState
  3
DesignerServices
 90
     1024
 91
        1
280
     0
281
     0
  0
CLASS
  1
ADAPPL
  2
AcAdAppl
  3
DesignerServices
 90
     1024
 91
        1
280
     0
281
     0
  0
CLASS
  1
DEPMGR
  2
AcAdDepMgr
  3
DesignerServices
 90
     1024
 91
        1
280
     0
281
     0
  0
CLASS
  1
PARAMMGR
  2
AcAdParamMgr
  3
DesignerServices
 90
     1024
 91
        1
280
     0
281
     0
  0
CLASS
  1
PARAMSCOPE
  2
AcAdParamScope
  3
DesignerServices
 90
     1024
 91
        1
280
     0
281
     0
  0
CLASS
  1
NAMEDAPPL
  2
AcAdNamedAppl
  3
DesignerServices
 90
     1024
 91
        1
280
     0
281
     0
  0
CLASS
  1
AMDTDMMENUSTATE
  2
AmdtDmMenuState
  3
AcMechDwgViewMgmt
 90
     1024
 91
        1
280
     0
281
     0
  0
CLASS
  1
AMDTAMMENUSTATE
  2
AmdtAmMenuState
  3
DesignerAssemblies
 90
     1024
 91
        1
280
     0
281
     0
  0
CLASS
  1
ACAMPROJECT
  2
AcAmProject
  3
DesignerAssemblies
 90
     1024
 91
        1
280
     0
281
     0
  0
CLASS
  1
ACAMGRCOMPDEF
  2
AcAmGrCompDef
  3
DesignerAssemblies
 90
     1024
 91
        1
280
     0
281
     0
  0
CLASS
  1
ACCMCONTEXT
  2
AcCmContext
  3
DesignerAssemblies
 90
     1024
 91
        1
280
     0
281
     0
  0
CLASS
  1
ACAMCOMPDEF
  2
AcAmCompDef
  3
DesignerAssemblies
 90
     1024
 91
        1
280
     0
281
     0
  0
CLASS
  1
ACAMCOMPDEFMGR
  2
AcAmCompDefMgr
  3
DesignerAssemblies
 90
     1024
 91
        1
280
     0
281
     0
  0
CLASS
  1
AMCONTEXTMGR
  2
AcAmContextMgr
  3
DesignerAssemblies
 90
     1024
 91
        1
280
     0
281
     0
  0
CLASS
  1
ACAMCONTEXTMODELER
  2
AcAmContextModeler
  3
DesignerAssemblies
 90
     1024
 91
        1
280
     0
281
     0
  0
CLASS
  1
ACAMGTITLESTD
  2
AcAmgTitleStd
  3
"AmgTitle|Product Description: AutoCAD Mechanical|Company: Autodesk, Inc."
 90
     4095
 91
        5
280
     0
281
     0
  0
CLASS
  1
ACMDETAILSTANDARDJIS
  2
AmdtDetailSymStdJIS
  3
"Amdt_StdImp|Product Description: AutoCAD Mechanical|Company: Autodesk, Inc."
 90
     1024
 91
        1
280
     0
281
     0
  0
CLASS
  1
ACMSECTIONSTANDARDJIS
  2
AmdtSectionSymStdJIS
  3
"Amdt_StdImp|Product Description: AutoCAD Mechanical|Company: Autodesk, Inc."
 90
     1024
 91
        1
280
     0
281
     0
  0
CLASS
  1
ACMCENTERLINESTANDARDJIS
  2
AmdtCenterLineStdJIS
  3
"Amdt_StdImp|Product Description: AutoCAD Mechanical|Company: Autodesk, Inc."
 90
     1024
 91
        1
280
     0
281
     0
  0
CLASS
  1
ACMTHREADLINESTANDARDJIS
  2
AmdtThreadLineStdJIS
  3
"Amdt_StdImp|Product Description: AutoCAD Mechanical|Company: Autodesk, Inc."
 90
     1024
 91
        1
280
     0
281
     0
  0
CLASS
  1
ACMNOTESTANDARDJIS
  2
AmdtNoteStdJIS
  3
"Amdt_StdImp|Product Description: AutoCAD Mechanical|Company: Autodesk, Inc."
 90
     1024
 91
        1
280
     0
281
     0
  0
CLASS
  1
AMDTNOTETEMPLATEDB
  2
AmdtNoteTemplateDB
  3
AcmSymBB|Product Description: AutoCAD Mechanical|Company: Autodesk, Inc.
 90
     1024
 91
       20
280
     0
281
     0
  0
CLASS
  1
ACMDETAILSTANDARDANSI
  2
AmdtDetailSymStdANSI
  3
"Amdt_StdImp|Product Description: AutoCAD Mechanical|Company: Autodesk, Inc."
 90
     1024
 91
        1
280
     0
281
     0
  0
CLASS
  1
ACMSECTIONSTANDARDANSI
  2
AmdtSectionSymStdANSI
  3
"Amdt_StdImp|Product Description: AutoCAD Mechanical|Company: Autodesk, Inc."
 90
     1024
 91
        1
280
     0
281
     0
  0
CLASS
  1
ACMCENTERLINESTANDARDANSI
  2
AmdtCenterLineStdANSI
  3
"Amdt_StdImp|Product Description: AutoCAD Mechanical|Company: Autodesk, Inc."
 90
     1024
 91
        1
280
     0
281
     0
  0
CLASS
  1
ACMTHREADLINESTANDARDANSI
  2
AmdtThreadLineStdANSI
  3
"Amdt_StdImp|Product Description: AutoCAD Mechanical|Company: Autodesk, Inc."
 90
     1024
 91
        1
280
     0
281
     0
  0
CLASS
  1
ACMNOTESTANDARDANSI
  2
AmdtNoteStdANSI
  3
"Amdt_StdImp|Product Description: AutoCAD Mechanical|Company: Autodesk, Inc."
 90
     1024
 91
        1
280
     0
281
     0
  0
CLASS
  1
ACMDETAILSTANDARDBSI
  2
AmdtDetailSymStdBSI
  3
"Amdt_StdImp|Product Description: AutoCAD Mechanical|Company: Autodesk, Inc."
 90
     1024
 91
        1
280
     0
281
     0
  0
CLASS
  1
ACMSECTIONSTANDARDBSI
  2
AmdtSectionSymStdBSI
  3
"Amdt_StdImp|Product Description: AutoCAD Mechanical|Company: Autodesk, Inc."
 90
     1024
 91
        1
280
     0
281
     0
  0
CLASS
  1
ACMCENTERLINESTANDARDBSI
  2
AmdtCenterLineStdBSI
  3
"Amdt_StdImp|Product Description: AutoCAD Mechanical|Company: Autodesk, Inc."
 90
     1024
 91
        1
280
     0
281
     0
  0
CLASS
  1
ACMTHREADLINESTANDARDBSI
  2
AmdtThreadLineStdBSI
  3
"Amdt_StdImp|Product Description: AutoCAD Mechanical|Company: Autodesk, Inc."
 90
     1024
 91
        1
280
     0
281
     0
  0
CLASS
  1
ACMNOTESTANDARDBSI
  2
AmdtNoteStdBSI
  3
"Amdt_StdImp|Product Description: AutoCAD Mechanical|Company: Autodesk, Inc."
 90
     1024
 91
        1
280
     0
281
     0
  0
CLASS
  1
ACMDETAILSTANDARDDIN
  2
AmdtDetailSymStdDIN
  3
"Amdt_StdImp|Product Description: AutoCAD Mechanical|Company: Autodesk, Inc."
 90
     1024
 91
        1
280
     0
281
     0
  0
CLASS
  1
ACMSECTIONSTANDARDDIN
  2
AmdtSectionSymStdDIN
  3
"Amdt_StdImp|Product Description: AutoCAD Mechanical|Company: Autodesk, Inc."
 90
     1024
 91
        1
280
     0
281
     0
  0
CLASS
  1
ACMCENTERLINESTANDARDDIN
  2
AmdtCenterLineStdDIN
  3
"Amdt_StdImp|Product Description: AutoCAD Mechanical|Company: Autodesk, Inc."
 90
     1024
 91
        1
280
     0
281
     0
  0
CLASS
  1
ACMTHREADLINESTANDARDDIN
  2
AmdtThreadLineStdDIN
  3
"Amdt_StdImp|Product Description: AutoCAD Mechanical|Company: Autodesk, Inc."
 90
     1024
 91
        1
280
     0
281
     0
  0
CLASS
  1
ACMNOTESTANDARDDIN
  2
AmdtNoteStdDIN
  3
"Amdt_StdImp|Product Description: AutoCAD Mechanical|Company: Autodesk, Inc."
 90
     1024
 91
        1
280
     0
281
     0
  0
CLASS
  1
ACMDETAILSTANDARDISO
  2
AmdtDetailSymStdISO
  3
"Amdt_StdImp|Product Description: AutoCAD Mechanical|Company: Autodesk, Inc."
 90
     1024
 91
        1
280
     0
281
     0
  0
CLASS
  1
ACMSECTIONSTANDARDISO
  2
AmdtSectionSymStdISO
  3
"Amdt_StdImp|Product Description: AutoCAD Mechanical|Company: Autodesk, Inc."
 90
     1024
 91
        1
280
     0
281
     0
  0
CLASS
  1
ACMCENTERLINESTANDARDISO
  2
AmdtCenterLineStdISO
  3
"Amdt_StdImp|Product Description: AutoCAD Mechanical|Company: Autodesk, Inc."
 90
     1024
 91
        1
280
     0
281
     0
  0
CLASS
  1
ACMTHREADLINESTANDARDISO
  2
AmdtThreadLineStdISO
  3
"Amdt_StdImp|Product Description: AutoCAD Mechanical|Company: Autodesk, Inc."
 90
     1024
 91
        1
280
     0
281
     0
  0
CLASS
  1
ACMNOTESTANDARDISO
  2
AmdtNoteStdISO
  3
"Amdt_StdImp|Product Description: AutoCAD Mechanical|Company: Autodesk, Inc."
 90
     1024
 91
        1
280
     0
281
     0
  0
CLASS
  1
ACAMGLAYSTD
  2
AcAmgLayStd
  3
"AmgLay|Product Description: AutoCAD Mechanical|Company: Autodesk, Inc."
 90
     1024
 91
        5
280
     0
281
     0
  0
CLASS
  1
ACAMGDIMSTD
  2
AcAmgDimStd
  3
"AmgDim|Product Description: AutoCAD Mechanical|Company: Autodesk, Inc."
 90
     1024
 91
        5
280
     0
281
     0
  0
CLASS
  1
ACAMGHOLECHARTSTDANSI
  2
AcAmgHoleChartStdANSI
  3
AmgDim|Product Description: AutoCAD Mechanical|Company: Autodesk, Inc.
 90
     1024
 91
        1
280
     0
281
     0
  0
CLASS
  1
ACAMGHOLECHARTSTDBSI
  2
AcAmgHoleChartStdBSI
  3
AmgDim|Product Description: AutoCAD Mechanical|Company: Autodesk, Inc.
 90
     1024
 91
        1
280
     0
281
     0
  0
CLASS
  1
ACAMGHOLECHARTSTDDIN
  2
AcAmgHoleChartStdDIN
  3
AmgDim|Product Description: AutoCAD Mechanical|Company: Autodesk, Inc.
 90
     1024
 91
        1
280
     0
281
     0
  0
CLASS
  1
ACAMGHOLECHARTSTDISO
  2
AcAmgHoleChartStdISO
  3
AmgDim|Product Description: AutoCAD Mechanical|Company: Autodesk, Inc.
 90
     1024
 91
        1
280
     0
281
     0
  0
CLASS
  1
ACAMGHOLECHARTSTDJIS
  2
AcAmgHoleChartStdJIS
  3
AmgDim|Product Description: AutoCAD Mechanical|Company: Autodesk, Inc.
 90
     1024
 91
        1
280
     0
281
     0
  0
CLASS
  1
CATALOGSTATE
  2
AcAmCatalogState
  3
DesignerAssemblies
 90
     1024
 91
        1
280
     0
281
     0
  0
CLASS
  1
ACAMGRCOMPDEFSET
  2
AcAmGrCompDefSet
  3
DesignerAssemblies
 90
     1024
 91
        1
280
     0
281
     0
  0
CLASS
  1
AMDTBROWSERDBTAB
  2
AmdtBrowserDbTab
  3
McadcomServices
 90
     1024
 91
        1
280
     0
281
     0
  0
CLASS
  1
CBROWSERAPPOBJECT
  2
CBrowserAppObject
  3
McadcomServices
 90
     1024
 91
        3
280
     0
281
     0
  0
CLASS
  1
DM_PLACEHOLDER
  2
AcDmSelsetPlaceholder
  3
AcMechDwgViewMgmt
 90
     1024
 91
        1
280
     0
281
     0
  0
CLASS
  1
MATERIAL
  2
AcDbMaterial
  3
ObjectDBX Classes
 90
     1153
 91
        3
280
     0
281
     0
  0
CLASS
  1
VISUALSTYLE
  2
AcDbVisualStyle
  3
ObjectDBX Classes
 90
     4095
 91
       16
280
     0
281
     0
  0
CLASS
  1
TABLESTYLE
  2
AcDbTableStyle
  3
ObjectDBX Classes
 90
     4095
 91
        1
280
     0
281
     0
  0
CLASS
  1
SCALE
  2
AcDbScale
  3
ObjectDBX Classes
 90
     1153
 91
       33
280
     0
281
     0
  0
CLASS
  1
MLEADERSTYLE
  2
AcDbMLeaderStyle
  3
ACDB_MLEADERSTYLE_CLASS
 90
     4095
 91
        1
280
     0
281
     0
  0
CLASS
  1
ACRFATTGENMGR
  2
AcRfAttGeneralMgr
  3
AcAttribServices
 90
     1024
 91
        1
280
     0
281
     0
  0
CLASS
  1
ACRFOBJATTMGR
  2
AcRfObjAttGroupMgr
  3
AcAttribServices
 90
     1024
 91
        1
280
     0
281
     0
  0
CLASS
  1
ACRFMCADAPIATTHOLDER
  2
AcRfMCADAPIAttHolder
  3
AcAttribServices
 90
     1024
 91
        1
280
     0
281
     0
  0
CLASS
  1
AMDTSYSATTR
  2
AmdtSystemAttribute
  3
AcAttribServices
 90
     1024
 91
        1
280
     0
281
     0
  0
CLASS
  1
ACMTAPERSTANDARDJIS
  2
AcmTaperStdJIS
  3
"Amdt_StdImp|Product Description: AutoCAD Mechanical|Company: Autodesk, Inc."
 90
     1024
 91
        1
280
     0
281
     0
  0
CLASS
  1
ACMANOOTATIONVIEWSTANDARDJIS
  2
AmdtAnViewStdJIS
  3
"Amdt_StdImp|Product Description: AutoCAD Mechanical|Company: Autodesk, Inc."
 90
     1024
 91
        1
280
     0
281
     0
  0
CLASS
  1
ACMTAPERSTANDARDANSI
  2
AcmTaperStdANSI
  3
"Amdt_StdImp|Product Description: AutoCAD Mechanical|Company: Autodesk, Inc."
 90
     1024
 91
        1
280
     0
281
     0
  0
CLASS
  1
ACMANOOTATIONVIEWSTANDARDANSI
  2
AmdtAnViewStdANSI
  3
"Amdt_StdImp|Product Description: AutoCAD Mechanical|Company: Autodesk, Inc."
 90
     1024
 91
        1
280
     0
281
     0
  0
CLASS
  1
ACMTAPERSTANDARDBSI
  2
AcmTaperStdBSI
  3
"Amdt_StdImp|Product Description: AutoCAD Mechanical|Company: Autodesk, Inc."
 90
     1024
 91
        1
280
     0
281
     0
  0
CLASS
  1
ACMANOOTATIONVIEWSTANDARDBSI
  2
AmdtAnViewStdBSI
  3
"Amdt_StdImp|Product Description: AutoCAD Mechanical|Company: Autodesk, Inc."
 90
     1024
 91
        1
280
     0
281
     0
  0
CLASS
  1
ACMTAPERSTANDARDDIN
  2
AcmTaperStdDIN
  3
"Amdt_StdImp|Product Description: AutoCAD Mechanical|Company: Autodesk, Inc."
 90
     1024
 91
        1
280
     0
281
     0
  0
CLASS
  1
ACMANOOTATIONVIEWSTANDARDDIN
  2
AmdtAnViewStdDIN
  3
"Amdt_StdImp|Product Description: AutoCAD Mechanical|Company: Autodesk, Inc."
 90
     1024
 91
        1
280
     0
281
     0
  0
CLASS
  1
ACMTAPERSTANDARDISO
  2
AcmTaperStdISO
  3
"Amdt_StdImp|Product Description: AutoCAD Mechanical|Company: Autodesk, Inc."
 90
     1024
 91
        1
280
     0
281
     0
  0
CLASS
  1
ACMANOOTATIONVIEWSTANDARDISO
  2
AmdtAnViewStdISO
  3
"Amdt_StdImp|Product Description: AutoCAD Mechanical|Company: Autodesk, Inc."
 90
     1024
 91
        1
280
     0
281
     0
  0
CLASS
  1
CAMSSTRUCTBTNSTATE
  2
StructBtnState
  3
DesignerAssemblies
 90
     1024
 91
        1
280
     0
281
     0
  0
CLASS
  1
CELLSTYLEMAP
  2
AcDbCellStyleMap
  3
ObjectDBX Classes
 90
     1152
 91
        8
280
     0
281
     0
  0
ENDSEC
  0
SECTION
  2
TABLES
  0
TABLE
  2
VPORT
  5
12
330
0
100
AcDbSymbolTable
 70
     1
  0
VPORT
  5
5CBA
330
12
100
AcDbSymbolTableRecord
100
AcDbViewportTableRecord
  2
*Active
 70
     0
 10
0.0
 20
0.0
 11
1.0
 21
1.0
 12
626.376401567499
 22
331.9668309244889
 13
0.0
 23
0.0
 14
2.5
 24
2.5
 15
10.0
 25
10.0
 16
0.0
 26
0.0
 36
1.0
 17
0.0
 27
0.0
 37
0.0
 40
251.4425758476127
 41
1.511511511511511
 42
50.0
 43
0.0
 44
0.0
 50
0.0
 51
0.0
 71
     0
 72
   100
 73
     1
 74
     0
 75
     0
 76
     0
 77
     0
 78
     0
281
     0
 65
     1
110
0.0
120
0.0
130
0.0
111
1.0
121
0.0
131
0.0
112
0.0
122
1.0
132
0.0
 79
     0
146
0.0
  0
ENDTAB
  0
TABLE
  2
LTYPE
  5
D
330
0
100
AcDbSymbolTable
 70
    32
  0
LTYPE
  5
E
330
D
100
AcDbSymbolTableRecord
100
AcDbLinetypeTableRecord
  2
BYBLOCK
 70
     0
  3

 72
    65
 73
     0
 40
0.0
  0
LTYPE
  5
F
330
D
100
AcDbSymbolTableRecord
100
AcDbLinetypeTableRecord
  2
BYLAYER
 70
     0
  3

 72
    65
 73
     0
 40
0.0
  0
LTYPE
  5
5
330
D
100
AcDbSymbolTableRecord
100
AcDbLinetypeTableRecord
  2
CONTINUOUS
 70
     0
  3
Solid line
 72
    65
 73
     0
 40
0.0
  0
LTYPE
  5
20
330
D
100
AcDbSymbolTableRecord
100
AcDbLinetypeTableRecord
  2
MITTE
 70
     0
  3
____ _ ____ _ ____ _ ____ _ ____ _ ____ _ ____ 
 72
    65
 73
     4
 40
2.0
 49
1.25
 74
     0
 49
-0.25
 74
     0
 49
0.25
 74
     0
 49
-0.25
 74
     0
  0
LTYPE
  5
129
330
D
100
AcDbSymbolTableRecord
100
AcDbLinetypeTableRecord
  2
STRICHLINIE
 70
     0
  3
Strichlinie __ __ __ __ __ __ __ __ __ __ __ __
 72
    65
 73
     2
 40
0.75
 49
0.5
 74
     0
 49
-0.25
 74
     0
  0
LTYPE
  5
26C
330
D
100
AcDbSymbolTableRecord
100
AcDbLinetypeTableRecord
  2
ACJISTGB
 70
     0
  3
__ . . __ . .
 72
    65
 73
     6
 40
9.0
 49
4.0
 74
     0
 49
-1.0
 74
     0
 49
1.0
 74
     0
 49
-1.0
 74
     0
 49
1.0
 74
     0
 49
-1.0
 74
     0
  0
LTYPE
  5
26D
330
D
100
AcDbSymbolTableRecord
100
AcDbLinetypeTableRecord
  2
ACJISTGL
 70
     0
  3
_ _ _ _ _
 72
    65
 73
     2
 40
3.0
 49
2.0
 74
     0
 49
-1.0
 74
     0
  0
LTYPE
  5
270
330
D
100
AcDbSymbolTableRecord
100
AcDbLinetypeTableRecord
  2
ACANSTGB
 70
     0
  3
__ . . __ . .
 72
    65
 73
     6
 40
0.35433070866
 49
0.15748031496
 74
     0
 49
-0.03937007874
 74
     0
 49
0.03937007874
 74
     0
 49
-0.03937007874
 74
     0
 49
0.03937007874
 74
     0
 49
-0.03937007874
 74
     0
  0
LTYPE
  5
271
330
D
100
AcDbSymbolTableRecord
100
AcDbLinetypeTableRecord
  2
ACANSTGL
 70
     0
  3
_ _ _ _ _
 72
    65
 73
     2
 40
0.11811023622
 49
0.07874015748
 74
     0
 49
-0.03937007874
 74
     0
  0
LTYPE
  5
274
330
D
100
AcDbSymbolTableRecord
100
AcDbLinetypeTableRecord
  2
ACBSIWELD
 70
     0
  3
_ _ _ _ _
 72
    65
 73
     2
 40
2.0
 49
2.0
 74
     0
 49
-1.0
 74
     0
  0
LTYPE
  5
275
330
D
100
AcDbSymbolTableRecord
100
AcDbLinetypeTableRecord
  2
ACBSITGB
 70
     0
  3
__ . . __ . .
 72
    65
 73
     6
 40
9.0
 49
4.0
 74
     0
 49
-1.0
 74
     0
 49
1.0
 74
     0
 49
-1.0
 74
     0
 49
1.0
 74
     0
 49
-1.0
 74
     0
  0
LTYPE
  5
276
330
D
100
AcDbSymbolTableRecord
100
AcDbLinetypeTableRecord
  2
ACBSITGL
 70
     0
  3
_ _ _ _ _
 72
    65
 73
     2
 40
3.0
 49
2.0
 74
     0
 49
-1.0
 74
     0
  0
LTYPE
  5
279
330
D
100
AcDbSymbolTableRecord
100
AcDbLinetypeTableRecord
  2
ACDINWELD
 70
     0
  3
_ _ _ _ _
 72
    65
 73
     2
 40
2.0
 49
2.0
 74
     0
 49
-1.0
 74
     0
  0
LTYPE
  5
27A
330
D
100
AcDbSymbolTableRecord
100
AcDbLinetypeTableRecord
  2
ACDINTGB
 70
     0
  3
__ . . __ . .
 72
    65
 73
     6
 40
9.0
 49
4.0
 74
     0
 49
-1.0
 74
     0
 49
1.0
 74
     0
 49
-1.0
 74
     0
 49
1.0
 74
     0
 49
-1.0
 74
     0
  0
LTYPE
  5
27B
330
D
100
AcDbSymbolTableRecord
100
AcDbLinetypeTableRecord
  2
ACDINTGL
 70
     0
  3
_ _ _ _ _
 72
    65
 73
     2
 40
3.0
 49
2.0
 74
     0
 49
-1.0
 74
     0
  0
LTYPE
  5
27E
330
D
100
AcDbSymbolTableRecord
100
AcDbLinetypeTableRecord
  2
ACISOWELD
 70
     0
  3
_ _ _ _ _
 72
    65
 73
     2
 40
2.0
 49
2.0
 74
     0
 49
-1.0
 74
     0
  0
LTYPE
  5
27F
330
D
100
AcDbSymbolTableRecord
100
AcDbLinetypeTableRecord
  2
ACISOTGB
 70
     0
  3
__ . . __ . .
 72
    65
 73
     6
 40
9.0
 49
4.0
 74
     0
 49
-1.0
 74
     0
 49
1.0
 74
     0
 49
-1.0
 74
     0
 49
1.0
 74
     0
 49
-1.0
 74
     0
  0
LTYPE
  5
280
330
D
100
AcDbSymbolTableRecord
100
AcDbLinetypeTableRecord
  2
ACISOTGL
 70
     0
  3
_ _ _ _ _
 72
    65
 73
     2
 40
3.0
 49
2.0
 74
     0
 49
-1.0
 74
     0
  0
LTYPE
  5
6ED
330
D
100
AcDbSymbolTableRecord
100
AcDbLinetypeTableRecord
  2
Amconstr
 70
     0
  3
_______________________
 72
    65
 73
     2
 40
9999.0
 49
9999.0
 74
     0
 49
0.0
 74
     0
  0
LTYPE
  5
6F3
330
D
100
AcDbSymbolTableRecord
100
AcDbLinetypeTableRecord
  2
PHANTOM2
 70
     0
  3
Phantom (.5x) ___ _ _ ___ _ _ ___ _ _ ___ _ _
 72
    65
 73
     6
 40
1.25
 49
0.625
 74
     0
 49
-0.125
 74
     0
 49
0.125
 74
     0
 49
-0.125
 74
     0
 49
0.125
 74
     0
 49
-0.125
 74
     0
  0
LTYPE
  5
6F4
330
D
100
AcDbSymbolTableRecord
100
AcDbLinetypeTableRecord
  2
Amzigzag2
 70
     0
  3
/\/-/\/-/\/-/\/-/\/-/\/
 72
    65
 73
     2
 40
0.4401
 49
0.0001
 74
     4
 75
   135
340
6F1
 46
0.0016
 50
0.0
 44
0.0
 45
0.0
 49
-0.4400000000000001
 74
     0
  0
LTYPE
  5
5C09
330
D
100
AcDbSymbolTableRecord
100
AcDbLinetypeTableRecord
  2
HIDDEN
 70
     0
  3
Verdeckt
 72
    65
 73
     2
 40
0.375
 49
0.25
 74
     0
 49
-0.125
 74
     0
  0
LTYPE
  5
5C0A
330
D
100
AcDbSymbolTableRecord
100
AcDbLinetypeTableRecord
  2
CENTER
 70
     0
  3
Mitte ____ _ ____ _ ____ _ ____ _ ____ _ ____
 72
    65
 73
     4
 40
2.0
 49
1.25
 74
     0
 49
-0.25
 74
     0
 49
0.25
 74
     0
 49
-0.25
 74
     0
  0
LTYPE
  5
5E2A
330
D
100
AcDbSymbolTableRecord
100
AcDbLinetypeTableRecord
  2
Amzigzag
 70
     0
  3
/\/-/\/-/\/-/\/-/\/-/\/
 72
    65
 73
     2
 40
11.0001
 49
0.0001
 74
     4
 75
   136
340
5E29
 46
0.04
 50
0.0
 44
0.0
 45
0.0
 49
-11.0
 74
     0
  0
LTYPE
  5
5E2B
330
D
100
AcDbSymbolTableRecord
100
AcDbLinetypeTableRecord
  2
AM_DIN_F_W050
 70
     0
  3
__ __ __ __ __ __ __ __ __ __ __ __ __ __ __
 72
    65
 73
     2
 40
6.25
 49
4.75
 74
     0
 49
-1.5
 74
     0
  0
LTYPE
  5
5E2C
330
D
100
AcDbSymbolTableRecord
100
AcDbLinetypeTableRecord
  2
AM_DIN_G_W050
 70
     0
  3
____ . ____ . ____ . ____ . ____ . ____ . ____
 72
    65
 73
     4
 40
13.75
 49
9.75
 74
     0
 49
-1.5
 74
     0
 49
1.0
 74
     0
 49
-1.5
 74
     0
  0
LTYPE
  5
5E2D
330
D
100
AcDbSymbolTableRecord
100
AcDbLinetypeTableRecord
  2
AM_DIN_K_W050
 70
     0
  3
_____ . . _____ . . _____ . . ____ .. ____
 72
    65
 73
     6
 40
16.25
 49
9.75
 74
     0
 49
-1.5
 74
     0
 49
1.0
 74
     0
 49
-1.5
 74
     0
 49
1.0
 74
     0
 49
-1.5
 74
     0
  0
LTYPE
  5
5E2E
330
D
100
AcDbSymbolTableRecord
100
AcDbLinetypeTableRecord
  2
AM_DIN_G_W050x2
 70
     0
  3
__ . __ . __ . __ . __ . __
 72
    65
 73
     4
 40
6.875
 49
4.75
 74
     0
 49
-0.875
 74
     0
 49
0.375
 74
     0
 49
-0.875
 74
     0
  0
LTYPE
  5
5E2F
330
D
100
AcDbSymbolTableRecord
100
AcDbLinetypeTableRecord
  2
AM_DIN_F_W050x2
 70
     0
  3
 _ _ _ _ _ _ _ _ _ _ _ _
 72
    65
 73
     2
 40
3.125
 49
2.25
 74
     0
 49
-0.875
 74
     0
  0
ENDTAB
  0
TABLE
  2
LAYER
  5
A
330
0
100
AcDbSymbolTable
 70
     5
  0
LAYER
  5
4
102
{ACAD_XDICTIONARY
360
5D5D
102
}
330
A
100
AcDbSymbolTableRecord
100
AcDbLayerTableRecord
  2
0
 70
     0
 62
     7
  6
CONTINUOUS
370
    -3
390
6C1
  0
LAYER
  5
27
102
{ACAD_XDICTIONARY
360
5D5F
102
}
330
A
100
AcDbSymbolTableRecord
100
AcDbLayerTableRecord
  2
BEM
 70
     1
 62
     1
  6
CONTINUOUS
370
    -3
390
6C1
  0
LAYER
  5
1F
102
{ACAD_XDICTIONARY
360
5D61
102
}
330
A
100
AcDbSymbolTableRecord
100
AcDbLayerTableRecord
  2
MITTE
 70
     0
 62
     6
  6
MITTE
370
    -3
390
6C1
  0
LAYER
  5
79
102
{ACAD_XDICTIONARY
360
5D63
102
}
330
A
100
AcDbSymbolTableRecord
100
AcDbLayerTableRecord
  2
LINIE
 70
     0
 62
     6
  6
CONTINUOUS
370
    -3
390
6C1
  0
LAYER
  5
30
330
A
100
AcDbSymbolTableRecord
100
AcDbLayerTableRecord
  2
Defpoints
 70
     0
 62
     7
  6
CONTINUOUS
290
     0
370
    -3
390
6C1
  0
ENDTAB
  0
TABLE
  2
STYLE
  5
B
330
0
100
AcDbSymbolTable
 70
    15
  0
STYLE
  5
C
330
B
100
AcDbSymbolTableRecord
100
AcDbTextStyleTableRecord
  2
STANDARD
 70
     0
 40
0.0
 41
1.0
 50
0.0
 71
     0
 42
3.5
  3
romans.shx
  4

  0
STYLE
  5
26A
330
B
100
AcDbSymbolTableRecord
100
AcDbTextStyleTableRecord
  2
ACJISTS
 70
     0
 40
1.0
 41
1.0
 50
0.0
 71
     0
 42
3.5
  3
isocp.shx
  4
bigfont.shx
  0
STYLE
  5
26B
330
B
100
AcDbSymbolTableRecord
100
AcDbTextStyleTableRecord
  2
ACJISGDT
 70
     0
 40
0.0
 41
1.0
 50
0.0
 71
     0
 42
3.5
  3
amgdt.shx
  4

  0
STYLE
  5
26E
330
B
100
AcDbSymbolTableRecord
100
AcDbTextStyleTableRecord
  2
ACANSTSB
 70
     0
 40
1.0
 41
1.0
 50
0.0
 71
     0
 42
3.5
  3
romans.shx
  4

  0
STYLE
  5
26F
330
B
100
AcDbSymbolTableRecord
100
AcDbTextStyleTableRecord
  2
ACANSGDT
 70
     0
 40
0.0
 41
1.0
 50
0.0
 71
     0
 42
3.5
  3
amgdt.shx
  4

  0
STYLE
  5
272
330
B
100
AcDbSymbolTableRecord
100
AcDbTextStyleTableRecord
  2
ACBSITS
 70
     0
 40
1.0
 41
1.0
 50
0.0
 71
     0
 42
3.5
  3
isocp.shx
  4

  0
STYLE
  5
273
330
B
100
AcDbSymbolTableRecord
100
AcDbTextStyleTableRecord
  2
ACBSIGDT
 70
     0
 40
0.0
 41
1.0
 50
0.0
 71
     0
 42
3.5
  3
amgdt.shx
  4

  0
STYLE
  5
277
330
B
100
AcDbSymbolTableRecord
100
AcDbTextStyleTableRecord
  2
ACDINTS
 70
     0
 40
1.0
 41
1.0
 50
0.0
 71
     0
 42
3.5
  3
isocp.shx
  4

  0
STYLE
  5
278
330
B
100
AcDbSymbolTableRecord
100
AcDbTextStyleTableRecord
  2
ACDINGDT
 70
     0
 40
0.0
 41
1.0
 50
0.0
 71
     0
 42
3.5
  3
amgdt.shx
  4

  0
STYLE
  5
27C
330
B
100
AcDbSymbolTableRecord
100
AcDbTextStyleTableRecord
  2
ACISOTS
 70
     0
 40
1.0
 41
1.0
 50
0.0
 71
     0
 42
3.5
  3
isocp.shx
  4

  0
STYLE
  5
27D
330
B
100
AcDbSymbolTableRecord
100
AcDbTextStyleTableRecord
  2
ACISOGDT
 70
     0
 40
0.0
 41
1.0
 50
0.0
 71
     0
 42
3.5
  3
amgdt.shx
  4

  0
STYLE
  5
6F1
330
B
100
AcDbSymbolTableRecord
100
AcDbTextStyleTableRecord
  2

 70
     1
 40
0.0
 41
1.0
 50
0.0
 71
     0
 42
3.5
  3
ltypeshp.shx
  4

  0
STYLE
  5
5E29
330
B
100
AcDbSymbolTableRecord
100
AcDbTextStyleTableRecord
  2

 70
     1
 40
0.0
 41
1.0
 50
0.0
 71
     0
 42
3.5
  3
genltshp.shx
  4

  0
ENDTAB
  0
TABLE
  2
VIEW
  5
10
330
0
100
AcDbSymbolTable
 70
     0
  0
ENDTAB
  0
TABLE
  2
UCS
  5
11
330
0
100
AcDbSymbolTable
 70
     0
  0
ENDTAB
  0
TABLE
  2
APPID
  5
14
330
0
100
AcDbSymbolTable
 70
    18
  0
APPID
  5
15
330
14
100
AcDbSymbolTableRecord
100
AcDbRegAppTableRecord
  2
ACAD
 70
     0
  0
APPID
  5
242
330
14
100
AcDbSymbolTableRecord
100
AcDbRegAppTableRecord
  2
MCAD_NO_VIS
 70
     0
  0
APPID
  5
6D1
330
14
100
AcDbSymbolTableRecord
100
AcDbRegAppTableRecord
  2
ACAD_TEMP_GRAPHIC
 70
     0
  0
APPID
  5
770
330
14
100
AcDbSymbolTableRecord
100
AcDbRegAppTableRecord
  2
GENIUS_GENDTOL_13
 70
     0
  0
APPID
  5
32E2
330
14
100
AcDbSymbolTableRecord
100
AcDbRegAppTableRecord
  2
GENIUS_GENREC_14
 70
     0
  0
APPID
  5
32E3
330
14
100
AcDbSymbolTableRecord
100
AcDbRegAppTableRecord
  2
GENIUS_GENODEF_13
 70
     0
  0
APPID
  5
32E4
330
14
100
AcDbSymbolTableRecord
100
AcDbRegAppTableRecord
  2
GENIUS_GENOBJ-N-REC_13
 70
     0
  0
APPID
  5
5C1F
330
14
100
AcDbSymbolTableRecord
100
AcDbRegAppTableRecord
  2
AD_DRAW
 70
     0
  0
APPID
  5
5C22
330
14
100
AcDbSymbolTableRecord
100
AcDbRegAppTableRecord
  2
ACATTRIBSERVICES
 70
     0
  0
APPID
  5
5C40
330
14
100
AcDbSymbolTableRecord
100
AcDbRegAppTableRecord
  2
DESIGNERASSEMBLIES
 70
     0
  0
APPID
  5
5CAB
330
14
100
AcDbSymbolTableRecord
100
AcDbRegAppTableRecord
  2
ACADM_DIM_EDIT
 70
     0
  0
APPID
  5
5CAC
330
14
100
AcDbSymbolTableRecord
100
AcDbRegAppTableRecord
  2
AMDT_DM_ADJ
 70
     0
  0
APPID
  5
5D0B
330
14
100
AcDbSymbolTableRecord
100
AcDbRegAppTableRecord
  2
ACAD_MLEADERVER
 70
     0
  0
APPID
  5
5D37
330
14
100
AcDbSymbolTableRecord
100
AcDbRegAppTableRecord
  2
ACAD_DSTYLE_DIMINSPECT
 70
     0
  0
APPID
  5
5D67
330
14
100
AcDbSymbolTableRecord
100
AcDbRegAppTableRecord
  2
DCO15
 70
     0
  0
APPID
  5
5E39
330
14
100
AcDbSymbolTableRecord
100
AcDbRegAppTableRecord
  2
AcadAnnoPO
 70
     0
  0
APPID
  5
5FD8
330
14
100
AcDbSymbolTableRecord
100
AcDbRegAppTableRecord
  2
ACAD_DSTYLE_DIMJAG
 70
     0
  0
APPID
  5
5FD9
330
14
100
AcDbSymbolTableRecord
100
AcDbRegAppTableRecord
  2
ACAD_DSTYLE_DIMTALN
 70
     0
  0
ENDTAB
  0
TABLE
  2
DIMSTYLE
  5
16
330
0
100
AcDbSymbolTable
 70
    31
100
AcDbDimStyleTable
 71
     2
340
1C
340
5C88
  0
DIMSTYLE
105
1C
102
{ACAD_REACTORS
330
3003
330
300A
330
3018
330
3029
330
3046
330
3047
330
3049
330
304F
330
306E
330
31D8
330
3077
330
2FFE
330
2FFF
330
3014
330
3017
330
3001
330
302A
102
}
330
16
100
AcDbSymbolTableRecord
100
AcDbDimStyleTableRecord
  2
ISO-25
 70
     0
 41
7.0
 42
0.0
 43
7.0
 44
1.25
 73
     0
 74
     0
 77
     1
 78
     8
140
10.0
141
0.0
147
4.0
172
     1
176
   256
177
   256
178
   256
288
     1
289
     0
340
C
371
    -1
372
    -1
1001
ACAD_DSTYLE_DIMJAG
1070
   388
1040
1.5
1001
ACAD_DSTYLE_DIMTALN
1070
   392
1070
     0
  0
DIMSTYLE
105
33B0
330
16
100
AcDbSymbolTableRecord
100
AcDbDimStyleTableRecord
  2
STANDARD
 70
     0
  4
"
 41
7.0
 42
0.0
 43
7.0
 44
1.25
 47
0.1
 48
0.1
 73
     0
 74
     0
 77
     1
 78
     8
140
10.0
141
0.0
143
0.0393701
144
0.5
147
4.0
172
     1
176
   256
177
   256
178
   256
271
     2
272
     3
274
     4
283
     0
284
     8
288
     1
340
C
  0
DIMSTYLE
105
5C7B
330
16
100
AcDbSymbolTableRecord
100
AcDbDimStyleTableRecord
  2
AM_BSI
 70
     0
  4
mm
 41
0.1574803149606299
 42
0.05
 43
0.5
 44
0.1
 47
0.1
 48
0.1
 73
     0
 74
     0
 77
     1
 78
     7
 79
     2
140
0.12
141
0.0
146
0.71
147
0.06
172
     1
176
   256
177
   256
178
     2
274
     4
283
     0
284
     7
340
C
371
    -1
372
    -1
  0
DIMSTYLE
105
5C7C
330
16
100
AcDbSymbolTableRecord
100
AcDbDimStyleTableRecord
  2
AM_BSI$3
 70
     0
  4
mm
 41
0.1574803149606299
 42
0.05
 43
0.5
 44
0.1
 47
0.1
 48
0.1
 73
     0
 77
     1
 78
     7
 79
     2
140
0.12
141
0.0
146
0.71
147
0.06
176
   256
177
   256
178
     2
274
     4
283
     0
284
     7
288
     1
289
     0
340
C
371
    -1
372
    -1
  0
DIMSTYLE
105
5C7D
330
16
100
AcDbSymbolTableRecord
100
AcDbDimStyleTableRecord
  2
AM_BSI$4
 70
     0
  4
mm
 41
0.1574803149606299
 42
0.05
 43
0.5
 44
0.1
 47
0.1
 48
0.1
 73
     0
 77
     1
 78
     7
 79
     2
140
0.12
141
0.0
146
0.71
147
0.06
176
   256
177
   256
178
     2
274
     4
283
     0
284
     7
288
     1
289
     0
340
C
371
    -1
372
    -1
  0
DIMSTYLE
105
5C7E
330
16
100
AcDbSymbolTableRecord
100
AcDbDimStyleTableRecord
  2
AM_BSI$6
 70
     0
  4
mm
 41
0.1574803149606299
 42
0.05
 43
0.5
 44
0.1
 47
0.1
 48
0.1
 73
     0
 74
     0
 78
     7
 79
     2
140
0.12
141
0.0
146
0.71
147
0.06
172
     1
176
   256
177
   256
178
     2
274
     4
283
     0
284
     7
340
C
371
    -1
372
    -1
  0
DIMSTYLE
105
5C7F
330
16
100
AcDbSymbolTableRecord
100
AcDbDimStyleTableRecord
  2
AM_BSI$7
 70
     0
  4
mm
 41
0.1
 42
0.05
 43
0.5
 44
0.1
 47
0.1
 48
0.1
 73
     0
 74
     0
 77
     1
 78
     7
 79
     2
140
0.24
141
0.0
146
0.71
147
0.06
172
     1
176
   256
177
   256
178
     2
274
     4
283
     0
284
     7
340
C
371
    -1
372
    -1
  0
DIMSTYLE
105
5C80
330
16
100
AcDbSymbolTableRecord
100
AcDbDimStyleTableRecord
  2
AM_BSI$SF
 70
     0
  4
mm
 41
0.1574803149606299
 42
0.05
 43
0.5
 44
0.1
 47
0.1
 48
0.1
 73
     0
 74
     0
 75
     1
 76
     1
 77
     1
 78
     7
 79
     2
140
0.12
141
0.0
146
0.71
147
0.06
172
     1
176
   256
177
   256
178
     2
274
     4
283
     0
284
     7
340
C
371
    -1
372
    -1
  0
DIMSTYLE
105
5C85
330
16
100
AcDbSymbolTableRecord
100
AcDbDimStyleTableRecord
  2
AM_BSI$SH
 70
     0
  4
mm
 41
0.1574803149606299
 42
0.05
 43
0.5
 44
0.1
 47
0.1
 48
0.1
 73
     0
 74
     0
 75
     1
 76
     1
 77
     1
 78
     7
 79
     2
140
0.12
141
0.0
144
2.0
146
0.71
147
0.06
172
     1
173
     1
176
   256
177
   256
178
     2
274
     4
283
     0
284
     7
340
C
343
5C81
371
    -1
372
    -1
  0
DIMSTYLE
105
5C88
330
16
100
AcDbSymbolTableRecord
100
AcDbDimStyleTableRecord
  2
AM_DIN
 70
     0
  4
mm
 41
0.1
 42
0.05
 43
0.5
 44
0.1
 47
0.1
 48
0.1
 73
     0
 74
     0
 77
     1
 78
     7
 79
     2
140
0.12
141
0.0
146
0.71
147
0.06
172
     1
176
   256
177
   256
178
     2
274
     4
283
     0
284
     7
340
C
371
    -1
372
    -1
  0
DIMSTYLE
105
5C89
330
16
100
AcDbSymbolTableRecord
100
AcDbDimStyleTableRecord
  2
AM_DIN$3
 70
     0
  4
mm
 41
0.1
 42
0.05
 43
0.5
 44
0.1
 47
0.1
 48
0.1
 73
     0
 77
     1
 78
     7
 79
     2
140
0.12
141
0.0
146
0.71
147
0.06
176
   256
177
   256
178
     2
274
     4
283
     0
284
     7
288
     1
289
     0
340
C
371
    -1
372
    -1
  0
DIMSTYLE
105
5C8A
330
16
100
AcDbSymbolTableRecord
100
AcDbDimStyleTableRecord
  2
AM_DIN$4
 70
     0
  4
mm
 41
0.1
 42
0.05
 43
0.5
 44
0.1
 47
0.1
 48
0.1
 73
     0
 77
     1
 78
     7
 79
     2
140
0.12
141
0.0
146
0.71
147
0.06
176
   256
177
   256
178
     2
274
     4
283
     0
284
     7
288
     1
289
     0
340
C
371
    -1
372
    -1
  0
DIMSTYLE
105
5C8B
330
16
100
AcDbSymbolTableRecord
100
AcDbDimStyleTableRecord
  2
AM_DIN$6
 70
     0
  4
mm
 41
0.1
 42
0.05
 43
0.5
 44
0.1
 47
0.1
 48
0.1
 73
     0
 74
     0
 78
     7
 79
     2
140
0.12
141
0.0
146
0.71
147
0.06
172
     1
176
   256
177
   256
178
     2
274
     4
283
     0
284
     7
340
C
371
    -1
372
    -1
  0
DIMSTYLE
105
5C8C
330
16
100
AcDbSymbolTableRecord
100
AcDbDimStyleTableRecord
  2
AM_DIN$7
 70
     0
  4
mm
 41
0.1
 42
0.05
 43
0.5
 44
0.1
 47
0.1
 48
0.1
 73
     0
 74
     0
 77
     1
 78
     7
 79
     2
140
0.24
141
0.0
146
0.71
147
0.06
172
     1
176
   256
177
   256
178
     2
274
     4
283
     0
284
     7
340
C
371
    -1
372
    -1
  0
DIMSTYLE
105
5C8D
330
16
100
AcDbSymbolTableRecord
100
AcDbDimStyleTableRecord
  2
AM_DIN$SF
 70
     0
  4
mm
 41
0.1
 42
0.05
 43
0.5
 44
0.1
 47
0.1
 48
0.1
 73
     0
 74
     0
 75
     1
 76
     1
 77
     1
 78
     7
 79
     2
140
0.12
141
0.0
146
0.71
147
0.06
172
     1
176
   256
177
   256
178
     2
274
     4
283
     0
284
     7
340
C
371
    -1
372
    -1
  0
DIMSTYLE
105
5C8E
330
16
100
AcDbSymbolTableRecord
100
AcDbDimStyleTableRecord
  2
AM_DIN$SH
 70
     0
  4
mm
 41
0.1
 42
0.05
 43
0.5
 44
0.1
 47
0.1
 48
0.1
 73
     0
 74
     0
 75
     1
 76
     1
 77
     1
 78
     7
 79
     2
140
0.12
141
0.0
144
2.0
146
0.71
147
0.06
172
     1
173
     1
176
   256
177
   256
178
     2
274
     4
283
     0
284
     7
340
C
343
5C81
371
    -1
372
    -1
  0
DIMSTYLE
105
5C91
330
16
100
AcDbSymbolTableRecord
100
AcDbDimStyleTableRecord
  2
AM_ISO
 70
     0
  4
mm
 41
0.1
 42
0.05
 43
0.5
 44
0.1
 47
0.1
 48
0.1
 73
     0
 74
     0
 77
     1
 78
     7
 79
     2
140
0.12
141
0.0
146
0.71
147
0.06
172
     1
176
   256
177
   256
178
     2
274
     4
283
     0
284
     7
340
C
371
    -1
372
    -1
  0
DIMSTYLE
105
5C92
330
16
100
AcDbSymbolTableRecord
100
AcDbDimStyleTableRecord
  2
AM_ISO$3
 70
     0
  4
mm
 41
0.1
 42
0.05
 43
0.5
 44
0.1
 47
0.1
 48
0.1
 73
     0
 77
     1
 78
     7
 79
     2
140
0.12
141
0.0
146
0.71
147
0.06
176
   256
177
   256
178
     2
274
     4
283
     0
284
     7
288
     1
289
     0
340
C
371
    -1
372
    -1
  0
DIMSTYLE
105
5C93
330
16
100
AcDbSymbolTableRecord
100
AcDbDimStyleTableRecord
  2
AM_ISO$4
 70
     0
  4
mm
 41
0.1
 42
0.05
 43
0.5
 44
0.1
 47
0.1
 48
0.1
 73
     0
 77
     1
 78
     7
 79
     2
140
0.12
141
0.0
146
0.71
147
0.06
176
   256
177
   256
178
     2
274
     4
283
     0
284
     7
288
     1
289
     0
340
C
371
    -1
372
    -1
  0
DIMSTYLE
105
5C94
330
16
100
AcDbSymbolTableRecord
100
AcDbDimStyleTableRecord
  2
AM_ISO$6
 70
     0
  4
mm
 41
0.1
 42
0.05
 43
0.5
 44
0.1
 47
0.1
 48
0.1
 73
     0
 74
     0
 78
     7
 79
     2
140
0.12
141
0.0
146
0.71
147
0.06
172
     1
176
   256
177
   256
178
     2
274
     4
283
     0
284
     7
340
C
371
    -1
372
    -1
  0
DIMSTYLE
105
5C95
330
16
100
AcDbSymbolTableRecord
100
AcDbDimStyleTableRecord
  2
AM_ISO$7
 70
     0
  4
mm
 41
0.1
 42
0.05
 43
0.5
 44
0.1
 47
0.1
 48
0.1
 73
     0
 74
     0
 77
     1
 78
     7
 79
     2
140
0.24
141
0.0
146
0.71
147
0.06
172
     1
176
   256
177
   256
178
     2
274
     4
283
     0
284
     7
340
C
371
    -1
372
    -1
  0
DIMSTYLE
105
5C96
330
16
100
AcDbSymbolTableRecord
100
AcDbDimStyleTableRecord
  2
AM_ISO$SF
 70
     0
  4
mm
 41
0.1
 42
0.05
 43
0.5
 44
0.1
 47
0.1
 48
0.1
 73
     0
 74
     0
 75
     1
 76
     1
 77
     1
 78
     7
 79
     2
140
0.12
141
0.0
146
0.71
147
0.06
172
     1
176
   256
177
   256
178
     2
274
     4
283
     0
284
     7
340
C
371
    -1
372
    -1
  0
DIMSTYLE
105
5C97
330
16
100
AcDbSymbolTableRecord
100
AcDbDimStyleTableRecord
  2
AM_ISO$SH
 70
     0
  4
mm
 41
0.1
 42
0.05
 43
0.5
 44
0.1
 47
0.1
 48
0.1
 73
     0
 74
     0
 75
     1
 76
     1
 77
     1
 78
     7
 79
     2
140
0.12
141
0.0
144
2.0
146
0.71
147
0.06
172
     1
173
     1
176
   256
177
   256
178
     2
274
     4
283
     0
284
     7
340
C
343
5C81
371
    -1
372
    -1
  0
DIMSTYLE
105
5C9A
330
16
100
AcDbSymbolTableRecord
100
AcDbDimStyleTableRecord
  2
AM_JIS
 70
     0
  4
mm
 41
0.1
 42
0.05
 43
0.5
 44
0.1
 47
0.1
 48
0.1
 73
     0
 74
     0
 77
     3
 78
     7
 79
     2
140
0.12
141
0.0
146
0.71
147
0.06
172
     1
176
   256
177
   256
178
     2
274
     4
283
     0
284
     7
340
C
341
5C9B
342
5C9B
343
5C9B
344
5C9B
371
    -1
372
    -1
  0
DIMSTYLE
105
5CA1
330
16
100
AcDbSymbolTableRecord
100
AcDbDimStyleTableRecord
  2
AM_JIS$3
 70
     0
  4
mm
 41
0.1
 42
0.05
 43
0.5
 44
0.1
 47
0.1
 48
0.1
 73
     0
 77
     3
 78
     7
 79
     2
140
0.12
141
0.0
146
0.71
147
0.06
176
   256
177
   256
178
     2
274
     4
283
     0
284
     7
288
     1
289
     0
340
C
341
5C9B
342
5C9B
343
5C9B
344
5C9B
371
    -1
372
    -1
  0
DIMSTYLE
105
5CA2
330
16
100
AcDbSymbolTableRecord
100
AcDbDimStyleTableRecord
  2
AM_JIS$4
 70
     0
  4
mm
 41
0.1
 42
0.05
 43
0.5
 44
0.1
 47
0.1
 48
0.1
 73
     0
 77
     3
 78
     7
 79
     2
140
0.12
141
0.0
146
0.71
147
0.06
176
   256
177
   256
178
     2
274
     4
283
     0
284
     7
288
     1
289
     0
340
C
341
5C9B
342
5C9B
343
5C9B
344
5C9B
371
    -1
372
    -1
  0
DIMSTYLE
105
5CA3
330
16
100
AcDbSymbolTableRecord
100
AcDbDimStyleTableRecord
  2
AM_JIS$6
 70
     0
  4
mm
 41
0.1
 42
0.05
 43
0.5
 44
0.1
 47
0.1
 48
0.1
 73
     0
 74
     0
 78
     7
 79
     2
140
0.12
141
0.0
146
0.71
147
0.06
172
     1
176
   256
177
   256
178
     2
274
     4
283
     0
284
     7
340
C
341
5C9B
342
5C9B
343
5C9B
344
5C9B
371
    -1
372
    -1
  0
DIMSTYLE
105
5CA4
330
16
100
AcDbSymbolTableRecord
100
AcDbDimStyleTableRecord
  2
AM_JIS$7
 70
     0
  4
mm
 41
0.1
 42
0.05
 43
0.5
 44
0.1
 47
0.1
 48
0.1
 73
     0
 74
     0
 77
     3
 78
     7
 79
     2
140
0.24
141
0.0
146
0.71
147
0.06
172
     1
176
   256
177
   256
178
     2
274
     4
283
     0
284
     7
340
C
341
5C9B
342
5C9B
343
5C9B
344
5C9B
371
    -1
372
    -1
  0
DIMSTYLE
105
5CA5
330
16
100
AcDbSymbolTableRecord
100
AcDbDimStyleTableRecord
  2
AM_JIS$SF
 70
     0
  4
mm
 41
0.1
 42
0.05
 43
0.5
 44
0.1
 47
0.1
 48
0.1
 73
     0
 74
     0
 75
     1
 76
     1
 77
     3
 78
     7
 79
     2
140
0.12
141
0.0
146
0.71
147
0.06
172
     1
176
   256
177
   256
178
     2
274
     4
283
     0
284
     7
340
C
341
5C9B
342
5C9B
343
5C9B
344
5C9B
371
    -1
372
    -1
  0
DIMSTYLE
105
5CA6
330
16
100
AcDbSymbolTableRecord
100
AcDbDimStyleTableRecord
  2
AM_JIS$SH
 70
     0
  4
mm
 41
0.1
 42
0.05
 43
0.5
 44
0.1
 47
0.1
 48
0.1
 73
     0
 74
     0
 75
     1
 76
     1
 77
     3
 78
     7
 79
     2
140
0.12
141
0.0
144
2.0
146
0.71
147
0.06
172
     1
173
     1
176
   256
177
   256
178
     2
274
     4
283
     0
284
     7
340
C
341
5C9B
342
5C9B
343
5C81
344
5C9B
371
    -1
372
    -1
  0
ENDTAB
  0
TABLE
  2
BLOCK_RECORD
  5
1
330
0
100
AcDbSymbolTable
 70
    23
  0
BLOCK_RECORD
  5
2
102
{ACAD_XDICTIONARY
360
28B
102
}
330
1
100
AcDbSymbolTableRecord
100
AcDbBlockTableRecord
  2
*MODEL_SPACE
340
6C4
  0
BLOCK_RECORD
  5
7
330
1
100
AcDbSymbolTableRecord
100
AcDbBlockTableRecord
  2
*PAPER_SPACE
340
6C5
  0
BLOCK_RECORD
  5
307A
330
1
100
AcDbSymbolTableRecord
100
AcDbBlockTableRecord
  2
*D0
340
0
  0
BLOCK_RECORD
  5
3088
330
1
100
AcDbSymbolTableRecord
100
AcDbBlockTableRecord
  2
*D1
340
0
  0
BLOCK_RECORD
  5
3096
330
1
100
AcDbSymbolTableRecord
100
AcDbBlockTableRecord
  2
*D2
340
0
  0
BLOCK_RECORD
  5
30A2
330
1
100
AcDbSymbolTableRecord
100
AcDbBlockTableRecord
  2
*D3
340
0
  0
BLOCK_RECORD
  5
30AE
330
1
100
AcDbSymbolTableRecord
100
AcDbBlockTableRecord
  2
*D4
340
0
  0
BLOCK_RECORD
  5
30BC
330
1
100
AcDbSymbolTableRecord
100
AcDbBlockTableRecord
  2
*D5
340
0
  0
BLOCK_RECORD
  5
30C8
330
1
100
AcDbSymbolTableRecord
100
AcDbBlockTableRecord
  2
*D6
340
0
  0
BLOCK_RECORD
  5
30D6
330
1
100
AcDbSymbolTableRecord
100
AcDbBlockTableRecord
  2
*D7
340
0
  0
BLOCK_RECORD
  5
30E4
330
1
100
AcDbSymbolTableRecord
100
AcDbBlockTableRecord
  2
*D8
340
0
  0
BLOCK_RECORD
  5
30F2
330
1
100
AcDbSymbolTableRecord
100
AcDbBlockTableRecord
  2
*D9
340
0
  0
BLOCK_RECORD
  5
30FE
330
1
100
AcDbSymbolTableRecord
100
AcDbBlockTableRecord
  2
*D10
340
0
  0
BLOCK_RECORD
  5
3109
330
1
100
AcDbSymbolTableRecord
100
AcDbBlockTableRecord
  2
*D11
340
0
  0
BLOCK_RECORD
  5
3115
330
1
100
AcDbSymbolTableRecord
100
AcDbBlockTableRecord
  2
*D12
340
0
  0
BLOCK_RECORD
  5
3121
330
1
100
AcDbSymbolTableRecord
100
AcDbBlockTableRecord
  2
*D13
340
0
  0
BLOCK_RECORD
  5
312D
330
1
100
AcDbSymbolTableRecord
100
AcDbBlockTableRecord
  2
*D14
340
0
  0
BLOCK_RECORD
  5
3138
330
1
100
AcDbSymbolTableRecord
100
AcDbBlockTableRecord
  2
*D15
340
0
  0
BLOCK_RECORD
  5
31D9
330
1
100
AcDbSymbolTableRecord
100
AcDbBlockTableRecord
  2
*D16
340
0
  0
BLOCK_RECORD
  5
5ADD
330
1
100
AcDbSymbolTableRecord
100
AcDbBlockTableRecord
  2
A$C5AB5744B
340
0
102
{BLKREFS
331
5AE4
102
}
  0
BLOCK_RECORD
  5
5C81
330
1
100
AcDbSymbolTableRecord
100
AcDbBlockTableRecord
  2
GENAXEH
340
0
  0
BLOCK_RECORD
  5
5C9B
330
1
100
AcDbSymbolTableRecord
100
AcDbBlockTableRecord
  2
_Open30
340
0
  0
ENDTAB
  0
ENDSEC
  0
SECTION
  2
BLOCKS
  0
BLOCK
  5
3
330
2
100
AcDbEntity
  8
0
100
AcDbBlockBegin
  2
*MODEL_SPACE
 70
     0
 10
0.0
 20
0.0
 30
0.0
  3
*MODEL_SPACE
  1

  0
ENDBLK
  5
6
330
2
100
AcDbEntity
  8
0
100
AcDbBlockEnd
  0
BLOCK
  5
8
330
7
100
AcDbEntity
 67
     1
  8
0
100
AcDbBlockBegin
  2
*PAPER_SPACE
 70
     0
 10
0.0
 20
0.0
 30
0.0
  3
*PAPER_SPACE
  1

  0
ENDBLK
  5
9
330
7
100
AcDbEntity
 67
     1
  8
0
100
AcDbBlockEnd
  0
BLOCK
  5
3086
330
307A
100
AcDbEntity
  8
0
 48
10.0
100
AcDbBlockBegin
  2
*D0
 70
     1
 10
0.0
 20
0.0
 30
0.0
  3
*D0
  1

  0
LINE
  5
603E
330
307A
100
AcDbEntity
  8
BEM
100
AcDbLine
 10
506.2442079110686
 20
369.8418946941688
 30
0.0
 11
506.2442079110686
 21
463.5877993833742
 31
0.0
  0
LINE
  5
603F
330
307A
100
AcDbEntity
  8
BEM
100
AcDbLine
 10
532.2442079110686
 20
410.1098438865997
 30
0.0
 11
532.2442079110686
 21
463.5877993833742
 31
0.0
  0
LINE
  5
6040
330
307A
100
AcDbEntity
  8
BEM
100
AcDbLine
 10
513.2442079110687
 20
462.3377993833742
 30
0.0
 11
525.2442079110686
 21
462.3377993833742
 31
0.0
  0
SOLID
  5
6041
330
307A
100
AcDbEntity
  8
BEM
100
AcDbTrace
 10
513.2442079110687
 20
463.5044660500408
 30
0.0
 11
513.2442079110687
 21
461.1711327167075
 31
0.0
 12
506.2442079110686
 22
462.3377993833742
 32
0.0
 13
506.2442079110686
 23
462.3377993833742
 33
0.0
  0
SOLID
  5
6042
330
307A
100
AcDbEntity
  8
BEM
100
AcDbTrace
 10
525.2442079110686
 20
463.5044660500408
 30
0.0
 11
525.2442079110686
 21
461.1711327167075
 31
0.0
 12
532.2442079110686
 22
462.3377993833742
 32
0.0
 13
532.2442079110686
 23
462.3377993833742
 33
0.0
  0
MTEXT
  5
6043
330
307A
100
AcDbEntity
  8
BEM
100
AcDbMText
 10
519.2442079110686
 20
471.3377993833741
 30
0.0
 40
10.0
 41
0.0
 71
     5
 72
     1
  1
\A1;26
 73
     1
 44
1.0
  0
POINT
  5
6044
330
307A
100
AcDbEntity
  8
Defpoints
 62
     0
100
AcDbPoint
 10
506.2442079110686
 20
369.8418946941688
 30
0.0
  0
POINT
  5
6045
330
307A
100
AcDbEntity
  8
Defpoints
 62
     0
100
AcDbPoint
 10
532.2442079110686
 20
410.1098438865997
 30
0.0
  0
POINT
  5
6046
330
307A
100
AcDbEntity
  8
Defpoints
 62
     0
100
AcDbPoint
 10
532.2442079110686
 20
462.3377993833742
 30
0.0
  0
ENDBLK
  5
3087
330
307A
100
AcDbEntity
  8
0
 48
10.0
100
AcDbBlockEnd
  0
BLOCK
  5
3094
330
3088
100
AcDbEntity
  8
0
 48
10.0
100
AcDbBlockBegin
  2
*D1
 70
     1
 10
0.0
 20
0.0
 30
0.0
  3
*D1
  1

  0
LINE
  5
6047
330
3088
100
AcDbEntity
  8
BEM
100
AcDbLine
 10
506.2442079110686
 20
369.8418946941688
 30
0.0
 11
506.2442079110686
 21
439.5650470974637
 31
0.0
  0
LINE
  5
6048
330
3088
100
AcDbEntity
  8
BEM
100
AcDbLine
 10
512.2442079110686
 20
410.1098438865997
 30
0.0
 11
512.2442079110686
 21
439.5650470974637
 31
0.0
  0
LINE
  5
6049
330
3088
100
AcDbEntity
  8
BEM
100
AcDbLine
 10
519.2442079110686
 20
438.3150470974637
 30
0.0
 11
526.2442079110686
 21
438.3150470974637
 31
0.0
  0
LINE
  5
604A
330
3088
100
AcDbEntity
  8
BEM
100
AcDbLine
 10
499.2442079110686
 20
438.3150470974637
 30
0.0
 11
477.8156364824972
 21
438.3150470974637
 31
0.0
  0
LINE
  5
604B
330
3088
100
AcDbEntity
  8
BEM
100
AcDbLine
 10
512.2442079110686
 20
438.3150470974637
 30
0.0
 11
506.2442079110686
 21
438.3150470974637
 31
0.0
  0
SOLID
  5
604C
330
3088
100
AcDbEntity
  8
BEM
100
AcDbTrace
 10
519.2442079110686
 20
439.4817137641304
 30
0.0
 11
519.2442079110686
 21
437.148380430797
 31
0.0
 12
512.2442079110686
 22
438.3150470974637
 32
0.0
 13
512.2442079110686
 23
438.3150470974637
 33
0.0
  0
SOLID
  5
604D
330
3088
100
AcDbEntity
  8
BEM
100
AcDbTrace
 10
499.2442079110686
 20
439.4817137641304
 30
0.0
 11
499.2442079110686
 21
437.148380430797
 31
0.0
 12
506.2442079110686
 22
438.3150470974637
 32
0.0
 13
506.2442079110686
 23
438.3150470974637
 33
0.0
  0
MTEXT
  5
604E
330
3088
100
AcDbEntity
  8
BEM
100
AcDbMText
 10
484.9108745777353
 20
447.3150470974637
 30
0.0
 40
10.0
 41
0.0
 71
     5
 72
     1
  1
\A1;6
 73
     1
 44
1.0
  0
POINT
  5
604F
330
3088
100
AcDbEntity
  8
Defpoints
 62
     0
100
AcDbPoint
 10
506.2442079110686
 20
369.8418946941688
 30
0.0
  0
POINT
  5
6050
330
3088
100
AcDbEntity
  8
Defpoints
 62
     0
100
AcDbPoint
 10
512.2442079110686
 20
410.1098438865997
 30
0.0
  0
POINT
  5
6051
330
3088
100
AcDbEntity
  8
Defpoints
 62
     0
100
AcDbPoint
 10
512.2442079110686
 20
438.3150470974637
 30
0.0
  0
ENDBLK
  5
3095
330
3088
100
AcDbEntity
  8
0
 48
10.0
100
AcDbBlockEnd
  0
BLOCK
  5
30A0
330
3096
100
AcDbEntity
  8
0
 48
10.0
100
AcDbBlockBegin
  2
*D2
 70
     1
 10
0.0
 20
0.0
 30
0.0
  3
*D2
  1

  0
LINE
  5
6066
330
3096
100
AcDbEntity
  8
BEM
100
AcDbLine
 10
810.0442079110688
 20
378.1098438865997
 30
0.0
 11
810.0442079110688
 21
495.7786375178752
 31
0.0
  0
LINE
  5
6067
330
3096
100
AcDbEntity
  8
BEM
100
AcDbLine
 10
506.2442079110686
 20
369.8418946941688
 30
0.0
 11
506.2442079110686
 21
495.7786375178752
 31
0.0
  0
LINE
  5
6068
330
3096
100
AcDbEntity
  8
BEM
100
AcDbLine
 10
803.0442079110688
 20
494.5286375178752
 30
0.0
 11
513.2442079110687
 21
494.5286375178752
 31
0.0
  0
SOLID
  5
6069
330
3096
100
AcDbEntity
  8
BEM
100
AcDbTrace
 10
803.0442079110688
 20
495.6953041845419
 30
0.0
 11
803.0442079110688
 21
493.3619708512085
 31
0.0
 12
810.0442079110688
 22
494.5286375178752
 32
0.0
 13
810.0442079110688
 23
494.5286375178752
 33
0.0
  0
SOLID
  5
606A
330
3096
100
AcDbEntity
  8
BEM
100
AcDbTrace
 10
513.2442079110687
 20
495.6953041845419
 30
0.0
 11
513.2442079110687
 21
493.3619708512085
 31
0.0
 12
506.2442079110686
 22
494.5286375178752
 32
0.0
 13
506.2442079110686
 23
494.5286375178752
 33
0.0
  0
MTEXT
  5
606B
330
3096
100
AcDbEntity
  8
BEM
100
AcDbMText
 10
658.1442079110687
 20
503.5286375178753
 30
0.0
 40
10.0
 41
0.0
 71
     5
 72
     1
  1
\A1;303.8
 73
     1
 44
1.0
  0
POINT
  5
606C
330
3096
100
AcDbEntity
  8
Defpoints
 62
     0
100
AcDbPoint
 10
810.0442079110688
 20
378.1098438865997
 30
0.0
  0
POINT
  5
606D
330
3096
100
AcDbEntity
  8
Defpoints
 62
     0
100
AcDbPoint
 10
506.2442079110686
 20
369.8418946941688
 30
0.0
  0
POINT
  5
606E
330
3096
100
AcDbEntity
  8
Defpoints
 62
     0
100
AcDbPoint
 10
506.2442079110686
 20
494.5286375178752
 30
0.0
  0
ENDBLK
  5
30A1
330
3096
100
AcDbEntity
  8
0
 48
10.0
100
AcDbBlockEnd
  0
BLOCK
  5
30AC
330
30A2
100
AcDbEntity
  8
0
 48
10.0
100
AcDbBlockBegin
  2
*D3
 70
     1
 10
0.0
 20
0.0
 30
0.0
  3
*D3
  1

  0
LINE
  5
5FDA
330
30A2
100
AcDbEntity
  8
BEM
100
AcDbLine
 10
454.2442079110686
 20
332.1098438865997
 30
0.0
 11
454.2442079110686
 21
232.0472184266417
 31
0.0
  0
LINE
  5
5FDB
330
30A2
100
AcDbEntity
  8
BEM
100
AcDbLine
 10
500.2442079110688
 20
330.1098438865997
 30
0.0
 11
500.2442079110688
 21
232.0472184266417
 31
0.0
  0
LINE
  5
5FDC
330
30A2
100
AcDbEntity
  8
BEM
100
AcDbLine
 10
461.2442079110686
 20
233.2972184266417
 30
0.0
 11
493.2442079110688
 21
233.2972184266417
 31
0.0
  0
SOLID
  5
5FDD
330
30A2
100
AcDbEntity
  8
BEM
100
AcDbTrace
 10
461.2442079110686
 20
234.4638850933084
 30
0.0
 11
461.2442079110686
 21
232.1305517599751
 31
0.0
 12
454.2442079110686
 22
233.2972184266417
 32
0.0
 13
454.2442079110686
 23
233.2972184266417
 33
0.0
  0
SOLID
  5
5FDE
330
30A2
100
AcDbEntity
  8
BEM
100
AcDbTrace
 10
493.2442079110688
 20
234.4638850933084
 30
0.0
 11
493.2442079110688
 21
232.1305517599751
 31
0.0
 12
500.2442079110688
 22
233.2972184266417
 32
0.0
 13
500.2442079110688
 23
233.2972184266417
 33
0.0
  0
MTEXT
  5
5FDF
330
30A2
100
AcDbEntity
  8
BEM
100
AcDbMText
 10
477.2442079110687
 20
242.2972184266417
 30
0.0
 40
10.0
 41
0.0
 71
     5
 72
     1
  1
\A1;46
 73
     1
 44
1.0
  0
POINT
  5
5FE0
330
30A2
100
AcDbEntity
  8
Defpoints
 62
     0
100
AcDbPoint
 10
454.2442079110686
 20
332.1098438865997
 30
0.0
  0
POINT
  5
5FE1
330
30A2
100
AcDbEntity
  8
Defpoints
 62
     0
100
AcDbPoint
 10
500.2442079110688
 20
330.1098438865997
 30
0.0
  0
POINT
  5
5FE2
330
30A2
100
AcDbEntity
  8
Defpoints
 62
     0
100
AcDbPoint
 10
500.2442079110688
 20
233.2972184266417
 30
0.0
  0
ENDBLK
  5
30AD
330
30A2
100
AcDbEntity
  8
0
 48
10.0
100
AcDbBlockEnd
  0
BLOCK
  5
30BA
330
30AE
100
AcDbEntity
  8
0
 48
10.0
100
AcDbBlockBegin
  2
*D4
 70
     1
 10
0.0
 20
0.0
 30
0.0
  3
*D4
  1

  0
LINE
  5
5FE3
330
30AE
100
AcDbEntity
  8
BEM
 48
10.0
100
AcDbLine
 10
197.3113428953332
 20
320.1098438865997
 30
0.0
 11
130.2599952098775
 21
320.1098438865997
 31
0.0
  0
LINE
  5
5FE4
330
30AE
100
AcDbEntity
  8
BEM
 48
10.0
100
AcDbLine
 10
165.9991816077308
 20
340.1098438865997
 30
0.0
 11
130.2599952098775
 21
340.1098438865997
 31
0.0
  0
LINE
  5
5FE5
330
30AE
100
AcDbEntity
  8
BEM
 48
10.0
100
AcDbLine
 10
131.5099952098775
 20
313.1098438865997
 30
0.0
 11
131.5099952098775
 21
306.1098438865997
 31
0.0
  0
LINE
  5
5FE6
330
30AE
100
AcDbEntity
  8
BEM
 48
10.0
100
AcDbLine
 10
131.5099952098775
 20
347.1098438865997
 30
0.0
 11
131.5099952098775
 21
354.1098438865997
 31
0.0
  0
LINE
  5
5FE7
330
30AE
100
AcDbEntity
  8
BEM
 48
10.0
100
AcDbLine
 10
131.5099952098775
 20
320.1098438865997
 30
0.0
 11
131.5099952098775
 21
340.1098438865997
 31
0.0
  0
SOLID
  5
5FE8
330
30AE
100
AcDbEntity
  8
BEM
 48
10.0
100
AcDbTrace
 10
130.3433285432108
 20
313.1098438865997
 30
0.0
 11
132.6766618765442
 21
313.1098438865997
 31
0.0
 12
131.5099952098775
 22
320.1098438865997
 32
0.0
 13
131.5099952098775
 23
320.1098438865997
 33
0.0
  0
SOLID
  5
5FE9
330
30AE
100
AcDbEntity
  8
BEM
 48
10.0
100
AcDbTrace
 10
130.3433285432109
 20
347.1098438865997
 30
0.0
 11
132.6766618765442
 21
347.1098438865997
 31
0.0
 12
131.5099952098775
 22
340.1098438865997
 32
0.0
 13
131.5099952098775
 23
340.1098438865997
 33
0.0
  0
MTEXT
  5
5FEA
330
30AE
100
AcDbEntity
  8
BEM
 48
10.0
100
AcDbMText
 10
122.5099952098775
 20
330.1098438865998
 30
0.0
 40
10.0
 41
0.0
 71
     5
 72
     1
  1
\A1;20
 11
0.0000000000000001
 21
1.0
 31
0.0
 73
     1
 44
1.0
  0
POINT
  5
5FEB
330
30AE
100
AcDbEntity
  8
Defpoints
 62
     0
 48
10.0
100
AcDbPoint
 10
197.3113428953332
 20
320.1098438865997
 30
0.0
  0
POINT
  5
5FEC
330
30AE
100
AcDbEntity
  8
Defpoints
 62
     0
 48
10.0
100
AcDbPoint
 10
165.9991816077308
 20
340.1098438865997
 30
0.0
  0
POINT
  5
5FED
330
30AE
100
AcDbEntity
  8
Defpoints
 62
     0
 48
10.0
100
AcDbPoint
 10
131.5099952098775
 20
340.1098438865997
 30
0.0
  0
ENDBLK
  5
30BB
330
30AE
100
AcDbEntity
  8
0
 48
10.0
100
AcDbBlockEnd
  0
BLOCK
  5
30C6
330
30BC
100
AcDbEntity
  8
0
 48
10.0
100
AcDbBlockBegin
  2
*D5
 70
     1
 10
0.0
 20
0.0
 30
0.0
  3
*D5
  1

  0
LINE
  5
6052
330
30BC
100
AcDbEntity
  8
BEM
100
AcDbLine
 10
506.2442079110686
 20
369.8418946941688
 30
0.0
 11
506.2442079110686
 21
495.7786375178752
 31
0.0
  0
LINE
  5
6053
330
30BC
100
AcDbEntity
  8
BEM
100
AcDbLine
 10
454.2442079110686
 20
433.4584790079811
 30
0.0
 11
454.2442079110686
 21
495.7786375178752
 31
0.0
  0
LINE
  5
6054
330
30BC
100
AcDbEntity
  8
BEM
100
AcDbLine
 10
499.2442079110686
 20
494.5286375178752
 30
0.0
 11
461.2442079110686
 21
494.5286375178752
 31
0.0
  0
SOLID
  5
6055
330
30BC
100
AcDbEntity
  8
BEM
100
AcDbTrace
 10
499.2442079110686
 20
495.6953041845419
 30
0.0
 11
499.2442079110686
 21
493.3619708512085
 31
0.0
 12
506.2442079110686
 22
494.5286375178752
 32
0.0
 13
506.2442079110686
 23
494.5286375178752
 33
0.0
  0
SOLID
  5
6056
330
30BC
100
AcDbEntity
  8
BEM
100
AcDbTrace
 10
461.2442079110686
 20
495.6953041845419
 30
0.0
 11
461.2442079110686
 21
493.3619708512085
 31
0.0
 12
454.2442079110686
 22
494.5286375178752
 32
0.0
 13
454.2442079110686
 23
494.5286375178752
 33
0.0
  0
MTEXT
  5
6057
330
30BC
100
AcDbEntity
  8
BEM
100
AcDbMText
 10
480.2442079110686
 20
503.5286375178753
 30
0.0
 40
10.0
 41
0.0
 71
     5
 72
     1
  1
\A1;52
 73
     1
 44
1.0
  0
POINT
  5
6058
330
30BC
100
AcDbEntity
  8
Defpoints
 62
     0
100
AcDbPoint
 10
506.2442079110686
 20
369.8418946941688
 30
0.0
  0
POINT
  5
6059
330
30BC
100
AcDbEntity
  8
Defpoints
 62
     0
100
AcDbPoint
 10
454.2442079110686
 20
433.4584790079811
 30
0.0
  0
POINT
  5
605A
330
30BC
100
AcDbEntity
  8
Defpoints
 62
     0
100
AcDbPoint
 10
454.2442079110686
 20
494.5286375178752
 30
0.0
  0
ENDBLK
  5
30C7
330
30BC
100
AcDbEntity
  8
0
 48
10.0
100
AcDbBlockEnd
  0
BLOCK
  5
30D4
330
30C8
100
AcDbEntity
  8
0
 48
10.0
100
AcDbBlockBegin
  2
*D6
 70
     1
 10
0.0
 20
0.0
 30
0.0
  3
*D6
  1

  0
LINE
  5
605B
330
30C8
100
AcDbEntity
  8
BEM
 48
10.0
100
AcDbLine
 10
231.8643004226918
 20
362.4308770512385
 30
0.0
 11
231.8643004226918
 21
428.3185759194266
 31
0.0
  0
LINE
  5
605C
330
30C8
100
AcDbEntity
  8
BEM
 48
10.0
100
AcDbLine
 10
213.8643004226919
 20
413.103563691392
 30
0.0
 11
213.8643004226919
 21
428.3185759194266
 31
0.0
  0
LINE
  5
605D
330
30C8
100
AcDbEntity
  8
BEM
 48
10.0
100
AcDbLine
 10
238.8643004226918
 20
427.0685759194265
 30
0.0
 11
245.8643004226918
 21
427.0685759194265
 31
0.0
  0
LINE
  5
605E
330
30C8
100
AcDbEntity
  8
BEM
 48
10.0
100
AcDbLine
 10
206.8643004226919
 20
427.0685759194265
 30
0.0
 11
199.8643004226919
 21
427.0685759194265
 31
0.0
  0
LINE
  5
605F
330
30C8
100
AcDbEntity
  8
BEM
 48
10.0
100
AcDbLine
 10
231.8643004226918
 20
427.0685759194265
 30
0.0
 11
213.8643004226919
 21
427.0685759194265
 31
0.0
  0
SOLID
  5
6060
330
30C8
100
AcDbEntity
  8
BEM
 48
10.0
100
AcDbTrace
 10
238.8643004226918
 20
428.2352425860933
 30
0.0
 11
238.8643004226918
 21
425.9019092527599
 31
0.0
 12
231.8643004226918
 22
427.0685759194265
 32
0.0
 13
231.8643004226918
 23
427.0685759194265
 33
0.0
  0
SOLID
  5
6061
330
30C8
100
AcDbEntity
  8
BEM
 48
10.0
100
AcDbTrace
 10
206.8643004226919
 20
428.2352425860933
 30
0.0
 11
206.8643004226919
 21
425.9019092527599
 31
0.0
 12
213.8643004226919
 22
427.0685759194265
 32
0.0
 13
213.8643004226919
 23
427.0685759194265
 33
0.0
  0
MTEXT
  5
6062
330
30C8
100
AcDbEntity
  8
BEM
 48
10.0
100
AcDbMText
 10
222.8643004226919
 20
436.0685759194266
 30
0.0
 40
10.0
 41
0.0
 71
     5
 72
     1
  1
\A1;18
 73
     1
 44
1.0
  0
POINT
  5
6063
330
30C8
100
AcDbEntity
  8
Defpoints
 62
     0
 48
10.0
100
AcDbPoint
 10
231.8643004226918
 20
362.4308770512385
 30
0.0
  0
POINT
  5
6064
330
30C8
100
AcDbEntity
  8
Defpoints
 62
     0
 48
10.0
100
AcDbPoint
 10
213.8643004226919
 20
413.103563691392
 30
0.0
  0
POINT
  5
6065
330
30C8
100
AcDbEntity
  8
Defpoints
 62
     0
 48
10.0
100
AcDbPoint
 10
213.8643004226919
 20
427.0685759194265
 30
0.0
  0
ENDBLK
  5
30D5
330
30C8
100
AcDbEntity
  8
0
 48
10.0
100
AcDbBlockEnd
  0
BLOCK
  5
30E2
330
30D6
100
AcDbEntity
  8
0
 48
10.0
100
AcDbBlockBegin
  2
*D7
 70
     1
 10
0.0
 20
0.0
 30
0.0
  3
*D7
  1

  0
LINE
  5
5FEE
330
30D6
100
AcDbEntity
  8
BEM
 48
10.0
100
AcDbLine
 10
241.6058601474716
 20
352.1098438865997
 30
0.0
 11
276.7130229004568
 21
352.1098438865997
 31
0.0
  0
LINE
  5
5FEF
330
30D6
100
AcDbEntity
  8
BEM
 48
10.0
100
AcDbLine
 10
256.6574310536377
 20
340.1098438865997
 30
0.0
 11
276.7130229004568
 21
340.1098438865997
 31
0.0
  0
LINE
  5
5FF0
330
30D6
100
AcDbEntity
  8
BEM
 48
10.0
100
AcDbLine
 10
275.4630229004568
 20
359.1098438865997
 30
0.0
 11
275.4630229004568
 21
366.1098438865997
 31
0.0
  0
LINE
  5
5FF1
330
30D6
100
AcDbEntity
  8
BEM
 48
10.0
100
AcDbLine
 10
275.4630229004568
 20
333.1098438865997
 30
0.0
 11
275.4630229004568
 21
303.347939124695
 31
0.0
  0
LINE
  5
5FF2
330
30D6
100
AcDbEntity
  8
BEM
 48
10.0
100
AcDbLine
 10
275.4630229004568
 20
352.1098438865997
 30
0.0
 11
275.4630229004568
 21
340.1098438865997
 31
0.0
  0
SOLID
  5
5FF3
330
30D6
100
AcDbEntity
  8
BEM
 48
10.0
100
AcDbTrace
 10
274.2963562337902
 20
359.1098438865997
 30
0.0
 11
276.6296895671235
 21
359.1098438865997
 31
0.0
 12
275.4630229004568
 22
352.1098438865997
 32
0.0
 13
275.4630229004568
 23
352.1098438865997
 33
0.0
  0
SOLID
  5
5FF4
330
30D6
100
AcDbEntity
  8
BEM
 48
10.0
100
AcDbTrace
 10
274.2963562337902
 20
333.1098438865997
 30
0.0
 11
276.6296895671235
 21
333.1098438865997
 31
0.0
 12
275.4630229004568
 22
340.1098438865997
 32
0.0
 13
275.4630229004568
 23
340.1098438865997
 33
0.0
  0
MTEXT
  5
5FF5
330
30D6
100
AcDbEntity
  8
BEM
 48
10.0
100
AcDbMText
 10
266.4630229004568
 20
314.7288915056474
 30
0.0
 40
10.0
 41
0.0
 71
     5
 72
     1
  1
\A1;12
 11
0.0000000000000001
 21
1.0
 31
0.0
 73
     1
 44
1.0
  0
POINT
  5
5FF6
330
30D6
100
AcDbEntity
  8
Defpoints
 62
     0
 48
10.0
100
AcDbPoint
 10
241.6058601474716
 20
352.1098438865997
 30
0.0
  0
POINT
  5
5FF7
330
30D6
100
AcDbEntity
  8
Defpoints
 62
     0
 48
10.0
100
AcDbPoint
 10
256.6574310536377
 20
340.1098438865997
 30
0.0
  0
POINT
  5
5FF8
330
30D6
100
AcDbEntity
  8
Defpoints
 62
     0
 48
10.0
100
AcDbPoint
 10
275.4630229004568
 20
340.1098438865997
 30
0.0
  0
ENDBLK
  5
30E3
330
30D6
100
AcDbEntity
  8
0
 48
10.0
100
AcDbBlockEnd
  0
BLOCK
  5
30F0
330
30E4
100
AcDbEntity
  8
0
 48
10.0
100
AcDbBlockBegin
  2
*D8
 70
     1
 10
0.0
 20
0.0
 30
0.0
  3
*D8
  1

  0
LINE
  5
5FF9
330
30E4
100
AcDbEntity
  8
BEM
100
AcDbLine
 10
456.2442079110686
 20
350.1098438865997
 30
0.0
 11
426.7826646606537
 21
350.1098438865997
 31
0.0
  0
LINE
  5
5FFA
330
30E4
100
AcDbEntity
  8
BEM
100
AcDbLine
 10
456.2442079110686
 20
330.1098438865997
 30
0.0
 11
426.7826646606537
 21
330.1098438865997
 31
0.0
  0
LINE
  5
5FFB
330
30E4
100
AcDbEntity
  8
BEM
100
AcDbLine
 10
428.0326646606537
 20
357.1098438865997
 30
0.0
 11
428.0326646606537
 21
364.1098438865997
 31
0.0
  0
LINE
  5
5FFC
330
30E4
100
AcDbEntity
  8
BEM
100
AcDbLine
 10
428.0326646606537
 20
323.1098438865997
 30
0.0
 11
428.0326646606537
 21
316.1098438865997
 31
0.0
  0
LINE
  5
5FFD
330
30E4
100
AcDbEntity
  8
BEM
100
AcDbLine
 10
428.0326646606537
 20
350.1098438865997
 30
0.0
 11
428.0326646606537
 21
330.1098438865997
 31
0.0
  0
SOLID
  5
5FFE
330
30E4
100
AcDbEntity
  8
BEM
100
AcDbTrace
 10
426.8659979939871
 20
357.1098438865997
 30
0.0
 11
429.1993313273204
 21
357.1098438865997
 31
0.0
 12
428.0326646606537
 22
350.1098438865997
 32
0.0
 13
428.0326646606537
 23
350.1098438865997
 33
0.0
  0
SOLID
  5
5FFF
330
30E4
100
AcDbEntity
  8
BEM
100
AcDbTrace
 10
426.8659979939871
 20
323.1098438865997
 30
0.0
 11
429.1993313273204
 21
323.1098438865997
 31
0.0
 12
428.0326646606537
 22
330.1098438865997
 32
0.0
 13
428.0326646606537
 23
330.1098438865997
 33
0.0
  0
MTEXT
  5
6000
330
30E4
100
AcDbEntity
  8
BEM
100
AcDbMText
 10
419.0326646606536
 20
340.1098438865998
 30
0.0
 40
10.0
 41
0.0
 71
     5
 72
     1
  1
\A1;%%c20{}{\H0.71x;\C3; k6}
 11
0.0000000000000001
 21
1.0
 31
0.0
 73
     1
 44
1.0
  0
POINT
  5
6001
330
30E4
100
AcDbEntity
  8
Defpoints
 62
     0
100
AcDbPoint
 10
456.2442079110686
 20
350.1098438865997
 30
0.0
  0
POINT
  5
6002
330
30E4
100
AcDbEntity
  8
Defpoints
 62
     0
100
AcDbPoint
 10
456.2442079110686
 20
330.1098438865997
 30
0.0
  0
POINT
  5
6003
330
30E4
100
AcDbEntity
  8
Defpoints
 62
     0
100
AcDbPoint
 10
428.0326646606537
 20
330.1098438865997
 30
0.0
  0
ENDBLK
  5
30F1
330
30E4
100
AcDbEntity
  8
0
 48
10.0
100
AcDbBlockEnd
  0
BLOCK
  5
30FC
330
30F2
100
AcDbEntity
  8
0
 48
10.0
100
AcDbBlockBegin
  2
*D9
 70
     1
 10
0.0
 20
0.0
 30
0.0
  3
*D9
  1

  0
LINE
  5
606F
330
30F2
100
AcDbEntity
  8
BEM
100
AcDbLine
 10
507.2442079110686
 20
370.1098438865997
 30
0.0
 11
396.6971892289015
 21
370.1098438865997
 31
0.0
  0
LINE
  5
6070
330
30F2
100
AcDbEntity
  8
BEM
100
AcDbLine
 10
507.2442079110686
 20
310.1098438865997
 30
0.0
 11
396.6971892289015
 21
310.1098438865997
 31
0.0
  0
LINE
  5
6071
330
30F2
100
AcDbEntity
  8
BEM
100
AcDbLine
 10
397.9471892289015
 20
363.1098438865997
 30
0.0
 11
397.9471892289015
 21
317.1098438865997
 31
0.0
  0
SOLID
  5
6072
330
30F2
100
AcDbEntity
  8
BEM
100
AcDbTrace
 10
396.7805225622348
 20
363.1098438865997
 30
0.0
 11
399.1138558955682
 21
363.1098438865997
 31
0.0
 12
397.9471892289015
 22
370.1098438865997
 32
0.0
 13
397.9471892289015
 23
370.1098438865997
 33
0.0
  0
SOLID
  5
6073
330
30F2
100
AcDbEntity
  8
BEM
100
AcDbTrace
 10
396.7805225622348
 20
317.1098438865997
 30
0.0
 11
399.1138558955682
 21
317.1098438865997
 31
0.0
 12
397.9471892289015
 22
310.1098438865997
 32
0.0
 13
397.9471892289015
 23
310.1098438865997
 33
0.0
  0
MTEXT
  5
6074
330
30F2
100
AcDbEntity
  8
BEM
100
AcDbMText
 10
387.7638558955681
 20
340.1098438865998
 30
0.0
 40
10.0
 41
0.0
 71
     5
 72
     1
  1
\A1;%%c60{}{\H0.71x;\C3; j6}
 11
0.0000000000000001
 21
1.0
 31
0.0
 73
     1
 44
1.0
  0
POINT
  5
6075
330
30F2
100
AcDbEntity
  8
Defpoints
 62
     0
100
AcDbPoint
 10
507.2442079110686
 20
370.1098438865997
 30
0.0
  0
POINT
  5
6076
330
30F2
100
AcDbEntity
  8
Defpoints
 62
     0
100
AcDbPoint
 10
507.2442079110686
 20
310.1098438865997
 30
0.0
  0
POINT
  5
6077
330
30F2
100
AcDbEntity
  8
Defpoints
 62
     0
100
AcDbPoint
 10
397.9471892289015
 20
310.1098438865997
 30
0.0
  0
ENDBLK
  5
30FD
330
30F2
100
AcDbEntity
  8
0
 48
10.0
100
AcDbBlockEnd
  0
BLOCK
  5
3107
330
30FE
100
AcDbEntity
  8
0
 48
10.0
100
AcDbBlockBegin
  2
*D10
 70
     1
 10
0.0
 20
0.0
 30
0.0
  3
*D10
  1

  0
LINE
  5
6004
330
30FE
100
AcDbEntity
  8
BEM
100
AcDbLine
 10
967.3600459841335
 20
292.1326730834635
 30
0.0
 11
973.2499708498222
 21
295.9153685611013
 31
0.0
  0
LINE
  5
6005
330
30FE
100
AcDbEntity
  8
BEM
100
AcDbLine
 10
943.800346521378
 20
277.0018911729114
 30
0.0
 11
909.54262026176
 21
255.0004991090993
 31
0.0
  0
LINE
  5
6006
330
30FE
100
AcDbEntity
  8
BEM
100
AcDbLine
 10
961.4701211184447
 20
288.3499776058256
 30
0.0
 11
949.6902713870666
 21
280.7845866505493
 31
0.0
  0
SOLID
  5
6007
330
30FE
100
AcDbEntity
  8
BEM
100
AcDbTrace
 10
966.7295967378604
 20
293.114327227745
 30
0.0
 11
967.9904952304065
 21
291.1510189391821
 31
0.0
 12
961.4701211184447
 22
288.3499776058256
 32
0.0
 13
961.4701211184447
 23
288.3499776058256
 33
0.0
  0
SOLID
  5
6008
330
30FE
100
AcDbEntity
  8
BEM
100
AcDbTrace
 10
943.169897275105
 20
277.9835453171929
 30
0.0
 11
944.4307957676508
 21
276.0202370286299
 31
0.0
 12
949.6902713870666
 22
280.7845866505493
 32
0.0
 13
949.6902713870666
 23
280.7845866505493
 33
0.0
  0
MTEXT
  5
6009
102
{ACAD_XDICTIONARY
360
6096
102
}
330
30FE
100
AcDbEntity
  8
BEM
100
AcDbMText
 10
918.8630553446186
 20
271.6826079437861
 30
0.0
 40
10.0
 41
0.0
 71
     5
 72
     1
  1
\A1;\U+220514
 11
0.8414178379555272
 21
0.5403850682339828
 31
0.0
 73
     1
 44
1.0
  0
POINT
  5
600A
330
30FE
100
AcDbEntity
  8
Defpoints
 62
     0
100
AcDbPoint
 10
949.6902713870666
 20
280.7845866505493
 30
0.0
  0
POINT
  5
600B
330
30FE
100
AcDbEntity
  8
Defpoints
 62
     0
100
AcDbPoint
 10
961.4701211184447
 20
288.3499776058256
 30
0.0
  0
ENDBLK
  5
3108
330
30FE
100
AcDbEntity
  8
0
 48
10.0
100
AcDbBlockEnd
  0
BLOCK
  5
3113
330
3109
100
AcDbEntity
  8
0
 48
10.0
100
AcDbBlockBegin
  2
*D11
 70
     1
 10
0.0
 20
0.0
 30
0.0
  3
*D11
  1

  0
LINE
  5
600C
330
3109
100
AcDbEntity
  8
BEM
100
AcDbLine
 10
964.8568981883336
 20
394.5672821281874
 30
0.0
 11
1031.767153349834
 21
394.5672821281874
 31
0.0
  0
LINE
  5
600D
330
3109
100
AcDbEntity
  8
BEM
100
AcDbLine
 10
964.5751520532202
 20
284.5672821281874
 30
0.0
 11
1031.767153349834
 21
284.5672821281874
 31
0.0
  0
LINE
  5
600E
330
3109
100
AcDbEntity
  8
BEM
100
AcDbLine
 10
1030.517153349834
 20
387.5672821281873
 30
0.0
 11
1030.517153349834
 21
291.5672821281873
 31
0.0
  0
SOLID
  5
600F
330
3109
100
AcDbEntity
  8
BEM
100
AcDbTrace
 10
1029.350486683167
 20
387.5672821281873
 30
0.0
 11
1031.683820016501
 21
387.5672821281873
 31
0.0
 12
1030.517153349834
 22
394.5672821281874
 32
0.0
 13
1030.517153349834
 23
394.5672821281874
 33
0.0
  0
SOLID
  5
6010
330
3109
100
AcDbEntity
  8
BEM
100
AcDbTrace
 10
1029.350486683167
 20
291.5672821281873
 30
0.0
 11
1031.683820016501
 21
291.5672821281873
 31
0.0
 12
1030.517153349834
 22
284.5672821281874
 32
0.0
 13
1030.517153349834
 23
284.5672821281874
 33
0.0
  0
MTEXT
  5
6011
330
3109
100
AcDbEntity
  8
BEM
100
AcDbMText
 10
1021.517153349834
 20
339.5672821281873
 30
0.0
 40
10.0
 41
0.0
 71
     5
 72
     1
  1
\A1;110{}{\H0.71x;\C3;%%p0.2}
 11
0.0000000000000001
 21
1.0
 31
0.0
 73
     1
 44
1.0
  0
POINT
  5
6012
330
3109
100
AcDbEntity
  8
Defpoints
 62
     0
100
AcDbPoint
 10
964.8568981883336
 20
394.5672821281874
 30
0.0
  0
POINT
  5
6013
330
3109
100
AcDbEntity
  8
Defpoints
 62
     0
100
AcDbPoint
 10
964.5751520532202
 20
284.5672821281874
 30
0.0
  0
POINT
  5
6014
330
3109
100
AcDbEntity
  8
Defpoints
 62
     0
100
AcDbPoint
 10
1030.517153349834
 20
284.5672821281874
 30
0.0
  0
ENDBLK
  5
3114
330
3109
100
AcDbEntity
  8
0
 48
10.0
100
AcDbBlockEnd
  0
BLOCK
  5
311F
330
3115
100
AcDbEntity
  8
0
 48
10.0
100
AcDbBlockBegin
  2
*D12
 70
     1
 10
0.0
 20
0.0
 30
0.0
  3
*D12
  1

  0
LINE
  5
6015
330
3115
100
AcDbEntity
  8
BEM
100
AcDbLine
 10
955.5801962527553
 20
409.5672821281873
 30
0.0
 11
1063.030278895144
 21
409.5672821281873
 31
0.0
  0
LINE
  5
6016
330
3115
100
AcDbEntity
  8
BEM
100
AcDbLine
 10
955.5801962527553
 20
269.5672821281874
 30
0.0
 11
1063.030278895144
 21
269.5672821281874
 31
0.0
  0
LINE
  5
6017
330
3115
100
AcDbEntity
  8
BEM
100
AcDbLine
 10
1061.780278895144
 20
402.5672821281873
 30
0.0
 11
1061.780278895144
 21
276.5672821281873
 31
0.0
  0
SOLID
  5
6018
330
3115
100
AcDbEntity
  8
BEM
100
AcDbTrace
 10
1060.613612228477
 20
402.5672821281873
 30
0.0
 11
1062.946945561811
 21
402.5672821281873
 31
0.0
 12
1061.780278895144
 22
409.5672821281873
 32
0.0
 13
1061.780278895144
 23
409.5672821281873
 33
0.0
  0
SOLID
  5
6019
330
3115
100
AcDbEntity
  8
BEM
100
AcDbTrace
 10
1060.613612228477
 20
276.5672821281873
 30
0.0
 11
1062.946945561811
 21
276.5672821281873
 31
0.0
 12
1061.780278895144
 22
269.5672821281874
 32
0.0
 13
1061.780278895144
 23
269.5672821281874
 33
0.0
  0
MTEXT
  5
601A
330
3115
100
AcDbEntity
  8
BEM
100
AcDbMText
 10
1050.161231276096
 20
339.5672821281873
 30
0.0
 40
10.0
 41
0.0
 71
     5
 72
     1
  1
\A1;(140)
 11
0.0000000000000001
 21
1.0
 31
0.0
 73
     1
 44
1.0
  0
POINT
  5
601B
330
3115
100
AcDbEntity
  8
Defpoints
 62
     0
100
AcDbPoint
 10
955.5801962527553
 20
409.5672821281873
 30
0.0
  0
POINT
  5
601C
330
3115
100
AcDbEntity
  8
Defpoints
 62
     0
100
AcDbPoint
 10
955.5801962527553
 20
269.5672821281874
 30
0.0
  0
POINT
  5
601D
330
3115
100
AcDbEntity
  8
Defpoints
 62
     0
100
AcDbPoint
 10
1061.780278895144
 20
269.5672821281874
 30
0.0
  0
ENDBLK
  5
3120
330
3115
100
AcDbEntity
  8
0
 48
10.0
100
AcDbBlockEnd
  0
BLOCK
  5
312B
330
3121
100
AcDbEntity
  8
0
 48
10.0
100
AcDbBlockBegin
  2
*D13
 70
     1
 10
0.0
 20
0.0
 30
0.0
  3
*D13
  1

  0
LINE
  5
601E
330
3121
100
AcDbEntity
  8
BEM
100
AcDbLine
 10
810.0442079110688
 20
378.1098438866
 30
0.0
 11
852.8912616953471
 21
378.1098438866
 31
0.0
  0
LINE
  5
601F
330
3121
100
AcDbEntity
  8
BEM
100
AcDbLine
 10
810.0442079110688
 20
302.1098438865999
 30
0.0
 11
852.8912616953471
 21
302.1098438865999
 31
0.0
  0
LINE
  5
6020
330
3121
100
AcDbEntity
  8
BEM
100
AcDbLine
 10
851.641261695347
 20
371.1098438865999
 30
0.0
 11
851.641261695347
 21
309.1098438866
 31
0.0
  0
SOLID
  5
6021
330
3121
100
AcDbEntity
  8
BEM
100
AcDbTrace
 10
850.4745950286805
 20
371.1098438865999
 30
0.0
 11
852.8079283620137
 21
371.1098438865999
 31
0.0
 12
851.641261695347
 22
378.1098438866
 32
0.0
 13
851.641261695347
 23
378.1098438866
 33
0.0
  0
SOLID
  5
6022
330
3121
100
AcDbEntity
  8
BEM
100
AcDbTrace
 10
850.4745950286805
 20
309.1098438866
 30
0.0
 11
852.8079283620137
 21
309.1098438866
 31
0.0
 12
851.641261695347
 22
302.1098438865999
 32
0.0
 13
851.641261695347
 23
302.1098438865999
 33
0.0
  0
MTEXT
  5
6023
330
3121
100
AcDbEntity
  8
BEM
100
AcDbMText
 10
842.641261695347
 20
340.1098438866001
 30
0.0
 40
10.0
 41
0.0
 71
     5
 72
     1
  1
\A1;%%c76{}{\H0.71x;\C3;-0.1}
 11
0.0000000000000001
 21
1.0
 31
0.0
 73
     1
 44
1.0
  0
POINT
  5
6024
330
3121
100
AcDbEntity
  8
Defpoints
 62
     0
100
AcDbPoint
 10
810.0442079110688
 20
378.1098438866
 30
0.0
  0
POINT
  5
6025
330
3121
100
AcDbEntity
  8
Defpoints
 62
     0
100
AcDbPoint
 10
810.0442079110688
 20
302.1098438865999
 30
0.0
  0
POINT
  5
6026
330
3121
100
AcDbEntity
  8
Defpoints
 62
     0
100
AcDbPoint
 10
851.641261695347
 20
302.1098438865999
 30
0.0
  0
ENDBLK
  5
312C
330
3121
100
AcDbEntity
  8
0
 48
10.0
100
AcDbBlockEnd
  0
BLOCK
  5
3136
330
312D
100
AcDbEntity
  8
0
 48
10.0
100
AcDbBlockBegin
  2
*D14
 70
     1
 10
0.0
 20
0.0
 30
0.0
  3
*D14
  1

  0
LINE
  5
6027
330
312D
100
AcDbEntity
  8
BEM
100
AcDbLine
 10
878.1530349219607
 20
303.9222604831692
 30
0.0
 11
914.7038457177824
 21
320.7491003100074
 31
0.0
  0
LINE
  5
6028
330
312D
100
AcDbEntity
  8
BEM
100
AcDbLine
 10
996.4565467877276
 20
358.3854639463677
 30
0.0
 11
1002.815090204279
 21
361.3127366736402
 31
0.0
  0
MTEXT
  5
6029
102
{ACAD_XDICTIONARY
360
6098
102
}
330
312D
100
AcDbEntity
  8
BEM
100
AcDbMText
 10
889.48553224796
 20
319.0473141399465
 30
0.0
 40
10.0
 41
0.0
 71
     5
 72
     1
  1
\A1;\U+220576
 11
0.9083633452216041
 21
0.4181818181817771
 31
0.0
 73
     1
 44
1.0
  0
LINE
  5
602A
330
312D
100
AcDbEntity
  8
BEM
100
AcDbLine
 10
990.0980033711762
 20
355.4581912190953
 30
0.0
 11
921.0623891343336
 21
323.6763730372798
 31
0.0
  0
SOLID
  5
602B
330
312D
100
AcDbEntity
  8
BEM
100
AcDbTrace
 10
995.9686679998487
 20
359.4452211824596
 30
0.0
 11
996.9444255756062
 21
357.3257067102758
 31
0.0
 12
990.0980033711762
 22
355.4581912190953
 32
0.0
 13
990.0980033711762
 23
355.4581912190953
 33
0.0
  0
SOLID
  5
602C
330
312D
100
AcDbEntity
  8
BEM
100
AcDbTrace
 10
914.2159669299037
 20
321.8088575460993
 30
0.0
 11
915.191724505661
 21
319.6893430739156
 31
0.0
 12
921.0623891343336
 22
323.6763730372798
 32
0.0
 13
921.0623891343336
 23
323.6763730372798
 33
0.0
  0
POINT
  5
602D
330
312D
100
AcDbEntity
  8
Defpoints
 62
     0
100
AcDbPoint
 10
921.0623891343336
 20
323.6763730372798
 30
0.0
  0
POINT
  5
602E
330
312D
100
AcDbEntity
  8
Defpoints
 62
     0
100
AcDbPoint
 10
990.0980033711762
 20
355.4581912190953
 30
0.0
  0
ENDBLK
  5
3137
330
312D
100
AcDbEntity
  8
0
 48
10.0
100
AcDbBlockEnd
  0
BLOCK
  5
313F
330
3138
100
AcDbEntity
  8
0
 48
10.0
100
AcDbBlockBegin
  2
*D15
 70
     1
 10
0.0
 20
0.0
 30
0.0
  3
*D15
  1

  0
LINE
  5
6038
330
3138
100
AcDbEntity
  8
BEM
100
AcDbLine
 10
940.6096976988504
 20
410.6882055833603
 30
0.0
 11
911.2843704449876
 21
442.2670707931668
 31
0.0
  0
LINE
  5
6039
330
3138
100
AcDbEntity
  8
BEM
100
AcDbLine
 10
955.580196252756
 20
394.5672821281882
 30
0.0
 11
945.3730381478202
 21
405.5588208476237
 31
0.0
  0
SOLID
  5
603A
330
3138
100
AcDbEntity
  8
BEM
100
AcDbTrace
 10
941.4645951548063
 20
411.4820956581885
 30
0.0
 11
939.7548002428941
 21
409.8943155085319
 31
0.0
 12
945.3730381478202
 22
405.5588208476237
 32
0.0
 13
945.3730381478202
 23
405.5588208476237
 33
0.0
  0
MTEXT
  5
603B
330
3138
100
AcDbEntity
  8
BEM
100
AcDbMText
 10
929.3501951660051
 20
436.0389697619054
 30
0.0
 40
10.0
 41
0.0
 71
     5
 72
     1
  1
\A1;R15
 11
0.6804772069957065
 21
-0.7327692479623599
 31
0.0
 73
     1
 44
1.0
  0
POINT
  5
603C
330
3138
100
AcDbEntity
  8
Defpoints
 62
     0
100
AcDbPoint
 10
945.3730381478202
 20
405.5588208476237
 30
0.0
  0
POINT
  5
603D
330
3138
100
AcDbEntity
  8
Defpoints
 62
     0
100
AcDbPoint
 10
955.580196252756
 20
394.5672821281882
 30
0.0
  0
ENDBLK
  5
3140
330
3138
100
AcDbEntity
  8
0
 48
10.0
100
AcDbBlockEnd
  0
BLOCK
  5
31E3
330
31D9
100
AcDbEntity
  8
0
 48
10.0
100
AcDbBlockBegin
  2
*D16
 70
     1
 10
0.0
 20
0.0
 30
0.0
  3
*D16
  1

  0
LINE
  5
6081
330
31D9
100
AcDbEntity
  8
BEM
100
AcDbLine
 10
200.7073004226919
 20
320.1098438865997
 30
0.0
 11
200.7073004226919
 21
259.079716821152
 31
0.0
  0
LINE
  5
6082
330
31D9
100
AcDbEntity
  8
BEM
100
AcDbLine
 10
227.0213004226917
 20
320.1098438865997
 30
0.0
 11
227.0213004226917
 21
260.088058698977
 31
0.0
  0
LINE
  5
6083
330
31D9
100
AcDbEntity
  8
BEM
100
AcDbLine
 10
207.7073004226919
 20
237.1420398489208
 30
0.0
 11
220.0213004226918
 21
237.1420398489208
 31
0.0
  0
SOLID
  5
6084
330
31D9
100
AcDbEntity
  8
BEM
100
AcDbTrace
 10
207.7073004226919
 20
238.3087065155875
 30
0.0
 11
207.7073004226919
 21
235.9753731822542
 31
0.0
 12
200.7073004226919
 22
237.1420398489208
 32
0.0
 13
200.7073004226919
 23
237.1420398489208
 33
0.0
  0
SOLID
  5
6085
330
31D9
100
AcDbEntity
  8
BEM
100
AcDbTrace
 10
220.0213004226918
 20
238.3087065155875
 30
0.0
 11
220.0213004226918
 21
235.9753731822542
 31
0.0
 12
227.0213004226917
 22
237.1420398489208
 32
0.0
 13
227.0213004226917
 23
237.1420398489208
 33
0.0
  0
MTEXT
  5
6086
330
31D9
100
AcDbEntity
  8
BEM
100
AcDbMText
 10
213.8643004226918
 20
248.7610874679685
 30
0.0
 40
10.0
 41
0.0
 71
     5
 72
     1
  1
\A1;G1/4"
 73
     1
 44
1.0
  0
POINT
  5
6087
330
31D9
100
AcDbEntity
  8
Defpoints
 62
     0
100
AcDbPoint
 10
200.7073004226919
 20
320.1098438865997
 30
0.0
  0
POINT
  5
6088
330
31D9
100
AcDbEntity
  8
Defpoints
 62
     0
100
AcDbPoint
 10
227.0213004226917
 20
320.1098438865997
 30
0.0
  0
POINT
  5
6089
330
31D9
100
AcDbEntity
  8
Defpoints
 62
     0
100
AcDbPoint
 10
227.0213004226917
 20
237.1420398489208
 30
0.0
  0
LINE
  5
608A
330
31D9
100
AcDbEntity
  8
BEM
100
AcDbLine
 10
227.0213004226917
 20
241.9379136056632
 30
0.0
 11
227.0213004226917
 21
235.8920398489208
 31
0.0
  0
LINE
  5
608B
330
31D9
100
AcDbEntity
  8
BEM
100
AcDbLine
 10
200.7073004226919
 20
241.0212403586684
 30
0.0
 11
200.7073004226919
 21
235.8920398489208
 31
0.0
  0
ENDBLK
  5
31E4
330
31D9
100
AcDbEntity
  8
0
 48
10.0
100
AcDbBlockEnd
  0
BLOCK
  5
5AE2
330
5ADD
100
AcDbEntity
  8
0
 48
10.0
100
AcDbBlockBegin
  2
A$C5AB5744B
 70
     0
 10
0.0
 20
0.0
 30
0.0
  3
A$C5AB5744B
  1

  0
TEXT
  5
5ADE
330
5ADD
100
AcDbEntity
  8
BEM
100
AcDbText
 10
-70.19298954053818
 20
4.051434032072847
 30
0.0
 40
10.0
  1
Branchement de l'air
100
AcDbText
  0
TEXT
  5
5ADF
330
5ADD
100
AcDbEntity
  8
BEM
100
AcDbText
 10
-70.19298954053818
 20
-10.26714511015075
 30
0.0
 40
10.0
  1
Aria in entrata
100
AcDbText
  0
TEXT
  5
5AE0
330
5ADD
100
AcDbEntity
  8
BEM
100
AcDbText
 10
-70.19298954053818
 20
20.72200620153194
 30
0.0
 40
10.0
  1
air supply
100
AcDbText
  0
TEXT
  5
5AE1
330
5ADD
100
AcDbEntity
  8
BEM
100
AcDbText
 10
-70.19298954053818
 20
35.75570867497209
 30
0.0
 40
10.0
  1
Zuluft
100
AcDbText
  0
ENDBLK
  5
5AE3
330
5ADD
100
AcDbEntity
  8
0
 48
10.0
100
AcDbBlockEnd
  0
BLOCK
  5
5C83
330
5C81
100
AcDbEntity
  8
0
 48
10.0
100
AcDbBlockBegin
  2
GENAXEH
 70
     0
 10
0.0
 20
0.0
 30
0.0
  3
GENAXEH
  1

  0
LINE
  5
5C82
330
5C81
100
AcDbEntity
  8
0
100
AcDbLine
 10
-1.0
 20
0.0
 30
0.0
 11
1.0
 21
0.0
 31
0.0
  0
ENDBLK
  5
5C84
330
5C81
100
AcDbEntity
  8
0
 48
10.0
100
AcDbBlockEnd
  0
BLOCK
  5
5C9F
330
5C9B
100
AcDbEntity
  8
0
 48
10.0
100
AcDbBlockBegin
  2
_Open30
 70
     0
 10
0.0
 20
0.0
 30
0.0
  3
_Open30
  1

  0
LINE
  5
5C9C
330
5C9B
100
AcDbEntity
  8
0
  6
ByBlock
 62
     0
370
    -2
100
AcDbLine
 10
-1.0
 20
0.26794919
 30
0.0
 11
0.0
 21
0.0
 31
0.0
  0
LINE
  5
5C9D
330
5C9B
100
AcDbEntity
  8
0
  6
ByBlock
 62
     0
370
    -2
100
AcDbLine
 10
0.0
 20
0.0
 30
0.0
 11
-1.0
 21
-0.26794919
 31
0.0
  0
LINE
  5
5C9E
330
5C9B
100
AcDbEntity
  8
0
  6
ByBlock
 62
     0
370
    -2
100
AcDbLine
 10
0.0
 20
0.0
 30
0.0
 11
-1.0
 21
0.0
 31
0.0
  0
ENDBLK
  5
5CA0
330
5C9B
100
AcDbEntity
  8
0
 48
10.0
100
AcDbBlockEnd
  0
ENDSEC
  0
SECTION
  2
ENTITIES
  0
TEXT
  5
BF4
330
2
100
AcDbEntity
  8
BEM
100
AcDbText
 10
544.5301784643397
 20
206.6298330028835
 30
0.0
 40
10.0
  1
MRD 28-800    29906045
100
AcDbText
  0
TEXT
  5
1BA5
330
2
100
AcDbEntity
  8
BEM
100
AcDbText
 10
189.2396484557216
 20
199.8573353656381
 30
0.0
 40
10.0
  1
exhaust air
100
AcDbText
  0
TEXT
  5
1BA6
330
2
100
AcDbEntity
  8
BEM
100
AcDbText
 10
189.2396484557216
 20
163.574926264486
 30
0.0
 40
10.0
  1
Aria in uscita
100
AcDbText
  0
TEXT
  5
1BA7
330
2
100
AcDbEntity
  8
BEM
100
AcDbText
 10
189.2396484557216
 20
179.6751586461978
 30
0.0
 40
10.0
  1
Sortie de l'air
100
AcDbText
  0
TEXT
  5
1BA8
330
2
100
AcDbEntity
  8
BEM
100
AcDbText
 10
189.2396484557216
 20
215.9575677473499
 30
0.0
 40
10.0
  1
Abluft
100
AcDbText
  0
LINE
  5
2FF6
330
2
100
AcDbEntity
  8
0
100
AcDbLine
 10
575.9238717555363
 20
375.1098438865997
 30
0.0
 11
565.9238717555362
 21
375.1098438865997
 31
0.0
1001
ACAD
1000
ASC_BOUNDS
1002
{
1070
    19
1005
0
1002
}
  0
LINE
  5
2FF7
330
2
100
AcDbEntity
  8
LINIE
  6
STRICHLINIE
 48
5.0
100
AcDbLine
 10
565.9238717555362
 20
370.6098438865997
 30
0.0
 11
575.9238717555363
 21
370.6098438865997
 31
0.0
1001
ACAD
1000
ASC_BOUNDS
1002
{
1070
    19
1005
0
1002
}
  0
LINE
  5
2FF8
330
2
100
AcDbEntity
  8
LINIE
  6
STRICHLINIE
 48
5.0
100
AcDbLine
 10
565.9238717555362
 20
363.6098438865997
 30
0.0
 11
575.9238717555363
 21
363.6098438865997
 31
0.0
1001
ACAD
1000
ASC_BOUNDS
1002
{
1070
    19
1005
0
1002
}
  0
LINE
  5
2FF9
330
2
100
AcDbEntity
  8
MITTE
 48
5.0
100
AcDbLine
 10
563.6475668583589
 20
367.1098438865997
 30
0.0
 11
578.6642274293265
 21
367.1098438865997
 31
0.0
  0
LINE
  5
2FFA
330
2
100
AcDbEntity
  8
LINIE
  6
STRICHLINIE
 48
5.0
100
AcDbLine
 10
565.9238717555362
 20
309.6098438865997
 30
0.0
 11
575.9238717555363
 21
309.6098438865997
 31
0.0
1001
ACAD
1000
ASC_BOUNDS
1002
{
1070
    19
1005
0
1002
}
  0
LINE
  5
2FFB
330
2
100
AcDbEntity
  8
LINIE
  6
STRICHLINIE
 48
5.0
100
AcDbLine
 10
565.9238717555362
 20
316.6098438865997
 30
0.0
 11
575.9238717555363
 21
316.6098438865997
 31
0.0
1001
ACAD
1000
ASC_BOUNDS
1002
{
1070
    19
1005
0
1002
}
  0
LINE
  5
2FFC
330
2
100
AcDbEntity
  8
MITTE
 48
5.0
100
AcDbLine
 10
563.4666432806132
 20
313.1098438865997
 30
0.0
 11
579.2069981625634
 21
313.1098438865997
 31
0.0
  0
LINE
  5
2FFD
330
2
100
AcDbEntity
  8
0
100
AcDbLine
 10
575.9238717555363
 20
305.1098438865997
 30
0.0
 11
565.9238717555362
 21
305.1098438865997
 31
0.0
1001
ACAD
1000
ASC_BOUNDS
1002
{
1070
    19
1005
0
1002
}
  0
DIMENSION
  5
2FFE
330
2
100
AcDbEntity
  8
BEM
100
AcDbDimension
  2
*D0
 10
532.2442079110686
 20
462.3377993833742
 30
0.0
 11
519.2442079110686
 21
462.3377993833742
 31
0.0
 70
   160
 71
     5
 42
26.0
  3
ISO-25
100
AcDbAlignedDimension
 13
506.2442079110686
 23
369.8418946941688
 33
0.0
 14
532.2442079110686
 24
410.1098438865997
 34
0.0
100
AcDbRotatedDimension
1001
ACAD
1000
DSTYLE
1002
{
1070
    40
1040
1.0
1002
}
  0
DIMENSION
  5
2FFF
330
2
100
AcDbEntity
  8
BEM
100
AcDbDimension
  2
*D1
 10
512.2442079110686
 20
438.3150470974637
 30
0.0
 11
484.9108745777353
 21
438.3150470974637
 31
0.0
 70
   160
 71
     5
 42
6.0
  3
ISO-25
100
AcDbAlignedDimension
 13
506.2442079110686
 23
369.8418946941688
 33
0.0
 14
512.2442079110686
 24
410.1098438865997
 34
0.0
100
AcDbRotatedDimension
1001
ACAD
1000
DSTYLE
1002
{
1070
    40
1040
1.0
1002
}
  0
LINE
  5
3000
330
2
100
AcDbEntity
  8
MITTE
 48
5.0
100
AcDbLine
 10
533.5790347358547
 20
340.1098438865997
 30
0.0
 11
716.720229817195
 21
340.1098438865997
 31
0.0
  0
DIMENSION
  5
3001
330
2
100
AcDbEntity
  8
BEM
100
AcDbDimension
  2
*D2
 10
506.2442079110686
 20
494.5286375178752
 30
0.0
 11
658.1442079110687
 21
503.5286375178753
 31
0.0
 70
    32
 71
     5
 42
303.8000000000002
  3
ISO-25
100
AcDbAlignedDimension
 13
810.0442079110688
 23
378.1098438865997
 33
0.0
 14
506.2442079110686
 24
369.8418946941688
 34
0.0
100
AcDbRotatedDimension
1001
ACAD
1000
DSTYLE
1002
{
1002
}
  0
DIMENSION
  5
3003
330
2
100
AcDbEntity
  8
BEM
100
AcDbDimension
  2
*D3
 10
500.2442079110688
 20
233.2972184266417
 30
0.0
 11
477.2442079110687
 21
242.2972184266417
 31
0.0
 70
    32
 71
     5
 42
46.00000000000022
  3
ISO-25
100
AcDbAlignedDimension
 13
454.2442079110686
 23
332.1098438865997
 33
0.0
 14
500.2442079110688
 24
330.1098438865997
 34
0.0
100
AcDbRotatedDimension
  0
LINE
  5
3004
330
2
100
AcDbEntity
  8
0
100
AcDbLine
 10
565.9238717555362
 20
375.1098438865997
 30
0.0
 11
565.9238717555362
 21
305.1098438865997
 31
0.0
1001
ACAD
1000
ASC_BOUNDS
1002
{
1070
    19
1005
0
1005
0
1002
}
  0
LINE
  5
3009
330
2
100
AcDbEntity
  8
BEM
100
AcDbLine
 10
220.735165500977
 20
362.0943047772148
 30
0.0
 11
179.4750513894905
 21
399.5715352245406
 31
0.0
1001
ACAD
1000
DSTYLE
1002
{
1070
    40
1040
1.0
1002
}
  0
DIMENSION
  5
300A
330
2
100
AcDbEntity
  8
BEM
 48
10.0
100
AcDbDimension
  2
*D4
 10
131.5099952098775
 20
340.1098438865997
 30
0.0
 11
131.5099952098775
 21
330.1098438865998
 31
0.0
 70
   160
 71
     5
 42
20.0
  3
ISO-25
100
AcDbAlignedDimension
 13
197.3113428953332
 23
320.1098438865997
 33
0.0
 14
165.9991816077308
 24
340.1098438865997
 34
0.0
 50
90.0
100
AcDbRotatedDimension
  0
CIRCLE
  5
300B
330
2
100
AcDbEntity
  8
0
 48
10.0
100
AcDbCircle
 10
497.6412638287817
 20
346.1098438865997
 30
0.0
 40
4.864000000000004
  0
ARC
  5
300D
330
2
100
AcDbEntity
  8
LINIE
 48
10.0
100
AcDbCircle
 10
497.6412638287817
 20
346.1098438865997
 30
0.0
 40
4.283
100
AcDbArc
 50
171.0883399155233
 51
117.4313969320033
  0
LINE
  5
300E
330
2
100
AcDbEntity
  8
MITTE
 48
10.0
100
AcDbLine
 10
492.7442873546978
 20
346.1098438865997
 30
0.0
 11
520.5120436911715
 21
346.1098438865997
 31
0.0
  0
LINE
  5
300F
330
2
100
AcDbEntity
  8
MITTE
 48
5.0
100
AcDbLine
 10
485.2305171006032
 20
340.1098438865997
 30
0.0
 11
528.0378291442546
 21
340.1098438865997
 31
0.0
  0
CIRCLE
  5
3010
330
2
100
AcDbEntity
  8
0
 48
10.0
100
AcDbCircle
 10
506.6412638287817
 20
340.1098438865997
 30
0.0
 40
19.0
  0
LINE
  5
3011
330
2
100
AcDbEntity
  8
BEM
100
AcDbLine
 10
179.4750513894905
 20
399.5715352245406
 30
0.0
 11
124.6655275799667
 21
399.5715352245406
 31
0.0
1001
ACAD
1000
DSTYLE
1002
{
1070
    40
1040
1.0
1002
}
  0
MTEXT
  5
3013
330
2
100
AcDbEntity
  8
BEM
100
AcDbMText
 10
126.9192638946364
 20
409.6154741791056
 30
0.0
 40
10.0
 41
0.0
 71
     4
 72
     1
  1
G1/8"
 73
     1
 44
1.0
  0
DIMENSION
  5
3014
330
2
100
AcDbEntity
  8
BEM
100
AcDbDimension
  2
*D5
 10
454.2442079110686
 20
494.5286375178752
 30
0.0
 11
480.2442079110686
 21
503.5286375178753
 31
0.0
 70
    32
 71
     5
 42
52.0
  3
ISO-25
100
AcDbAlignedDimension
 13
506.2442079110686
 23
369.8418946941688
 33
0.0
 14
454.2442079110686
 24
433.4584790079811
 34
0.0
100
AcDbRotatedDimension
1001
ACAD
1000
DSTYLE
1002
{
1070
    40
1040
1.0
1002
}
  0
MTEXT
  5
3015
330
2
100
AcDbEntity
  8
BEM
100
AcDbMText
 10
301.1406283823661
 20
480.7371024464319
 30
0.0
 40
10.0
 41
0.0
 71
     1
 72
     1
  1
Scheibenfeder\Pplate spring\PRessort en rondelle\PMolla\P3x5 DIN 6888
 73
     1
 44
1.0
  0
LWPOLYLINE
  5
3016
330
2
100
AcDbEntity
  8
BEM
100
AcDbPolyline
 90
        3
 70
     0
 43
0.0
 10
474.5658705934991
 20
362.3679970528097
 10
468.3322066069421
 20
398.9830527527929
 10
300.8313859480721
 20
398.9830527527929
1001
ACAD
1000
DSTYLE
1002
{
1070
    40
1040
1.0
1070
   144
1040
1.0
1002
}
  0
DIMENSION
  5
3017
330
2
100
AcDbEntity
  8
BEM
 48
10.0
100
AcDbDimension
  2
*D6
 10
213.8643004226919
 20
427.0685759194265
 30
0.0
 11
222.8643004226919
 21
427.0685759194265
 31
0.0
 70
   160
 71
     5
 42
17.99999999999988
  3
ISO-25
100
AcDbAlignedDimension
 13
231.8643004226918
 23
362.4308770512385
 33
0.0
 14
213.8643004226919
 24
413.103563691392
 34
0.0
100
AcDbRotatedDimension
  0
DIMENSION
  5
3018
330
2
100
AcDbEntity
  8
BEM
 48
10.0
100
AcDbDimension
  2
*D7
 10
275.4630229004568
 20
340.1098438865997
 30
0.0
 11
266.4630229004568
 21
314.7288915056474
 31
0.0
 70
    32
 71
     5
 42
12.0
  3
ISO-25
100
AcDbAlignedDimension
 13
241.6058601474716
 23
352.1098438865997
 33
0.0
 14
256.6574310536377
 24
340.1098438865997
 34
0.0
 50
90.0
100
AcDbRotatedDimension
  0
ARC
  5
3019
330
2
100
AcDbEntity
  8
LINIE
 48
10.0
100
AcDbCircle
 10
515.6412638287817
 20
346.1098438865997
 30
0.0
 40
4.863999999999999
100
AcDbArc
 50
163.5428264951438
 51
97.19233042071509
  0
LINE
  5
301A
330
2
100
AcDbEntity
  8
MITTE
 48
10.0
100
AcDbLine
 10
515.6412638287817
 20
351.2703604689191
 30
0.0
 11
515.6412638287817
 21
341.0503829017949
 31
0.0
  0
LINE
  5
301B
330
2
100
AcDbEntity
  8
MITTE
 48
10.0
100
AcDbLine
 10
497.6412638287817
 20
351.1494137644738
 30
0.0
 11
497.6412638287817
 21
340.8084898798127
 31
0.0
  0
LINE
  5
301C
330
2
100
AcDbEntity
  8
MITTE
 48
5.0
100
AcDbLine
 10
506.6412638287817
 20
376.6067037889959
 30
0.0
 11
506.6412638287817
 21
303.5296529873551
 31
0.0
  0
LINE
  5
301D
330
2
100
AcDbEntity
  8
MITTE
 48
10.0
100
AcDbLine
 10
515.6265407426117
 20
330.1098438865997
 30
0.0
 11
498.3647850651025
 21
330.1098438865997
 31
0.0
  0
CIRCLE
  5
301F
330
2
100
AcDbEntity
  8
0
 48
10.0
100
AcDbCircle
 10
506.6412638287817
 20
330.1098438865997
 30
0.0
 40
5.722499999999996
  0
ARC
  5
3020
330
2
100
AcDbEntity
  8
LINIE
 48
10.0
100
AcDbCircle
 10
506.6412638287817
 20
330.1098438865997
 30
0.0
 40
6.578499999999998
100
AcDbArc
 50
174.8055394591599
 51
102.5562431459358
  0
CIRCLE
  5
3023
330
2
100
AcDbEntity
  8
0
 48
10.0
100
AcDbCircle
 10
515.6412638287817
 20
346.1098438865997
 30
0.0
 40
4.283
  0
LWPOLYLINE
  5
3025
330
2
100
AcDbEntity
  8
0
 48
10.0
100
AcDbPolyline
 90
        6
 70
     1
 43
0.0
 10
496.4865632904024
 20
348.1098438865997
 10
495.3318627520232
 20
346.1098438865997
 10
496.4865632904024
 20
344.1098438865997
 10
498.795964367161
 20
344.1098438865997
 10
499.9506649055402
 20
346.1098438865997
 10
498.795964367161
 20
348.1098438865997
  0
SOLID
  5
3026
330
2
100
AcDbEntity
  8
BEM
100
AcDbTrace
 10
219.9507469456175
 20
361.2307084356765
 30
0.0
 11
225.9167435502077
 21
357.387793445057
 31
0.0
 12
221.5195840563365
 22
362.9579011187534
 32
0.0
 13
221.5195840563365
 23
362.9579011187534
 33
0.0
1001
ACAD
1000
DSTYLE
1002
{
1070
    40
1040
1.0
1002
}
  0
TEXT
  5
3027
330
2
100
AcDbEntity
  8
BEM
100
AcDbText
 10
253.1835510787296
 20
363.1390291987027
 30
0.0
 40
10.0
  1
R
100
AcDbText
  0
LINE
  5
3028
330
2
100
AcDbEntity
  8
BEM
100
AcDbLine
 10
454.2442079110688
 20
348.1098438865999
 30
0.0
 11
454.2442079110688
 21
393.3670447529717
 31
0.0
  0
DIMENSION
  5
3029
330
2
100
AcDbEntity
  8
BEM
100
AcDbDimension
  2
*D8
 10
428.0326646606537
 20
330.1098438865997
 30
0.0
 11
428.0326646606537
 21
340.1098438865998
 31
0.0
 70
   160
  1
%%c<>{}{\H0.71x;\C3; k6}
 71
     5
 42
20.0
  3
ISO-25
100
AcDbAlignedDimension
 13
456.2442079110686
 23
350.1098438865997
 33
0.0
 14
456.2442079110686
 24
330.1098438865997
 34
0.0
 50
90.0
100
AcDbRotatedDimension
1001
ACAD_DSTYLE_DIMINSPECT
1070
   396
1000
100%
1070
   395
1000

1070
   394
1070
    33
1070
   393
1070
     0
1001
GENIUS_GENDTOL_13
1000
FitSmTxt
1000
k6
1000
{\H0.71x;$2 $T}
1040
10.0
1001
ACAD
1000
DSTYLE
1002
{
1070
   286
1070
     0
1070
   284
1070
     0
1070
   274
1070
     2
1070
   272
1070
     4
1070
    48
1040
0.0
1070
    47
1040
0.0
1002
}
  0
DIMENSION
  5
302A
330
2
100
AcDbEntity
  8
BEM
100
AcDbDimension
  2
*D9
 10
397.9471892289015
 20
310.1098438865997
 30
0.0
 11
387.7638558955681
 21
340.1098438865998
 31
0.0
 70
    32
  1
%%c<>{}{\H0.71x;\C3; j6}
 71
     5
 42
60.0
  3
ISO-25
100
AcDbAlignedDimension
 13
507.2442079110686
 23
370.1098438865997
 33
0.0
 14
507.2442079110686
 24
310.1098438865997
 34
0.0
 50
90.0
100
AcDbRotatedDimension
1001
ACAD_DSTYLE_DIMINSPECT
1070
   396
1000
100%
1070
   395
1000

1070
   394
1070
    33
1070
   393
1070
     0
1001
GENIUS_GENDTOL_13
1000
FitSmTxt
1000
j6
1000
{\H0.71x;$2 $T}
1040
30.0
1001
ACAD
1000
DSTYLE
1002
{
1070
   286
1070
     0
1070
   284
1070
     0
1070
   274
1070
     2
1070
   272
1070
     4
1070
    48
1040
0.0
1070
    47
1040
0.0
1002
}
  0
LINE
  5
302D
330
2
100
AcDbEntity
  8
0
100
AcDbLine
 10
559.9238717555363
 20
345.1098438865997
 30
0.0
 11
559.9238717555363
 21
335.1098438865997
 31
0.0
  0
LINE
  5
302E
330
2
100
AcDbEntity
  8
0
100
AcDbLine
 10
536.9238717555362
 20
344.1098438865997
 30
0.0
 11
536.9238717555362
 21
336.1098438865997
 31
0.0
  0
LINE
  5
302F
330
2
100
AcDbEntity
  8
0
100
AcDbLine
 10
537.9238717555363
 20
345.1098438865997
 30
0.0
 11
537.9238717555363
 21
335.1098438865997
 31
0.0
  0
LINE
  5
3030
330
2
100
AcDbEntity
  8
0
100
AcDbLine
 10
565.9238717555362
 20
348.1098438865997
 30
0.0
 11
565.9238717555362
 21
332.1098438865997
 31
0.0
1001
ACAD
1000
ASC_BOUNDS
1002
{
1070
    19
1005
0
1005
0
1002
}
  0
LINE
  5
3031
330
2
100
AcDbEntity
  8
0
100
AcDbLine
 10
562.9238717555363
 20
354.9758692903842
 30
0.0
 11
562.9238717555363
 21
325.2438184828154
 31
0.0
1001
ACAD
1000
ASC_BOUNDS
1002
{
1070
    19
1005
0
1005
0
1002
}
  0
LINE
  5
3032
330
2
100
AcDbEntity
  8
0
100
AcDbLine
 10
563.4238717555363
 20
355.1098438865997
 30
0.0
 11
563.4238717555363
 21
325.1098438865997
 31
0.0
  0
LINE
  5
3033
330
2
100
AcDbEntity
  8
0
100
AcDbLine
 10
537.9238717555363
 20
335.1098438865997
 30
0.0
 11
559.9238717555363
 21
335.1098438865997
 31
0.0
  0
LINE
  5
3034
330
2
100
AcDbEntity
  8
0
100
AcDbLine
 10
537.9238717555363
 20
335.1098438865997
 30
0.0
 11
536.9238717555362
 21
336.1098438865997
 31
0.0
  0
ARC
  5
3035
330
2
100
AcDbEntity
  8
0
100
AcDbCircle
 10
565.7238717555363
 20
324.9098438865998
 30
0.0
 40
0.2
100
AcDbArc
 50
0.0
 51
90.0
1001
ACAD
1000
ASC_BOUNDS
1002
{
1070
    19
1005
0
1002
}
  0
LINE
  5
3036
330
2
100
AcDbEntity
  8
0
100
AcDbLine
 10
563.4238717555363
 20
325.1098438865997
 30
0.0
 11
562.9238717555363
 21
325.2438184828154
 31
0.0
1001
ACAD
1000
ASC_BOUNDS
1002
{
1070
    19
1005
0
1002
}
  0
LINE
  5
3037
330
2
100
AcDbEntity
  8
0
100
AcDbLine
 10
563.4238717555363
 20
325.1098438865997
 30
0.0
 11
565.7238717555363
 21
325.1098438865997
 31
0.0
1001
ACAD
1000
ASC_BOUNDS
1002
{
1070
    19
1005
0
1002
}
  0
LINE
  5
3038
330
2
100
AcDbEntity
  8
0
100
AcDbLine
 10
559.9238717555363
 20
335.1098438865997
 30
0.0
 11
562.9238717555363
 21
334.3059963093065
 31
0.0
  0
SOLID
  5
3039
330
2
100
AcDbEntity
  8
BEM
100
AcDbTrace
 10
476.2088961212011
 20
362.6477199390713
 30
0.0
 11
476.2442079110687
 21
352.5098438865998
 31
0.0
 12
472.9228450657979
 22
362.0882741665482
 32
0.0
 13
472.9228450657979
 23
362.0882741665482
 33
0.0
1001
ACAD
1000
DSTYLE
1002
{
1070
    40
1040
1.0
1070
   144
1040
1.0
1002
}
  0
LINE
  5
303A
330
2
100
AcDbEntity
  8
0
100
AcDbLine
 10
541.4046693503337
 20
346.3098438865998
 30
0.0
 11
554.4430741607389
 21
346.3098438865998
 31
0.0
  0
LINE
  5
303B
330
2
100
AcDbEntity
  8
0
100
AcDbLine
 10
537.9238717555363
 20
345.1098438865997
 30
0.0
 11
559.9238717555363
 21
345.1098438865997
 31
0.0
1001
ACAD
1000
ASC_BOUNDS
1002
{
1070
    19
1005
0
1002
}
  0
LINE
  5
303C
330
2
100
AcDbEntity
  8
0
100
AcDbLine
 10
537.9238717555363
 20
345.1098438865997
 30
0.0
 11
536.9238717555362
 21
344.1098438865998
 31
0.0
  0
ARC
  5
303D
330
2
100
AcDbEntity
  8
0
100
AcDbCircle
 10
547.9238717555363
 20
348.0598438865998
 30
0.0
 40
6.75
100
AcDbArc
 50
195.0261137591175
 51
205.9149847094513
  0
LINE
  5
303E
330
2
100
AcDbEntity
  8
MITTE
 48
5.0
100
AcDbLine
 10
547.9238717555363
 20
348.0598438865998
 30
0.0
 11
547.9238717555363
 21
342.1182042292467
 31
0.0
1001
ACAD
1000
ASC_BOUNDS
1002
{
1070
    19
1002
}
  0
ARC
  5
303F
330
2
100
AcDbEntity
  8
0
100
AcDbCircle
 10
547.9238717555363
 20
348.0598438865998
 30
0.0
 40
6.75
100
AcDbArc
 50
334.0850152905487
 51
344.9738862408825
  0
LINE
  5
3040
330
2
100
AcDbEntity
  8
0
100
AcDbLine
 10
559.9238717555363
 20
345.1098438865997
 30
0.0
 11
562.9238717555363
 21
345.9136914638932
 31
0.0
  0
ARC
  5
3041
330
2
100
AcDbEntity
  8
0
100
AcDbCircle
 10
565.7238717555363
 20
355.3098438865998
 30
0.0
 40
0.2
100
AcDbArc
 50
270.0
 51
0.0
1001
ACAD
1000
ASC_BOUNDS
1002
{
1070
    19
1005
0
1002
}
  0
LINE
  5
3042
330
2
100
AcDbEntity
  8
0
100
AcDbLine
 10
563.4238717555363
 20
355.1098438865997
 30
0.0
 11
562.9238717555363
 21
354.9758692903842
 31
0.0
1001
ACAD
1000
ASC_BOUNDS
1002
{
1070
    19
1005
0
1002
}
  0
LINE
  5
3043
330
2
100
AcDbEntity
  8
0
100
AcDbLine
 10
563.4238717555363
 20
355.1098438865997
 30
0.0
 11
565.7238717555363
 21
355.1098438865997
 31
0.0
1001
ACAD
1000
ASC_BOUNDS
1002
{
1070
    19
1005
0
1002
}
  0
LINE
  5
3044
330
2
100
AcDbEntity
  8
0
100
AcDbLine
 10
736.8452063880514
 20
331.8931084619397
 30
0.0
 11
747.2913848580998
 21
309.2021993710301
 31
0.0
  0
LINE
  5
3045
330
2
100
AcDbEntity
  8
0
100
AcDbLine
 10
771.3630135064724
 20
331.8931084619397
 30
0.0
 11
760.916835036424
 21
309.2021993710301
 31
0.0
  0
DIMENSION
  5
3046
330
2
100
AcDbEntity
  8
BEM
100
AcDbDimension
  2
*D10
 10
961.4701211184447
 20
288.3499776058256
 30
0.0
 11
923.7265209587246
 21
264.1098474021865
 31
0.0
 70
   163
 71
     5
 42
14.00000000000091
  3
ISO-25
100
AcDbDiametricDimension
 15
949.6902713870666
 25
280.7845866505493
 35
0.0
 40
0.0
1001
ACAD
1000
DSTYLE
1002
{
1070
    40
1040
1.0
1002
}
  0
DIMENSION
  5
3047
330
2
100
AcDbEntity
  8
BEM
100
AcDbDimension
  2
*D11
 10
1030.517153349834
 20
284.5672821281874
 30
0.0
 11
1030.517153349834
 21
339.5672821281873
 31
0.0
 70
   160
  1
<>{}{\H0.71x;\C3;%%p0.2}
 71
     5
 42
110.0
  3
ISO-25
100
AcDbAlignedDimension
 13
964.8568981883336
 23
394.5672821281874
 33
0.0
 14
964.5751520532202
 24
284.5672821281874
 34
0.0
 50
90.0
100
AcDbRotatedDimension
1001
ACAD_DSTYLE_DIMINSPECT
1070
   396
1000
100%
1070
   395
1000

1070
   394
1070
    33
1070
   393
1070
     0
1001
GENIUS_GENDTOL_13
1000
TolSmPm
1000

1000
{\H0.71x;$2%%p$P}
1040
55.0
1001
ACAD
1000
DSTYLE
1002
{
1070
   286
1070
     0
1070
   284
1070
     0
1070
   274
1070
     2
1070
    47
1040
0.2
1070
    48
1040
0.2
1070
   272
1070
     1
1002
}
  0
LINE
  5
3048
330
2
100
AcDbEntity
  8
MITTE
 48
5.0
100
AcDbLine
 10
754.1041099472619
 20
377.6370659031952
 30
0.0
 11
754.1041099472619
 21
302.5826218700043
 31
0.0
  0
DIMENSION
  5
3049
330
2
100
AcDbEntity
  8
BEM
100
AcDbDimension
  2
*D12
 10
1061.780278895144
 20
269.5672821281874
 30
0.0
 11
1061.780278895144
 21
339.5672821281873
 31
0.0
 70
   160
  1
(<>)
 71
     5
 42
140.0
  3
ISO-25
100
AcDbAlignedDimension
 13
955.5801962527553
 23
409.5672821281873
 33
0.0
 14
955.5801962527553
 24
269.5672821281874
 34
0.0
 50
90.0
100
AcDbRotatedDimension
1001
ACAD
1000
DSTYLE
1002
{
1070
    40
1040
1.0
1002
}
1001
ACAD_DSTYLE_DIMINSPECT
1070
   396
1000
100%
1070
   395
1000

1070
   394
1070
    33
1070
   393
1070
     0
  0
LINE
  5
304A
330
2
100
AcDbEntity
  8
0
100
AcDbLine
 10
575.9238717555363
 20
375.1098438865997
 30
0.0
 11
575.9238717555363
 21
305.1098438865997
 31
0.0
1001
ACAD
1000
ASC_BOUNDS
1002
{
1070
    19
1005
0
1005
0
1002
}
  0
LINE
  5
304B
330
2
100
AcDbEntity
  8
MITTE
 48
5.0
100
AcDbLine
 10
750.1237904412165
 20
312.3385630073935
 30
0.0
 11
758.6015878474946
 21
312.3385630073935
 31
0.0
  0
CIRCLE
  5
304C
330
2
100
AcDbEntity
  8
0
100
AcDbCircle
 10
754.1041099472619
 20
312.3385630073935
 30
0.0
 40
3.5
  0
ARC
  5
304D
330
2
100
AcDbEntity
  8
0
100
AcDbCircle
 10
754.1041099472619
 20
312.3385630073935
 30
0.0
 40
7.5
100
AcDbArc
 50
204.7198511829002
 51
335.2801488170999
  0
DIMENSION
  5
304F
330
2
100
AcDbEntity
  8
BEM
100
AcDbDimension
  2
*D13
 10
851.641261695347
 20
302.1098438865999
 30
0.0
 11
842.641261695347
 21
340.1098438866001
 31
0.0
 70
    32
  1
%%c<>{}{\H0.71x;\C3;-0.1}
 71
     5
 42
76.0
  3
ISO-25
100
AcDbAlignedDimension
 13
810.0442079110688
 23
378.1098438866
 33
0.0
 14
810.0442079110688
 24
302.1098438865999
 34
0.0
 50
90.0
100
AcDbRotatedDimension
1001
ACAD_DSTYLE_DIMINSPECT
1070
   396
1000
100%
1070
   395
1000

1070
   394
1070
    33
1070
   393
1070
     0
1001
GENIUS_GENDTOL_13
1000
TolSmPm
1000

1000
{\H0.71x;$2$+$P}
1040
38.0
1001
ACAD
1000
DSTYLE
1002
{
1070
   286
1070
     0
1070
   284
1070
     0
1070
   274
1070
     2
1070
    47
1040
0.0
1070
    48
1040
0.1
1070
   272
1070
     1
1002
}
  0
LINE
  5
3050
330
2
100
AcDbEntity
  8
0
100
AcDbLine
 10
587.5865308665416
 20
359.1098438865998
 30
0.0
 11
681.6865308665414
 21
359.1098438865997
 31
0.0
1001
ACAD
1000
ASC_BOUNDS
1002
{
1070
    19
1002
}
  0
LINE
  5
3051
330
2
100
AcDbEntity
  8
0
100
AcDbLine
 10
587.5865308665413
 20
321.1098438865998
 30
0.0
 11
681.6865308665407
 21
321.1098438865998
 31
0.0
1001
ACAD
1000
ASC_BOUNDS
1002
{
1070
    19
1002
}
  0
LINE
  5
3052
330
2
100
AcDbEntity
  8
LINIE
  6
Continuous
100
AcDbLine
 10
578.4238717555362
 20
357.2163552373863
 30
0.0
 11
578.4238717555362
 21
322.3679655145602
 31
0.0
  0
LINE
  5
3053
330
2
100
AcDbEntity
  8
0
100
AcDbLine
 10
587.5865308665416
 20
359.1098438865998
 30
0.0
 11
587.5865308665413
 21
321.1098438865998
 31
0.0
  0
LINE
  5
3054
330
2
100
AcDbEntity
  8
0
100
AcDbLine
 10
586.9238717555362
 20
359.1098438865997
 30
0.0
 11
586.9238717555362
 21
321.1098438865997
 31
0.0
1001
ACAD
1000
ASC_BOUNDS
1002
{
1070
    19
1005
0
1005
0
1002
}
  0
ARC
  5
3055
330
2
100
AcDbEntity
  8
0
100
AcDbCircle
 10
578.4238717555362
 20
318.6098438865997
 30
0.0
 40
2.5
100
AcDbArc
 50
90.0
 51
180.0
1001
ACAD
1000
ASC_BOUNDS
1002
{
1070
    19
1005
0
1002
}
  0
LINE
  5
3056
330
2
100
AcDbEntity
  8
0
100
AcDbLine
 10
578.4238717555362
 20
321.1098438865997
 30
0.0
 11
586.9238717555362
 21
321.1098438865997
 31
0.0
1001
ACAD
1000
ASC_BOUNDS
1002
{
1070
    19
1005
0
1002
}
  0
LINE
  5
3057
330
2
100
AcDbEntity
  8
0
100
AcDbLine
 10
586.9238717555362
 20
324.3518438866
 30
0.0
 11
587.5865308665413
 21
324.3518438865999
 31
0.0
  0
ARC
  5
3058
330
2
100
AcDbEntity
  8
0
100
AcDbCircle
 10
578.4238717555362
 20
361.6098438865997
 30
0.0
 40
2.5
100
AcDbArc
 50
180.0
 51
270.0
1001
ACAD
1000
ASC_BOUNDS
1002
{
1070
    19
1005
0
1002
}
  0
LINE
  5
3059
330
2
100
AcDbEntity
  8
0
100
AcDbLine
 10
578.4238717555362
 20
359.1098438865997
 30
0.0
 11
586.9238717555362
 21
359.1098438865997
 31
0.0
1001
ACAD
1000
ASC_BOUNDS
1002
{
1070
    19
1005
0
1002
}
  0
LINE
  5
305A
330
2
100
AcDbEntity
  8
0
100
AcDbLine
 10
586.9238717555362
 20
355.8678438865996
 30
0.0
 11
587.5865308665416
 21
355.8678438865995
 31
0.0
  0
LINE
  5
305B
330
2
100
AcDbEntity
  8
0
 48
10.0
100
AcDbLine
 10
682.8238717555364
 20
359.1098438865998
 30
0.0
 11
714.8238717555364
 21
359.1098438865998
 31
0.0
  0
LINE
  5
305D
330
2
100
AcDbEntity
  8
0
 48
10.0
100
AcDbLine
 10
682.8238717555364
 20
321.1098438865998
 30
0.0
 11
714.8238717555364
 21
321.1098438865998
 31
0.0
  0
LINE
  5
305E
330
2
100
AcDbEntity
  8
0
100
AcDbLine
 10
714.8238717555364
 20
359.1098438865997
 30
0.0
 11
682.8238717555364
 21
359.1098438865997
 31
0.0
  0
LINE
  5
305F
330
2
100
AcDbEntity
  8
0
100
AcDbLine
 10
714.8238717555364
 20
321.1098438865997
 30
0.0
 11
682.8238717555364
 21
321.1098438865997
 31
0.0
  0
LINE
  5
3060
330
2
100
AcDbEntity
  8
0
 48
10.0
100
AcDbLine
 10
682.8238717555364
 20
359.1098438865997
 30
0.0
 11
682.8238717555364
 21
321.1098438865997
 31
0.0
1001
ACAD
1000
ASC_BOUNDS
1002
{
1070
    19
1002
}
  0
LINE
  5
3061
330
2
100
AcDbEntity
  8
0
100
AcDbLine
 10
681.6865308665414
 20
359.1098438865997
 30
0.0
 11
681.6865308665407
 21
321.1098438865997
 31
0.0
  0
LINE
  5
3062
330
2
100
AcDbEntity
  8
0
 48
10.0
100
AcDbLine
 10
682.8238717555364
 20
323.7598438865998
 30
0.0
 11
682.8238717555364
 21
321.1098438865997
 31
0.0
1001
ACAD
1000
ASC_BOUNDS
1002
{
1070
    19
1002
}
  0
LINE
  5
3063
330
2
100
AcDbEntity
  8
0
 48
10.0
100
AcDbLine
 10
682.8238717555364
 20
323.7598438865998
 30
0.0
 11
682.8238717555364
 21
321.1098438865997
 31
0.0
1001
ACAD
1000
ASC_BOUNDS
1002
{
1070
    19
1002
}
  0
LINE
  5
3064
330
2
100
AcDbEntity
  8
0
100
AcDbLine
 10
682.8238717555364
 20
324.3518438865998
 30
0.0
 11
681.6865308665413
 21
324.3518438865998
 31
0.0
  0
LINE
  5
3065
330
2
100
AcDbEntity
  8
0
 48
10.0
100
AcDbLine
 10
682.8238717555364
 20
356.4598438865997
 30
0.0
 11
682.8238717555364
 21
356.4598438865997
 31
0.0
  0
LINE
  5
3066
330
2
100
AcDbEntity
  8
0
100
AcDbLine
 10
682.8238717555364
 20
355.8678438865998
 30
0.0
 11
681.6865308665413
 21
355.8678438865998
 31
0.0
  0
LINE
  5
3067
330
2
100
AcDbEntity
  8
0
 48
10.0
100
AcDbLine
 10
714.8238717555364
 20
359.1098438865997
 30
0.0
 11
714.8238717555364
 21
321.1098438865997
 31
0.0
1001
ACAD
1000
ASC_BOUNDS
1002
{
1070
    19
1002
}
  0
CIRCLE
  5
3069
330
2
100
AcDbEntity
  8
0
100
AcDbCircle
 10
754.1041099472619
 20
367.3385630073935
 30
0.0
 40
3.5
  0
LINE
  5
306A
330
2
100
AcDbEntity
  8
0
100
AcDbLine
 10
736.8452063880514
 20
347.7840175528474
 30
0.0
 11
747.2913848581001
 21
370.4749266437569
 31
0.0
  0
LINE
  5
306B
330
2
100
AcDbEntity
  8
0
100
AcDbLine
 10
771.3630135064724
 20
347.7840175528474
 30
0.0
 11
760.916835036424
 21
370.4749266437569
 31
0.0
  0
LINE
  5
306C
330
2
100
AcDbEntity
  8
MITTE
 48
5.0
100
AcDbLine
 10
733.2700228634013
 20
339.8385630073935
 30
0.0
 11
774.3058202699333
 21
339.8385630073935
 31
0.0
  0
CIRCLE
  5
306D
330
2
100
AcDbEntity
  8
0
100
AcDbCircle
 10
754.1041099472619
 20
339.8385630073935
 30
0.0
 40
15.0
  0
DIMENSION
  5
306E
330
2
100
AcDbEntity
  8
BEM
100
AcDbDimension
  2
*D14
 10
990.0980033711762
 20
355.4581912190953
 30
0.0
 11
889.48553224796
 21
319.0473141399465
 31
0.0
 70
    35
 71
     5
 42
76.00000000000079
  3
ISO-25
100
AcDbDiametricDimension
 15
921.0623891343336
 25
323.6763730372798
 35
0.0
 40
0.0
1001
ACAD
1000
DSTYLE
1002
{
1070
   279
1070
     1
1002
}
  0
ARC
  5
306F
330
2
100
AcDbEntity
  8
0
100
AcDbCircle
 10
754.1041099472619
 20
339.8385630073935
 30
0.0
 40
19.0
100
AcDbArc
 50
155.2801488170882
 51
204.7198511829118
  0
ARC
  5
3070
330
2
100
AcDbEntity
  8
0
100
AcDbCircle
 10
754.1041099472619
 20
339.8385630073935
 30
0.0
 40
19.0
100
AcDbArc
 50
335.2801488170883
 51
24.71985118291177
  0
CIRCLE
  5
3071
330
2
100
AcDbEntity
  8
0
100
AcDbCircle
 10
754.1041099472619
 20
339.8385630073935
 30
0.0
 40
5.0
  0
CIRCLE
  5
3072
330
2
100
AcDbEntity
  8
0
100
AcDbCircle
 10
754.1041099472619
 20
339.8385630073935
 30
0.0
 40
4.0
  0
ARC
  5
3073
330
2
100
AcDbEntity
  8
0
100
AcDbCircle
 10
754.1041099472619
 20
339.8385630073935
 30
0.0
 40
6.25
100
AcDbArc
 50
103.8865403626292
 51
76.11345963737078
  0
LINE
  5
3074
330
2
100
AcDbEntity
  8
0
100
AcDbLine
 10
752.6041099472621
 20
346.0385630073935
 30
0.0
 11
755.6041099472619
 21
346.0385630073935
 31
0.0
  0
LINE
  5
3075
330
2
100
AcDbEntity
  8
0
100
AcDbLine
 10
755.6041099472619
 20
346.0385630073935
 30
0.0
 11
755.6041099472619
 21
344.6082590144782
 31
0.0
  0
LINE
  5
3076
330
2
100
AcDbEntity
  8
0
100
AcDbLine
 10
752.6041099472621
 20
346.0385630073935
 30
0.0
 11
752.6041099472621
 21
344.6082590144782
 31
0.0
  0
DIMENSION
  5
3077
330
2
100
AcDbEntity
  8
BEM
100
AcDbDimension
  2
*D15
 10
955.580196252756
 20
394.5672821281882
 30
0.0
 11
922.7552719343439
 21
429.9146748989442
 31
0.0
 70
   164
 71
     5
 42
15.00000000000017
  3
ISO-25
100
AcDbRadialDimension
 15
945.3730381478202
 25
405.5588208476237
 35
0.0
 40
0.0
1001
ACAD
1000
DSTYLE
1002
{
1070
    40
1040
1.0
1002
}
  0
LINE
  5
3078
330
2
100
AcDbEntity
  8
MITTE
 48
5.0
100
AcDbLine
 10
750.1237904412165
 20
367.3385630073935
 30
0.0
 11
758.742460915051
 21
367.3385630073935
 31
0.0
  0
ARC
  5
3079
330
2
100
AcDbEntity
  8
0
100
AcDbCircle
 10
754.1041099472619
 20
367.3385630073935
 30
0.0
 40
7.5
100
AcDbArc
 50
24.71985118290585
 51
155.2801488170941
  0
DIMENSION
  5
31D8
102
{ACAD_XDICTIONARY
360
52F8
102
}
102
{ACAD_REACTORS
330
52F9
102
}
330
2
100
AcDbEntity
  8
BEM
100
AcDbDimension
  2
*D16
 10
227.0213004226917
 20
237.1420398489208
 30
0.0
 11
213.8643004226918
 21
237.1420398489208
 31
0.0
 70
   160
  1
G1/4"
 71
     5
 42
26.31399999999985
  3
ISO-25
100
AcDbAlignedDimension
 13
200.7073004226919
 23
320.1098438865997
 33
0.0
 14
227.0213004226917
 24
320.1098438865997
 34
0.0
100
AcDbRotatedDimension
  0
LINE
  5
52C6
330
2
100
AcDbEntity
  8
0
100
AcDbLine
 10
523.9001673879924
 20
348.0552984320535
 30
0.0
 11
513.4539889179438
 21
370.7462075229631
 31
0.0
  0
CIRCLE
  5
52C7
330
2
100
AcDbEntity
  8
0
100
AcDbCircle
 10
506.6412638287817
 20
367.6098438865997
 30
0.0
 40
3.5
  0
ARC
  5
52C8
330
2
100
AcDbEntity
  8
0
100
AcDbCircle
 10
506.6412638287817
 20
367.6098438865997
 30
0.0
 40
7.5
100
AcDbArc
 50
24.71985118290585
 51
155.2801488170941
  0
LINE
  5
52C9
330
2
100
AcDbEntity
  8
0
100
AcDbLine
 10
523.9001673879924
 20
332.1643893411459
 30
0.0
 11
513.4539889179438
 21
309.4734802502363
 31
0.0
  0
CIRCLE
  5
52CA
330
2
100
AcDbEntity
  8
0
100
AcDbCircle
 10
506.6412638287817
 20
312.6098438865997
 30
0.0
 40
3.5
  0
ARC
  5
52CB
330
2
100
AcDbEntity
  8
0
100
AcDbCircle
 10
506.6412638287817
 20
312.6098438865997
 30
0.0
 40
7.5
100
AcDbArc
 50
204.7198511829002
 51
335.2801488170999
  0
LINE
  5
52CC
330
2
100
AcDbEntity
  8
0
100
AcDbLine
 10
489.3823602695713
 20
332.1643893411459
 30
0.0
 11
499.8285387396196
 21
309.4734802502363
 31
0.0
  0
ARC
  5
52CD
330
2
100
AcDbEntity
  8
0
100
AcDbCircle
 10
506.6412638287817
 20
340.1098438865997
 30
0.0
 40
19.0
100
AcDbArc
 50
155.2801488170882
 51
204.7198511829118
  0
LINE
  5
52CE
330
2
100
AcDbEntity
  8
0
100
AcDbLine
 10
489.3823602695713
 20
348.0552984320535
 30
0.0
 11
499.8285387396199
 21
370.7462075229631
 31
0.0
  0
ARC
  5
52CF
330
2
100
AcDbEntity
  8
0
100
AcDbCircle
 10
506.6412638287817
 20
340.1098438865997
 30
0.0
 40
19.0
100
AcDbArc
 50
335.2801488170883
 51
24.71985118291177
  0
LINE
  5
532D
330
2
100
AcDbEntity
  8
MITTE
 48
5.0
100
AcDbLine
 10
512.2616933522282
 20
367.6098438865997
 30
0.0
 11
501.1340499181487
 21
367.6098438865997
 31
0.0
  0
LINE
  5
532E
330
2
100
AcDbEntity
  8
MITTE
 48
5.0
100
AcDbLine
 10
512.0904983366647
 20
312.6098438865997
 30
0.0
 11
500.7916609050701
 21
312.6098438865997
 31
0.0
  0
INSERT
  5
5AE4
330
2
100
AcDbEntity
  8
0
 48
10.0
100
AcDbBlockReference
  2
A$C5AB5744B
 10
92.22339316243234
 20
436.2156322901155
 30
0.0
  0
ENDSEC
  0
SECTION
  2
OBJECTS
  0
DICTIONARY
  5
1A
330
0
100
AcDbDictionary
281
     1
  3
ACAD_COLOR
350
5BEE
  3
ACAD_GROUP
350
18
  3
ACAD_LAYOUT
350
6C2
  3
ACAD_MATERIAL
350
5BED
  3
ACAD_MLEADERSTYLE
350
5D09
  3
ACAD_MLINESTYLE
350
19
  3
ACAD_PLOTSETTINGS
350
6C3
  3
ACAD_PLOTSTYLENAME
350
6C0
  3
ACAD_SCALELIST
350
5CE7
  3
ACAD_TABLESTYLE
350
5CE5
  3
ACAD_VISUALSTYLE
350
5CD4
  3
ACDB_RECOMPOSE_DATA
350
6091
  3
ACDBVARIABLEDICTIONARY
350
25F
  3
ACMDICTIONARY
350
265
  3
AMG
350
6CC
  3
AMGSNAPSETTINGS
350
72B
  3
ASE_INDEX_DICTIONARY
350
5D66
  0
DICTIONARY
  5
5D5D
330
4
100
AcDbDictionary
280
     1
281
     1
  3
ADSK_XREC_LAYER_RECONCILED
360
5D5E
  0
DICTIONARY
  5
5D5F
330
27
100
AcDbDictionary
280
     1
281
     1
  3
ADSK_XREC_LAYER_RECONCILED
360
5D60
  0
DICTIONARY
  5
5D61
330
1F
100
AcDbDictionary
280
     1
281
     1
  3
ADSK_XREC_LAYER_RECONCILED
360
5D62
  0
DICTIONARY
  5
5D63
330
79
100
AcDbDictionary
280
     1
281
     1
  3
ADSK_XREC_LAYER_RECONCILED
360
5D64
  0
DICTIONARY
  5
28B
330
2
100
AcDbDictionary
280
     1
281
     1
  0
DICTIONARY
  5
6096
330
6009
100
AcDbDictionary
280
     1
281
     1
  3
ACAD_MTEXT_2008_RT
360
6097
  0
DICTIONARY
  5
6098
330
6029
100
AcDbDictionary
280
     1
281
     1
  3
ACAD_MTEXT_2008_RT
360
6099
  0
DICTIONARY
  5
52F8
330
31D8
100
AcDbDictionary
280
     1
281
     1
  3
ACMDIMBREAKPERSREACTOR
360
52F9
  0
DICTIONARY
  5
5BEE
102
{ACAD_REACTORS
330
1A
102
}
330
1A
100
AcDbDictionary
281
     1
  0
DICTIONARY
  5
18
102
{ACAD_REACTORS
330
1A
102
}
330
1A
100
AcDbDictionary
281
     1
  0
DICTIONARY
  5
6C2
102
{ACAD_REACTORS
330
1A
102
}
330
1A
100
AcDbDictionary
281
     1
  3
Layout1
350
6C5
  3
Model
350
6C4
  0
DICTIONARY
  5
5BED
102
{ACAD_REACTORS
330
1A
102
}
330
1A
100
AcDbDictionary
281
     1
  3
ByBlock
350
5CC4
  3
ByLayer
350
5CBC
  3
Global
350
5CCC
  0
DICTIONARY
  5
5D09
102
{ACAD_REACTORS
330
1A
102
}
330
1A
100
AcDbDictionary
281
     1
  3
Standard
350
5D0A
  0
DICTIONARY
  5
19
102
{ACAD_REACTORS
330
1A
102
}
330
1A
100
AcDbDictionary
281
     1
  3
STANDARD
350
1B
  0
DICTIONARY
  5
6C3
102
{ACAD_REACTORS
330
1A
102
}
330
1A
100
AcDbDictionary
281
     1
  0
ACDBDICTIONARYWDFLT
  5
6C0
102
{ACAD_REACTORS
330
1A
102
}
330
1A
100
AcDbDictionary
281
     1
  3
Normal
350
6C1
100
AcDbDictionaryWithDefault
340
6C1
  0
DICTIONARY
  5
5CE7
102
{ACAD_REACTORS
330
1A
102
}
330
1A
100
AcDbDictionary
281
     1
  3
A0
350
5CE8
  3
A1
350
5CE9
  3
A2
350
5CEA
  3
A3
350
5CEB
  3
A4
350
5CEC
  3
A5
350
5CED
  3
A6
350
5CEE
  3
A7
350
5CEF
  3
A8
350
5CF0
  3
A9
350
5CF1
  3
B0
350
5CF2
  3
B1
350
5CF3
  3
B2
350
5CF4
  3
B3
350
5CF5
  3
B4
350
5CF6
  3
B5
350
5CF7
  3
B6
350
5CF8
  3
B7
350
5CF9
  3
B8
350
5CFA
  3
B9
350
5CFB
  3
C0
350
5CFC
  3
C1
350
5CFD
  3
C2
350
5CFE
  3
C3
350
5CFF
  3
C4
350
5D00
  3
C5
350
5D01
  3
C6
350
5D02
  3
C7
350
5D03
  3
C8
350
5D04
  3
C9
350
5D05
  3
D0
350
5D06
  3
D1
350
5D07
  3
D2
350
5D08
  0
DICTIONARY
  5
5CE5
102
{ACAD_REACTORS
330
1A
102
}
330
1A
100
AcDbDictionary
281
     1
  3
Standard
350
5CE6
  0
DICTIONARY
  5
5CD4
102
{ACAD_REACTORS
330
1A
102
}
330
1A
100
AcDbDictionary
281
     1
  3
2dWireframe
350
5CDA
  3
3D Hidden
350
5CDC
  3
3dWireframe
350
5CDB
  3
Basic
350
5CD9
  3
Brighten
350
5CE0
  3
ColorChange
350
5CE4
  3
Conceptual
350
5CDD
  3
Dim
350
5CDF
  3
Facepattern
350
5CE3
  3
Flat
350
5CD5
  3
FlatWithEdges
350
5CD6
  3
Gouraud
350
5CD7
  3
GouraudWithEdges
350
5CD8
  3
Linepattern
350
5CE2
  3
Realistic
350
5CDE
  3
Thicken
350
5CE1
  0
XRECORD
  5
6091
102
{ACAD_REACTORS
330
1A
102
}
330
1A
100
AcDbXrecord
280
     1
 90
        1
330
5CE6
  0
DICTIONARY
  5
25F
102
{ACAD_REACTORS
330
1A
102
}
330
1A
100
AcDbDictionary
281
     1
  3
CANNOSCALE
350
608E
  3
CMLEADERSTYLE
350
608D
  3
CTABLESTYLE
350
608C
  3
INDEXCTL
350
260
  3
SORTENTS
350
4D0
  0
DICTIONARY
  5
265
102
{ACAD_REACTORS
330
1A
102
}
330
1A
100
AcDbDictionary
281
     1
  3
ACMSTDDICTIONARY
350
266
  3
AMDTSECTSYM_ARROWCOLOR
350
5D30
  0
DICTIONARY
  5
6CC
102
{ACAD_REACTORS
330
1A
102
}
330
1A
100
AcDbDictionary
281
     1
  0
DICTIONARY
  5
72B
102
{ACAD_REACTORS
330
1A
102
}
330
1A
100
AcDbDictionary
281
     1
  0
DICTIONARY
  5
5D66
102
{ACAD_REACTORS
330
1A
102
}
330
1A
100
AcDbDictionary
281
     1
  3
ASEBlockHierarchyIndexRecord
350
5D68
1001
DCO15
1040
1745037576.231
  0
XRECORD
  5
5D5E
102
{ACAD_REACTORS
330
5D5D
102
}
330
5D5D
100
AcDbXrecord
280
     1
290
     1
  0
XRECORD
  5
5D60
102
{ACAD_REACTORS
330
5D5F
102
}
330
5D5F
100
AcDbXrecord
280
     1
290
     1
  0
XRECORD
  5
5D62
102
{ACAD_REACTORS
330
5D61
102
}
330
5D61
100
AcDbXrecord
280
     1
290
     1
  0
XRECORD
  5
5D64
102
{ACAD_REACTORS
330
5D63
102
}
330
5D63
100
AcDbXrecord
280
     1
290
     1
  0
XRECORD
  5
6097
102
{ACAD_REACTORS
330
6096
102
}
330
6096
100
AcDbXrecord
280
     1
 40
5053.0
  1
\A1;\U+220514
  0
XRECORD
  5
6099
102
{ACAD_REACTORS
330
6098
102
}
330
6098
100
AcDbXrecord
280
     1
 40
5151.0
  1
\A1;\U+220576
  0
LAYOUT
  5
6C5
102
{ACAD_REACTORS
330
6C2
102
}
330
6C2
100
AcDbPlotSettings
  1

  2
Kein
  4

  6

 40
0.0
 41
0.0
 42
0.0
 43
0.0
 44
0.0
 45
0.0
 46
0.0
 47
0.0
 48
0.0
 49
0.0
140
0.0
141
0.0
142
1.0
143
1.0
 70
   688
 72
     0
 73
     0
 74
     5
  7
Zeich.ctb
 75
    16
147
1.0
 76
     0
 77
     2
 78
   300
148
0.0
149
0.0
100
AcDbLayout
  1
Layout1
 70
     0
 71
     1
 10
0.0
 20
0.0
 11
420.0
 21
297.0
 12
0.0
 22
0.0
 32
0.0
 14
1.000000000000000E+20
 24
1.000000000000000E+20
 34
1.000000000000000E+20
 15
-1.000000000000000E+20
 25
-1.000000000000000E+20
 35
-1.000000000000000E+20
146
0.0
 13
0.0
 23
0.0
 33
0.0
 16
1.0
 26
0.0
 36
0.0
 17
0.0
 27
1.0
 37
0.0
 76
     0
330
7
  0
LAYOUT
  5
6C4
102
{ACAD_REACTORS
330
6C2
102
}
330
6C2
100
AcDbPlotSettings
  1

  2
\\CAD-NT-02\HP LaserJet 6P/6MP - Standard
  4
A4
  6

 40
6.011333465576171
 41
4.233341693878173
 42
6.011322021484375
 43
4.23333740234375
 44
209.9733276367187
 45
296.9259948730469
 46
0.0
 47
0.0
 48
0.0
 49
0.0
140
0.0
141
0.0
142
1.0
143
6.39086328780047
 70
 28336
 72
     1
 73
     0
 74
     1
  7
Zeich.ctb
 75
     0
147
0.1564733831670131
 76
     0
 77
     2
 78
   300
148
-27.19421715847466
149
40.59366774606769
100
AcDbLayout
  1
Model
 70
     1
 71
     0
 10
0.0
 20
0.0
 11
12.0
 21
9.0
 12
0.0
 22
0.0
 32
0.0
 14
0.0
 24
0.0
 34
0.0
 15
0.0
 25
0.0
 35
0.0
146
0.0
 13
0.0
 23
0.0
 33
0.0
 16
1.0
 26
0.0
 36
0.0
 17
0.0
 27
1.0
 37
0.0
 76
     0
330
2
331
5CBA
  0
MATERIAL
  5
5CC4
102
{ACAD_XDICTIONARY
360
5CC5
102
}
102
{ACAD_REACTORS
330
5BED
102
}
330
5BED
100
AcDbMaterial
  1
ByBlock
 72
     0
 43
0.0208333333333333
 43
0.0
 43
0.0
 43
0.0
 43
0.0
 43
0.0208333333333333
 43
0.0
 43
0.0
 43
0.0
 43
0.0
 43
1.0
 43
0.0
 43
0.0
 43
0.0
 43
0.0
 43
1.0
 77
     0
 47
0.0208333333333333
 47
0.0
 47
0.0
 47
0.0
 47
0.0
 47
0.0208333333333333
 47
0.0
 47
0.0
 47
0.0
 47
0.0
 47
1.0
 47
0.0
 47
0.0
 47
0.0
 47
0.0
 47
1.0
171
     0
 49
0.0208333333333333
 49
0.0
 49
0.0
 49
0.0
 49
0.0
 49
0.0208333333333333
 49
0.0
 49
0.0
 49
0.0
 49
0.0
 49
1.0
 49
0.0
 49
0.0
 49
0.0
 49
0.0
 49
1.0
175
     0
142
0.0208333333333333
142
0.0
142
0.0
142
0.0
142
0.0
142
0.0208333333333333
142
0.0
142
0.0
142
0.0
142
0.0
142
1.0
142
0.0
142
0.0
142
0.0
142
0.0
142
1.0
179
     0
144
0.0208333333333333
144
0.0
144
0.0
144
0.0
144
0.0
144
0.0208333333333333
144
0.0
144
0.0
144
0.0
144
0.0
144
1.0
144
0.0
144
0.0
144
0.0
144
0.0
144
1.0
147
0.0208333333333333
147
0.0
147
0.0
147
0.0
147
0.0
147
0.0208333333333333
147
0.0
147
0.0
147
0.0
147
0.0
147
1.0
147
0.0
147
0.0
147
0.0
147
0.0
147
1.0
  0
MATERIAL
  5
5CBC
102
{ACAD_XDICTIONARY
360
5CBD
102
}
102
{ACAD_REACTORS
330
5BED
102
}
330
5BED
100
AcDbMaterial
  1
ByLayer
 72
     0
 43
0.0208333333333333
 43
0.0
 43
0.0
 43
0.0
 43
0.0
 43
0.0208333333333333
 43
0.0
 43
0.0
 43
0.0
 43
0.0
 43
1.0
 43
0.0
 43
0.0
 43
0.0
 43
0.0
 43
1.0
 77
     0
 47
0.0208333333333333
 47
0.0
 47
0.0
 47
0.0
 47
0.0
 47
0.0208333333333333
 47
0.0
 47
0.0
 47
0.0
 47
0.0
 47
1.0
 47
0.0
 47
0.0
 47
0.0
 47
0.0
 47
1.0
171
     0
 49
0.0208333333333333
 49
0.0
 49
0.0
 49
0.0
 49
0.0
 49
0.0208333333333333
 49
0.0
 49
0.0
 49
0.0
 49
0.0
 49
1.0
 49
0.0
 49
0.0
 49
0.0
 49
0.0
 49
1.0
175
     0
142
0.0208333333333333
142
0.0
142
0.0
142
0.0
142
0.0
142
0.0208333333333333
142
0.0
142
0.0
142
0.0
142
0.0
142
1.0
142
0.0
142
0.0
142
0.0
142
0.0
142
1.0
179
     0
144
0.0208333333333333
144
0.0
144
0.0
144
0.0
144
0.0
144
0.0208333333333333
144
0.0
144
0.0
144
0.0
144
0.0
144
1.0
144
0.0
144
0.0
144
0.0
144
0.0
144
1.0
147
0.0208333333333333
147
0.0
147
0.0
147
0.0
147
0.0
147
0.0208333333333333
147
0.0
147
0.0
147
0.0
147
0.0
147
1.0
147
0.0
147
0.0
147
0.0
147
0.0
147
1.0
  0
MATERIAL
  5
5CCC
102
{ACAD_XDICTIONARY
360
5CCD
102
}
102
{ACAD_REACTORS
330
5BED
102
}
330
5BED
100
AcDbMaterial
  1
Global
 72
     0
 43
0.0208333333333333
 43
0.0
 43
0.0
 43
0.0
 43
0.0
 43
0.0208333333333333
 43
0.0
 43
0.0
 43
0.0
 43
0.0
 43
1.0
 43
0.0
 43
0.0
 43
0.0
 43
0.0
 43
1.0
 77
     0
 47
0.0208333333333333
 47
0.0
 47
0.0
 47
0.0
 47
0.0
 47
0.0208333333333333
 47
0.0
 47
0.0
 47
0.0
 47
0.0
 47
1.0
 47
0.0
 47
0.0
 47
0.0
 47
0.0
 47
1.0
171
     0
 49
0.0208333333333333
 49
0.0
 49
0.0
 49
0.0
 49
0.0
 49
0.0208333333333333
 49
0.0
 49
0.0
 49
0.0
 49
0.0
 49
1.0
 49
0.0
 49
0.0
 49
0.0
 49
0.0
 49
1.0
175
     0
142
0.0208333333333333
142
0.0
142
0.0
142
0.0
142
0.0
142
0.0208333333333333
142
0.0
142
0.0
142
0.0
142
0.0
142
1.0
142
0.0
142
0.0
142
0.0
142
0.0
142
1.0
179
     0
144
0.0208333333333333
144
0.0
144
0.0
144
0.0
144
0.0
144
0.0208333333333333
144
0.0
144
0.0
144
0.0
144
0.0
144
1.0
144
0.0
144
0.0
144
0.0
144
0.0
144
1.0
147
0.0208333333333333
147
0.0
147
0.0
147
0.0
147
0.0
147
0.0208333333333333
147
0.0
147
0.0
147
0.0
147
0.0
147
1.0
147
0.0
147
0.0
147
0.0
147
0.0
147
1.0
  0
MLEADERSTYLE
  5
5D0A
102
{ACAD_REACTORS
330
5D09
102
}
330
5D09
100
AcDbMLeaderStyle
170
     2
171
     1
172
     0
 90
        2
 40
0.0
 41
0.0
173
     1
 91
-1056964608
340
E
 92
       -2
290
     1
 42
0.09
291
     1
 43
0.36
  3
Standard
 44
0.18
300

342
C
174
     1
178
     6
175
     1
176
     0
 93
-1056964608
 45
0.18
292
     0
297
     0
 46
0.18
 94
-1056964608
 47
1.0
 49
1.0
140
1.0
293
     1
141
0.0
294
     1
177
     0
142
1.0
295
     0
296
     0
143
0.125
1001
ACAD_MLEADERVER
1070
     2
  0
MLINESTYLE
  5
1B
102
{ACAD_REACTORS
330
19
102
}
330
19
100
AcDbMlineStyle
  2
STANDARD
 70
     0
  3

 62
     0
 51
90.0
 52
90.0
 71
     2
 49
0.5
 62
   256
  6
BYLAYER
 49
-0.5
 62
   256
  6
BYLAYER
  0
ACDBPLACEHOLDER
  5
6C1
102
{ACAD_REACTORS
330
6C0
102
}
330
6C0
  0
SCALE
  5
5CE8
102
{ACAD_REACTORS
330
5CE7
102
}
330
5CE7
100
AcDbScale
 70
     0
300
1:1
140
1.0
141
1.0
290
     1
  0
SCALE
  5
5CE9
102
{ACAD_REACTORS
330
5CE7
102
}
330
5CE7
100
AcDbScale
 70
     0
300
1:2
140
1.0
141
2.0
290
     0
  0
SCALE
  5
5CEA
102
{ACAD_REACTORS
330
5CE7
102
}
330
5CE7
100
AcDbScale
 70
     0
300
1:4
140
1.0
141
4.0
290
     0
  0
SCALE
  5
5CEB
102
{ACAD_REACTORS
330
5CE7
102
}
330
5CE7
100
AcDbScale
 70
     0
300
1:5
140
1.0
141
5.0
290
     0
  0
SCALE
  5
5CEC
102
{ACAD_REACTORS
330
5CE7
102
}
330
5CE7
100
AcDbScale
 70
     0
300
1:8
140
1.0
141
8.0
290
     0
  0
SCALE
  5
5CED
102
{ACAD_REACTORS
330
5CE7
102
}
330
5CE7
100
AcDbScale
 70
     0
300
1:10
140
1.0
141
10.0
290
     0
  0
SCALE
  5
5CEE
102
{ACAD_REACTORS
330
5CE7
102
}
330
5CE7
100
AcDbScale
 70
     0
300
1:16
140
1.0
141
16.0
290
     0
  0
SCALE
  5
5CEF
102
{ACAD_REACTORS
330
5CE7
102
}
330
5CE7
100
AcDbScale
 70
     0
300
1:20
140
1.0
141
20.0
290
     0
  0
SCALE
  5
5CF0
102
{ACAD_REACTORS
330
5CE7
102
}
330
5CE7
100
AcDbScale
 70
     0
300
1:30
140
1.0
141
30.0
290
     0
  0
SCALE
  5
5CF1
102
{ACAD_REACTORS
330
5CE7
102
}
330
5CE7
100
AcDbScale
 70
     0
300
1:40
140
1.0
141
40.0
290
     0
  0
SCALE
  5
5CF2
102
{ACAD_REACTORS
330
5CE7
102
}
330
5CE7
100
AcDbScale
 70
     0
300
1:50
140
1.0
141
50.0
290
     0
  0
SCALE
  5
5CF3
102
{ACAD_REACTORS
330
5CE7
102
}
330
5CE7
100
AcDbScale
 70
     0
300
1:100
140
1.0
141
100.0
290
     0
  0
SCALE
  5
5CF4
102
{ACAD_REACTORS
330
5CE7
102
}
330
5CE7
100
AcDbScale
 70
     0
300
2:1
140
2.0
141
1.0
290
     0
  0
SCALE
  5
5CF5
102
{ACAD_REACTORS
330
5CE7
102
}
330
5CE7
100
AcDbScale
 70
     0
300
4:1
140
4.0
141
1.0
290
     0
  0
SCALE
  5
5CF6
102
{ACAD_REACTORS
330
5CE7
102
}
330
5CE7
100
AcDbScale
 70
     0
300
8:1
140
8.0
141
1.0
290
     0
  0
SCALE
  5
5CF7
102
{ACAD_REACTORS
330
5CE7
102
}
330
5CE7
100
AcDbScale
 70
     0
300
10:1
140
10.0
141
1.0
290
     0
  0
SCALE
  5
5CF8
102
{ACAD_REACTORS
330
5CE7
102
}
330
5CE7
100
AcDbScale
 70
     0
300
100:1
140
100.0
141
1.0
290
     0
  0
SCALE
  5
5CF9
102
{ACAD_REACTORS
330
5CE7
102
}
330
5CE7
100
AcDbScale
 70
     0
300
1/128" = 1'-0"
140
0.0078125
141
12.0
290
     0
  0
SCALE
  5
5CFA
102
{ACAD_REACTORS
330
5CE7
102
}
330
5CE7
100
AcDbScale
 70
     0
300
1/64" = 1'-0"
140
0.015625
141
12.0
290
     0
  0
SCALE
  5
5CFB
102
{ACAD_REACTORS
330
5CE7
102
}
330
5CE7
100
AcDbScale
 70
     0
300
1/32" = 1'-0"
140
0.03125
141
12.0
290
     0
  0
SCALE
  5
5CFC
102
{ACAD_REACTORS
330
5CE7
102
}
330
5CE7
100
AcDbScale
 70
     0
300
1/16" = 1'-0"
140
0.0625
141
12.0
290
     0
  0
SCALE
  5
5CFD
102
{ACAD_REACTORS
330
5CE7
102
}
330
5CE7
100
AcDbScale
 70
     0
300
3/32" = 1'-0"
140
0.09375
141
12.0
290
     0
  0
SCALE
  5
5CFE
102
{ACAD_REACTORS
330
5CE7
102
}
330
5CE7
100
AcDbScale
 70
     0
300
1/8" = 1'-0"
140
0.125
141
12.0
290
     0
  0
SCALE
  5
5CFF
102
{ACAD_REACTORS
330
5CE7
102
}
330
5CE7
100
AcDbScale
 70
     0
300
3/16" = 1'-0"
140
0.1875
141
12.0
290
     0
  0
SCALE
  5
5D00
102
{ACAD_REACTORS
330
5CE7
102
}
330
5CE7
100
AcDbScale
 70
     0
300
1/4" = 1'-0"
140
0.25
141
12.0
290
     0
  0
SCALE
  5
5D01
102
{ACAD_REACTORS
330
5CE7
102
}
330
5CE7
100
AcDbScale
 70
     0
300
3/8" = 1'-0"
140
0.375
141
12.0
290
     0
  0
SCALE
  5
5D02
102
{ACAD_REACTORS
330
5CE7
102
}
330
5CE7
100
AcDbScale
 70
     0
300
1/2" = 1'-0"
140
0.5
141
12.0
290
     0
  0
SCALE
  5
5D03
102
{ACAD_REACTORS
330
5CE7
102
}
330
5CE7
100
AcDbScale
 70
     0
300
3/4" = 1'-0"
140
0.75
141
12.0
290
     0
  0
SCALE
  5
5D04
102
{ACAD_REACTORS
330
5CE7
102
}
330
5CE7
100
AcDbScale
 70
     0
300
1" = 1'-0"
140
1.0
141
12.0
290
     0
  0
SCALE
  5
5D05
102
{ACAD_REACTORS
330
5CE7
102
}
330
5CE7
100
AcDbScale
 70
     0
300
1-1/2" = 1'-0"
140
1.5
141
12.0
290
     0
  0
SCALE
  5
5D06
102
{ACAD_REACTORS
330
5CE7
102
}
330
5CE7
100
AcDbScale
 70
     0
300
3" = 1'-0"
140
3.0
141
12.0
290
     0
  0
SCALE
  5
5D07
102
{ACAD_REACTORS
330
5CE7
102
}
330
5CE7
100
AcDbScale
 70
     0
300
6" = 1'-0"
140
6.0
141
12.0
290
     0
  0
SCALE
  5
5D08
102
{ACAD_REACTORS
330
5CE7
102
}
330
5CE7
100
AcDbScale
 70
     0
300
1'-0" = 1'-0"
140
12.0
141
12.0
290
     0
  0
TABLESTYLE
  5
5CE6
102
{ACAD_XDICTIONARY
360
608F
102
}
102
{ACAD_REACTORS
330
5CE5
102
}
330
5CE5
100
AcDbTableStyle
  3
Standard
 70
     0
 71
     0
 40
0.06
 41
0.06
280
     0
281
     0
  7
STANDARD
140
0.18
170
     2
 62
     0
 63
     7
283
     0
274
    -2
284
     1
 64
     0
275
    -2
285
     1
 65
     0
276
    -2
286
     1
 66
     0
277
    -2
287
     1
 67
     0
278
    -2
288
     1
 68
     0
279
    -2
289
     1
 69
     0
  7
STANDARD
140
0.25
170
     5
 62
     0
 63
     7
283
     0
274
    -2
284
     1
 64
     0
275
    -2
285
     1
 65
     0
276
    -2
286
     1
 66
     0
277
    -2
287
     1
 67
     0
278
    -2
288
     1
 68
     0
279
    -2
289
     1
 69
     0
  7
STANDARD
140
0.18
170
     5
 62
     0
 63
     7
283
     0
274
    -2
284
     1
 64
     0
275
    -2
285
     1
 65
     0
276
    -2
286
     1
 66
     0
277
    -2
287
     1
 67
     0
278
    -2
288
     1
 68
     0
279
    -2
289
     1
 69
     0
  0
VISUALSTYLE
  5
5CDA
102
{ACAD_REACTORS
330
5CD4
102
}
330
5CD4
100
AcDbVisualStyle
  2
2dWireframe
 70
     4
 71
     0
 72
     2
 73
     0
 90
        0
 40
-0.6
 41
-30.0
 62
     5
 63
     7
421
 16777215
 74
     1
 91
        4
 64
     7
 65
   257
 75
     1
175
     1
 42
1.0
 92
        0
 66
   257
 43
1.0
 76
     1
 77
     6
 78
     2
 67
     7
 79
     5
170
     0
171
     0
290
     0
174
     0
 93
        1
 44
0.0
173
     0
291
     0
 45
0.0
1001
ACAD
1000
AcDbSavedByObjectVersion
1070
     0
  0
VISUALSTYLE
  5
5CDC
102
{ACAD_REACTORS
330
5CD4
102
}
330
5CD4
100
AcDbVisualStyle
  2
3D Hidden
 70
     6
 71
     1
 72
     2
 73
     2
 90
        0
 40
-0.6
 41
-30.0
 62
     5
 63
     7
421
 16777215
 74
     2
 91
        2
 64
     7
 65
   257
 75
     2
175
     1
 42
40.0
 92
        0
 66
   257
 43
1.0
 76
     1
 77
     6
 78
     2
 67
     7
 79
     3
170
     0
171
     0
290
     0
174
     0
 93
        1
 44
0.0
173
     0
291
     0
 45
0.0
1001
ACAD
1000
AcDbSavedByObjectVersion
1070
     0
  0
VISUALSTYLE
  5
5CDB
102
{ACAD_REACTORS
330
5CD4
102
}
330
5CD4
100
AcDbVisualStyle
  2
3dWireframe
 70
     5
 71
     0
 72
     2
 73
     0
 90
        0
 40
-0.6
 41
-30.0
 62
     5
 63
     7
421
 16777215
 74
     1
 91
        4
 64
     7
 65
   257
 75
     1
175
     1
 42
1.0
 92
        0
 66
   257
 43
1.0
 76
     1
 77
     6
 78
     2
 67
     7
 79
     5
170
     0
171
     0
290
     0
174
     0
 93
        1
 44
0.0
173
     0
291
     0
 45
0.0
1001
ACAD
1000
AcDbSavedByObjectVersion
1070
     0
  0
VISUALSTYLE
  5
5CD9
102
{ACAD_REACTORS
330
5CD4
102
}
330
5CD4
100
AcDbVisualStyle
  2
Basic
 70
     7
 71
     1
 72
     0
 73
     1
 90
        0
 40
-0.6
 41
-30.0
 62
     5
 63
     7
421
 16777215
 74
     0
 91
        4
 64
     7
 65
   257
 75
     1
175
     1
 42
1.0
 92
        8
 66
     7
 43
1.0
 76
     1
 77
     6
 78
     2
 67
     7
 79
     5
170
     0
171
     0
290
     0
174
     0
 93
        1
 44
0.0
173
     0
291
     1
 45
0.0
1001
ACAD
1000
AcDbSavedByObjectVersion
1070
     0
  0
VISUALSTYLE
  5
5CE0
102
{ACAD_REACTORS
330
5CD4
102
}
330
5CD4
100
AcDbVisualStyle
  2
Brighten
 70
    12
 71
     2
 72
     2
 73
     0
 90
        0
 40
-0.6
 41
-30.0
 62
     5
 63
     7
421
 16777215
 74
     1
 91
        4
 64
     7
 65
   257
 75
     1
175
     1
 42
1.0
 92
        8
 66
     7
 43
1.0
 76
     1
 77
     6
 78
     2
 67
     7
 79
     5
170
     0
171
     0
290
     0
174
     0
 93
        1
 44
50.0
173
     0
291
     1
 45
0.0
1001
ACAD
1000
AcDbSavedByObjectVersion
1070
     0
  0
VISUALSTYLE
  5
5CE4
102
{ACAD_REACTORS
330
5CD4
102
}
330
5CD4
100
AcDbVisualStyle
  2
ColorChange
 70
    16
 71
     2
 72
     2
 73
     3
 90
        0
 40
-0.6
 41
-30.0
 62
     5
 63
     8
421
  8421504
 74
     1
 91
        4
 64
     7
 65
   257
 75
     1
175
     1
 42
1.0
 92
        8
 66
     8
424
  8421504
 43
1.0
 76
     1
 77
     6
 78
     2
 67
     7
 79
     5
170
     0
171
     0
290
     0
174
     0
 93
        1
 44
0.0
173
     0
291
     1
 45
0.0
1001
ACAD
1000
AcDbSavedByObjectVersion
1070
     0
  0
VISUALSTYLE
  5
5CDD
102
{ACAD_REACTORS
330
5CD4
102
}
330
5CD4
100
AcDbVisualStyle
  2
Conceptual
 70
     9
 71
     3
 72
     2
 73
     0
 90
        0
 40
-0.6
 41
-30.0
 62
     5
 63
     7
421
 16777215
 74
     2
 91
        2
 64
     7
 65
   257
 75
     1
175
     1
 42
40.0
 92
        8
 66
     7
 43
1.0
 76
     1
 77
     6
 78
     2
 67
     7
 79
     3
170
     0
171
     0
290
     0
174
     0
 93
        1
 44
0.0
173
     0
291
     0
 45
0.0
1001
ACAD
1000
AcDbSavedByObjectVersion
1070
     0
  0
VISUALSTYLE
  5
5CDF
102
{ACAD_REACTORS
330
5CD4
102
}
330
5CD4
100
AcDbVisualStyle
  2
Dim
 70
    11
 71
     2
 72
     2
 73
     0
 90
        0
 40
-0.6
 41
-30.0
 62
     5
 63
     7
421
 16777215
 74
     1
 91
        4
 64
     7
 65
   257
 75
     1
175
     1
 42
1.0
 92
        8
 66
     7
 43
1.0
 76
     1
 77
     6
 78
     2
 67
     7
 79
     5
170
     0
171
     0
290
     0
174
     0
 93
        1
 44
-50.0
173
     0
291
     1
 45
0.0
1001
ACAD
1000
AcDbSavedByObjectVersion
1070
     0
  0
VISUALSTYLE
  5
5CE3
102
{ACAD_REACTORS
330
5CD4
102
}
330
5CD4
100
AcDbVisualStyle
  2
Facepattern
 70
    15
 71
     2
 72
     2
 73
     0
 90
        0
 40
-0.6
 41
-30.0
 62
     5
 63
     7
421
 16777215
 74
     1
 91
        4
 64
     7
 65
   257
 75
     1
175
     1
 42
1.0
 92
        8
 66
     7
 43
1.0
 76
     1
 77
     6
 78
     2
 67
     7
 79
     5
170
     0
171
     0
290
     0
174
     0
 93
        1
 44
0.0
173
     0
291
     1
 45
0.0
1001
ACAD
1000
AcDbSavedByObjectVersion
1070
     0
  0
VISUALSTYLE
  5
5CD5
102
{ACAD_REACTORS
330
5CD4
102
}
330
5CD4
100
AcDbVisualStyle
  2
Flat
 70
     0
 71
     2
 72
     1
 73
     1
 90
        2
 40
-0.6
 41
30.0
 62
     5
 63
     7
421
 16777215
 74
     0
 91
        4
 64
     7
 65
   257
 75
     1
175
     1
 42
1.0
 92
        8
 66
     7
 43
1.0
 76
     1
 77
     6
 78
     2
 67
     7
 79
     5
170
     0
171
     0
290
     0
174
     0
 93
       13
 44
0.0
173
     0
291
     1
 45
0.0
1001
ACAD
1000
AcDbSavedByObjectVersion
1070
     0
  0
VISUALSTYLE
  5
5CD6
102
{ACAD_REACTORS
330
5CD4
102
}
330
5CD4
100
AcDbVisualStyle
  2
FlatWithEdges
 70
     1
 71
     2
 72
     1
 73
     1
 90
        2
 40
-0.6
 41
30.0
 62
     5
 63
     7
421
 16777215
 74
     1
 91
        4
 64
     7
 65
   257
 75
     1
175
     1
 42
1.0
 92
        0
 66
   257
 43
1.0
 76
     1
 77
     6
 78
     2
 67
     7
 79
     5
170
     0
171
     0
290
     0
174
     0
 93
       13
 44
0.0
173
     0
291
     1
 45
0.0
1001
ACAD
1000
AcDbSavedByObjectVersion
1070
     0
  0
VISUALSTYLE
  5
5CD7
102
{ACAD_REACTORS
330
5CD4
102
}
330
5CD4
100
AcDbVisualStyle
  2
Gouraud
 70
     2
 71
     2
 72
     2
 73
     1
 90
        2
 40
-0.6
 41
30.0
 62
     5
 63
     7
421
 16777215
 74
     0
 91
        4
 64
     7
 65
   257
 75
     1
175
     1
 42
1.0
 92
        0
 66
     7
 43
1.0
 76
     1
 77
     6
 78
     2
 67
     7
 79
     5
170
     0
171
     0
290
     0
174
     0
 93
       13
 44
0.0
173
     0
291
     1
 45
0.0
1001
ACAD
1000
AcDbSavedByObjectVersion
1070
     0
  0
VISUALSTYLE
  5
5CD8
102
{ACAD_REACTORS
330
5CD4
102
}
330
5CD4
100
AcDbVisualStyle
  2
GouraudWithEdges
 70
     3
 71
     2
 72
     2
 73
     1
 90
        2
 40
-0.6
 41
30.0
 62
     5
 63
     7
421
 16777215
 74
     1
 91
        4
 64
     7
 65
   257
 75
     1
175
     1
 42
1.0
 92
        0
 66
   257
 43
1.0
 76
     1
 77
     6
 78
     2
 67
     7
 79
     5
170
     0
171
     0
290
     0
174
     0
 93
       13
 44
0.0
173
     0
291
     1
 45
0.0
1001
ACAD
1000
AcDbSavedByObjectVersion
1070
     0
  0
VISUALSTYLE
  5
5CE2
102
{ACAD_REACTORS
330
5CD4
102
}
330
5CD4
100
AcDbVisualStyle
  2
Linepattern
 70
    14
 71
     2
 72
     2
 73
     0
 90
        0
 40
-0.6
 41
-30.0
 62
     5
 63
     7
421
 16777215
 74
     1
 91
        4
 64
     7
 65
   257
 75
     7
175
     7
 42
1.0
 92
        8
 66
     7
 43
1.0
 76
     1
 77
     6
 78
     2
 67
     7
 79
     5
170
     0
171
     0
290
     0
174
     0
 93
        1
 44
0.0
173
     0
291
     1
 45
0.0
1001
ACAD
1000
AcDbSavedByObjectVersion
1070
     0
  0
VISUALSTYLE
  5
5CDE
102
{ACAD_REACTORS
330
5CD4
102
}
330
5CD4
100
AcDbVisualStyle
  2
Realistic
 70
     8
 71
     2
 72
     2
 73
     0
 90
        0
 40
-0.6
 41
-30.0
 62
     5
 63
     7
421
 16777215
 74
     1
 91
        0
 64
     7
 65
   257
 75
     1
175
     1
 42
1.0
 92
        8
 66
     8
424
  7895160
 43
1.0
 76
     1
 77
     6
 78
     2
 67
     7
 79
     5
170
     0
171
     0
290
     0
174
     0
 93
       13
 44
0.0
173
     0
291
     0
 45
0.0
1001
ACAD
1000
AcDbSavedByObjectVersion
1070
     0
  0
VISUALSTYLE
  5
5CE1
102
{ACAD_REACTORS
330
5CD4
102
}
330
5CD4
100
AcDbVisualStyle
  2
Thicken
 70
    13
 71
     2
 72
     2
 73
     0
 90
        0
 40
-0.6
 41
-30.0
 62
     5
 63
     7
421
 16777215
 74
     1
 91
        4
 64
     7
 65
   257
 75
     1
175
     1
 42
1.0
 92
       12
 66
     7
 43
1.0
 76
     1
 77
     6
 78
     2
 67
     7
 79
     5
170
     0
171
     0
290
     0
174
     0
 93
        1
 44
0.0
173
     0
291
     1
 45
0.0
1001
ACAD
1000
AcDbSavedByObjectVersion
1070
     0
  0
DICTIONARYVAR
  5
608E
102
{ACAD_REACTORS
330
25F
102
}
330
25F
100
DictionaryVariables
280
     0
  1
1:1
  0
DICTIONARYVAR
  5
608D
102
{ACAD_REACTORS
330
25F
102
}
330
25F
100
DictionaryVariables
280
     0
  1
STANDARD
  0
DICTIONARYVAR
  5
608C
102
{ACAD_REACTORS
330
25F
102
}
330
25F
100
DictionaryVariables
280
     0
  1
STANDARD
  0
DICTIONARYVAR
  5
260
102
{ACAD_REACTORS
330
25F
102
}
330
25F
100
DictionaryVariables
280
     0
  1
1
  0
DICTIONARYVAR
  5
4D0
102
{ACAD_REACTORS
330
25F
102
}
330
25F
100
DictionaryVariables
280
     0
  1
96
  0
DICTIONARY
  5
266
102
{ACAD_REACTORS
330
265
102
}
330
265
100
AcDbDictionary
281
     1
  0
XRECORD
  5
5D30
102
{ACAD_REACTORS
330
265
102
}
330
265
100
AcDbXrecord
280
     1
 90
-1023410169
  0
XRECORD
  5
5D68
102
{ACAD_REACTORS
330
5D66
102
}
330
5D66
100
AcDbXrecord
280
     1
330
5AE4
  0
DICTIONARY
  5
5CC5
330
5CC4
100
AcDbDictionary
280
     1
281
     1
  3
ACAD_XREC_ROUNDTRIP
360
6093
  3
BUMPTILE
360
5CC7
  3
DIFFUSETILE
360
5CC6
  3
OPACITYTILE
360
5CCA
  3
REFLECTIONTILE
360
5CC9
  3
REFRACTIONTILE
360
5CCB
  3
SPECULARTILE
360
5CC8
  0
DICTIONARY
  5
5CBD
330
5CBC
100
AcDbDictionary
280
     1
281
     1
  3
ACAD_XREC_ROUNDTRIP
360
6092
  3
BUMPTILE
360
5CBF
  3
DIFFUSETILE
360
5CBE
  3
OPACITYTILE
360
5CC2
  3
REFLECTIONTILE
360
5CC1
  3
REFRACTIONTILE
360
5CC3
  3
SPECULARTILE
360
5CC0
  0
DICTIONARY
  5
5CCD
330
5CCC
100
AcDbDictionary
280
     1
281
     1
  3
ACAD_XREC_ROUNDTRIP
360
6094
  3
BUMPTILE
360
5CCF
  3
DIFFUSETILE
360
5CCE
  3
OPACITYTILE
360
5CD2
  3
REFLECTIONTILE
360
5CD1
  3
REFRACTIONTILE
360
5CD3
  3
SPECULARTILE
360
5CD0
  0
DICTIONARY
  5
608F
330
5CE6
100
AcDbDictionary
280
     1
281
     1
  3
ACAD_ROUNDTRIP_2008_TABLESTYLE_CELLSTYLEMAP
360
6090
  3
ACAD_XREC_ROUNDTRIP
360
6095
  0
XRECORD
  5
6093
102
{ACAD_REACTORS
330
5CC5
102
}
330
5CC5
100
AcDbXrecord
280
     1
102
MATERIAL
148
0.0
149
0.0
149
0.0
 93
        0
 94
      127
282
     0
 72
     0
 77
     0
171
     0
175
     0
179
     0
273
     0
  0
XRECORD
  5
5CC7
102
{ACAD_REACTORS
330
5CC5
102
}
330
5CC5
100
AcDbXrecord
280
     1
270
     1
271
     1
  0
XRECORD
  5
5CC6
102
{ACAD_REACTORS
330
5CC5
102
}
330
5CC5
100
AcDbXrecord
280
     1
270
     1
271
     1
  0
XRECORD
  5
5CCA
102
{ACAD_REACTORS
330
5CC5
102
}
330
5CC5
100
AcDbXrecord
280
     1
270
     1
271
     1
  0
XRECORD
  5
5CC9
102
{ACAD_REACTORS
330
5CC5
102
}
330
5CC5
100
AcDbXrecord
280
     1
270
     1
271
     1
  0
XRECORD
  5
5CCB
102
{ACAD_REACTORS
330
5CC5
102
}
330
5CC5
100
AcDbXrecord
280
     1
270
     1
271
     1
  0
XRECORD
  5
5CC8
102
{ACAD_REACTORS
330
5CC5
102
}
330
5CC5
100
AcDbXrecord
280
     1
270
     1
271
     1
  0
XRECORD
  5
6092
102
{ACAD_REACTORS
330
5CBD
102
}
330
5CBD
100
AcDbXrecord
280
     1
102
MATERIAL
148
0.0
149
0.0
149
0.0
 93
        0
 94
      127
282
     0
 72
     0
 77
     0
171
     0
175
     0
179
     0
273
     0
  0
XRECORD
  5
5CBF
102
{ACAD_REACTORS
330
5CBD
102
}
330
5CBD
100
AcDbXrecord
280
     1
270
     1
271
     1
  0
XRECORD
  5
5CBE
102
{ACAD_REACTORS
330
5CBD
102
}
330
5CBD
100
AcDbXrecord
280
     1
270
     1
271
     1
  0
XRECORD
  5
5CC2
102
{ACAD_REACTORS
330
5CBD
102
}
330
5CBD
100
AcDbXrecord
280
     1
270
     1
271
     1
  0
XRECORD
  5
5CC1
102
{ACAD_REACTORS
330
5CBD
102
}
330
5CBD
100
AcDbXrecord
280
     1
270
     1
271
     1
  0
XRECORD
  5
5CC3
102
{ACAD_REACTORS
330
5CBD
102
}
330
5CBD
100
AcDbXrecord
280
     1
270
     1
271
     1
  0
XRECORD
  5
5CC0
102
{ACAD_REACTORS
330
5CBD
102
}
330
5CBD
100
AcDbXrecord
280
     1
270
     1
271
     1
  0
XRECORD
  5
6094
102
{ACAD_REACTORS
330
5CCD
102
}
330
5CCD
100
AcDbXrecord
280
     1
102
MATERIAL
148
0.0
149
0.0
149
0.0
 93
        0
 94
      127
282
     0
 72
     0
 77
     0
171
     0
175
     0
179
     0
273
     0
  0
XRECORD
  5
5CCF
102
{ACAD_REACTORS
330
5CCD
102
}
330
5CCD
100
AcDbXrecord
280
     1
270
     1
271
     1
  0
XRECORD
  5
5CCE
102
{ACAD_REACTORS
330
5CCD
102
}
330
5CCD
100
AcDbXrecord
280
     1
270
     1
271
     1
  0
XRECORD
  5
5CD2
102
{ACAD_REACTORS
330
5CCD
102
}
330
5CCD
100
AcDbXrecord
280
     1
270
     1
271
     1
  0
XRECORD
  5
5CD1
102
{ACAD_REACTORS
330
5CCD
102
}
330
5CCD
100
AcDbXrecord
280
     1
270
     1
271
     1
  0
XRECORD
  5
5CD3
102
{ACAD_REACTORS
330
5CCD
102
}
330
5CCD
100
AcDbXrecord
280
     1
270
     1
271
     1
  0
XRECORD
  5
5CD0
102
{ACAD_REACTORS
330
5CCD
102
}
330
5CCD
100
AcDbXrecord
280
     1
270
     1
271
     1
  0
CELLSTYLEMAP
  5
6090
102
{ACAD_REACTORS
330
608F
102
}
330
608F
100
AcDbCellStyleMap
 90
        3
300
CELLSTYLE
  1
TABLEFORMAT_BEGIN
 90
        5
170
     1
 91
        0
 92
    32768
 62
   257
 93
        1
300
CONTENTFORMAT
  1
CONTENTFORMAT_BEGIN
 90
        0
 91
        0
 92
      512
 93
        0
300

 40
0.0
140
1.0
 94
        5
 62
     0
340
C
144
0.25
309
CONTENTFORMAT_END
171
     0
 94
        0
309
TABLEFORMAT_END
  1
CELLSTYLE_BEGIN
 90
        1
 91
        1
300
_TITLE
309
CELLSTYLE_END
300
CELLSTYLE
  1
TABLEFORMAT_BEGIN
 90
        5
170
     1
 91
        0
 92
        0
 62
   257
 93
        1
300
CONTENTFORMAT
  1
CONTENTFORMAT_BEGIN
 90
        0
 91
        0
 92
      512
 93
        0
300

 40
0.0
140
1.0
 94
        5
 62
     0
340
C
144
0.18
309
CONTENTFORMAT_END
171
     0
 94
        0
309
TABLEFORMAT_END
  1
CELLSTYLE_BEGIN
 90
        2
 91
        1
300
_HEADER
309
CELLSTYLE_END
300
CELLSTYLE
  1
TABLEFORMAT_BEGIN
 90
        5
170
     1
 91
        0
 92
        0
 62
   257
 93
        1
300
CONTENTFORMAT
  1
CONTENTFORMAT_BEGIN
 90
        0
 91
        0
 92
      512
 93
        0
300

 40
0.0
140
1.0
 94
        2
 62
     0
340
C
144
0.18
309
CONTENTFORMAT_END
171
     0
 94
        0
309
TABLEFORMAT_END
  1
CELLSTYLE_BEGIN
 90
        3
 91
        2
300
_DATA
309
CELLSTYLE_END
  0
XRECORD
  5
6095
102
{ACAD_REACTORS
330
608F
102
}
330
608F
100
AcDbXrecord
280
     1
102
ACAD_ROUNDTRIP_PRE2007_TABLESTYLE
 90
      512
 91
        0
  1

 92
      512
 93
        0
  2

 94
      512
 95
        0
  3

  0
ENDSEC
  0
EOF
