  0
SECTION
  2
HEADER
  9
$ACADVER
  1
AC1018
  9
$ACADMAINTVER
 70
   104
  9
$DWGCODEPAGE
  3
ANSI_1252
  9
$LASTSAVEDBY
  1
ibasyouni
  9
$CUSTOMPROPERTYTAG
  1
AmdtFileType
  9
$CUSTOMPROPERTY
  1
84
  9
$INSBASE
 10
0.0
 20
0.0
 30
0.0
  9
$EXTMIN
 10
29.69804750032847
 20
36.34903348626523
 30
0.0
  9
$EXTMAX
 10
1055.082894657593
 20
702.9583907182042
 30
0.0
  9
$LIMMIN
 10
0.0
 20
0.0
  9
$LIMMAX
 10
1100.0
 20
750.0
  9
$ORTHOMODE
 70
     1
  9
$REGENMODE
 70
     1
  9
$FILLMODE
 70
     1
  9
$QTEXTMODE
 70
     0
  9
$MIRRTEXT
 70
     1
  9
$LTSCALE
 40
1.0
  9
$ATTMODE
 70
     1
  9
$TEXTSIZE
 40
10.0
  9
$TRACEWID
 40
1.0
  9
$TEXTSTYLE
  7
STANDARD
  9
$CLAYER
  8
0
  9
$CELTYPE
  6
BYLAYER
  9
$CECOLOR
 62
   256
  9
$CELTSCALE
 40
10.0
  9
$DISPSILH
 70
     0
  9
$DIMSCALE
 40
1.0
  9
$DIMASZ
 40
7.0
  9
$DIMEXO
 40
0.0
  9
$DIMDLI
 40
7.0
  9
$DIMRND
 40
0.0
  9
$DIMDLE
 40
0.0
  9
$DIMEXE
 40
1.25
  9
$DIMTP
 40
0.0
  9
$DIMTM
 40
0.0
  9
$DIMTXT
 40
10.0
  9
$DIMCEN
 40
0.0
  9
$DIMTSZ
 40
0.0
  9
$DIMTOL
 70
     0
  9
$DIMLIM
 70
     0
  9
$DIMTIH
 70
     0
  9
$DIMTOH
 70
     0
  9
$DIMSE1
 70
     0
  9
$DIMSE2
 70
     0
  9
$DIMTAD
 70
     1
  9
$DIMZIN
 70
     8
  9
$DIMBLK
  1

  9
$DIMASO
 70
     1
  9
$DIMSHO
 70
     1
  9
$DIMPOST
  1

  9
$DIMAPOST
  1

  9
$DIMALT
 70
     0
  9
$DIMALTD
 70
     2
  9
$DIMALTF
 40
25.4
  9
$DIMLFAC
 40
1.0
  9
$DIMTOFL
 70
     1
  9
$DIMTVP
 40
0.0
  9
$DIMTIX
 70
     0
  9
$DIMSOXD
 70
     0
  9
$DIMSAH
 70
     0
  9
$DIMBLK1
  1

  9
$DIMBLK2
  1

  9
$DIMSTYLE
  2
ISO-25
  9
$DIMCLRD
 70
   256
  9
$DIMCLRE
 70
   256
  9
$DIMCLRT
 70
   256
  9
$DIMTFAC
 40
1.0
  9
$DIMGAP
 40
4.0
  9
$DIMJUST
 70
     0
  9
$DIMSD1
 70
     0
  9
$DIMSD2
 70
     0
  9
$DIMTOLJ
 70
     1
  9
$DIMTZIN
 70
     8
  9
$DIMALTZ
 70
     0
  9
$DIMALTTZ
 70
     0
  9
$DIMUPT
 70
     1
  9
$DIMDEC
 70
     4
  9
$DIMTDEC
 70
     4
  9
$DIMALTU
 70
     2
  9
$DIMALTTD
 70
     2
  9
$DIMTXSTY
  7
STANDARD
  9
$DIMAUNIT
 70
     0
  9
$DIMADEC
 70
     0
  9
$DIMALTRND
 40
0.0
  9
$DIMAZIN
 70
     0
  9
$DIMDSEP
 70
    46
  9
$DIMATFIT
 70
     0
  9
$DIMFRAC
 70
     0
  9
$DIMLDRBLK
  1

  9
$DIMLUNIT
 70
     2
  9
$DIMLWD
 70
    -2
  9
$DIMLWE
 70
    -2
  9
$DIMTMOVE
 70
     0
  9
$LUNITS
 70
     2
  9
$LUPREC
 70
     4
  9
$SKETCHINC
 40
1.0
  9
$FILLETRAD
 40
2.5
  9
$AUNITS
 70
     0
  9
$AUPREC
 70
     0
  9
$MENU
  1
.
  9
$ELEVATION
 40
0.0
  9
$PELEVATION
 40
0.0
  9
$THICKNESS
 40
0.0
  9
$LIMCHECK
 70
     0
  9
$CHAMFERA
 40
2.0
  9
$CHAMFERB
 40
2.0
  9
$CHAMFERC
 40
0.0
  9
$CHAMFERD
 40
0.0
  9
$SKPOLY
 70
     0
  9
$TDCREATE
 40
2450848.795139884
  9
$TDUCREATE
 40
2450848.711806551
  9
$TDUPDATE
 40
2455772.605695683
  9
$TDUUPDATE
 40
2455772.522362349
  9
$TDINDWG
 40
2.3050215394
  9
$TDUSRTIMER
 40
2.3050215394
  9
$USRTIMER
 70
     1
  9
$ANGBASE
 50
0.0
  9
$ANGDIR
 70
     0
  9
$PDMODE
 70
     0
  9
$PDSIZE
 40
0.0
  9
$PLINEWID
 40
0.5
  9
$SPLFRAME
 70
     0
  9
$SPLINETYPE
 70
     6
  9
$SPLINESEGS
 70
     8
  9
$HANDSEED
  5
10AF
  9
$SURFTAB1
 70
     6
  9
$SURFTAB2
 70
     6
  9
$SURFTYPE
 70
     6
  9
$SURFU
 70
     6
  9
$SURFV
 70
     6
  9
$UCSBASE
  2

  9
$UCSNAME
  2

  9
$UCSORG
 10
0.0
 20
0.0
 30
0.0
  9
$UCSXDIR
 10
1.0
 20
0.0
 30
0.0
  9
$UCSYDIR
 10
0.0
 20
1.0
 30
0.0
  9
$UCSORTHOREF
  2

  9
$UCSORTHOVIEW
 70
     0
  9
$UCSORGTOP
 10
0.0
 20
0.0
 30
0.0
  9
$UCSORGBOTTOM
 10
0.0
 20
0.0
 30
0.0
  9
$UCSORGLEFT
 10
0.0
 20
0.0
 30
0.0
  9
$UCSORGRIGHT
 10
0.0
 20
0.0
 30
0.0
  9
$UCSORGFRONT
 10
0.0
 20
0.0
 30
0.0
  9
$UCSORGBACK
 10
0.0
 20
0.0
 30
0.0
  9
$PUCSBASE
  2

  9
$PUCSNAME
  2

  9
$PUCSORG
 10
0.0
 20
0.0
 30
0.0
  9
$PUCSXDIR
 10
1.0
 20
0.0
 30
0.0
  9
$PUCSYDIR
 10
0.0
 20
1.0
 30
0.0
  9
$PUCSORTHOREF
  2

  9
$PUCSORTHOVIEW
 70
     0
  9
$PUCSORGTOP
 10
0.0
 20
0.0
 30
0.0
  9
$PUCSORGBOTTOM
 10
0.0
 20
0.0
 30
0.0
  9
$PUCSORGLEFT
 10
0.0
 20
0.0
 30
0.0
  9
$PUCSORGRIGHT
 10
0.0
 20
0.0
 30
0.0
  9
$PUCSORGFRONT
 10
0.0
 20
0.0
 30
0.0
  9
$PUCSORGBACK
 10
0.0
 20
0.0
 30
0.0
  9
$USERI1
 70
     0
  9
$USERI2
 70
     0
  9
$USERI3
 70
     0
  9
$USERI4
 70
     0
  9
$USERI5
 70
     0
  9
$USERR1
 40
0.0
  9
$USERR2
 40
0.0
  9
$USERR3
 40
0.0
  9
$USERR4
 40
0.0
  9
$USERR5
 40
0.0
  9
$WORLDVIEW
 70
     1
  9
$SHADEDGE
 70
     3
  9
$SHADEDIF
 70
    70
  9
$TILEMODE
 70
     1
  9
$MAXACTVP
 70
    16
  9
$PINSBASE
 10
0.0
 20
0.0
 30
0.0
  9
$PLIMCHECK
 70
     0
  9
$PEXTMIN
 10
1.000000000000000E+20
 20
1.000000000000000E+20
 30
1.000000000000000E+20
  9
$PEXTMAX
 10
-1.000000000000000E+20
 20
-1.000000000000000E+20
 30
-1.000000000000000E+20
  9
$PLIMMIN
 10
0.0
 20
0.0
  9
$PLIMMAX
 10
420.0
 20
297.0
  9
$UNITMODE
 70
     0
  9
$VISRETAIN
 70
     0
  9
$PLINEGEN
 70
     0
  9
$PSLTSCALE
 70
     0
  9
$TREEDEPTH
 70
  3020
  9
$CMLSTYLE
  2
STANDARD
  9
$CMLJUST
 70
     0
  9
$CMLSCALE
 40
1.0
  9
$PROXYGRAPHICS
 70
     1
  9
$MEASUREMENT
 70
     0
  9
$CELWEIGHT
370
    -1
  9
$ENDCAPS
280
     0
  9
$JOINSTYLE
280
     0
  9
$LWDISPLAY
290
     0
  9
$INSUNITS
 70
     0
  9
$HYPERLINKBASE
  1

  9
$STYLESHEET
  1
Zeich.ctb
  9
$XEDIT
290
     1
  9
$CEPSNTYPE
380
     0
  9
$PSTYLEMODE
290
     1
  9
$FINGERPRINTGUID
  2
{99E9A9E6-8BE3-4F7D-87D8-9FC628765AC3}
  9
$VERSIONGUID
  2
{D5F31CFD-BB77-4E74-9759-FA904D255905}
  9
$EXTNAMES
290
     1
  9
$PSVPSCALE
 40
0.0
  9
$OLESTARTUP
290
     0
  9
$SORTENTS
280
   127
  9
$INDEXCTL
280
     0
  9
$HIDETEXT
280
     0
  9
$XCLIPFRAME
290
     0
  9
$HALOGAP
280
     0
  9
$OBSCOLOR
 70
   257
  9
$OBSLTYPE
280
     0
  9
$INTERSECTIONDISPLAY
280
     0
  9
$INTERSECTIONCOLOR
 70
   257
  9
$DIMASSOC
280
     1
  9
$PROJECTNAME
  1

  0
ENDSEC
  0
SECTION
  2
CLASSES
  0
CLASS
  1
IDBUFFER
  2
AcDbIdBuffer
  3
ObjectDBX Classes
 90
        0
 91
        0
280
     0
281
     0
  0
CLASS
  1
DICTIONARYVAR
  2
AcDbDictionaryVar
  3
ObjectDBX Classes
 90
        0
 91
        7
280
     0
281
     0
  0
CLASS
  1
ACMESTATEMGR
  2
AcMeStateMgr
  3
AcMeServices
 90
     1024
 91
        1
280
     0
281
     0
  0
CLASS
  1
ACMESCOPE
  2
AcMeScope
  3
AcMeServices
 90
     1024
 91
        1
280
     0
281
     0
  0
CLASS
  1
ACMECOMMANDHISTORY
  2
AcMeCommandHistory
  3
AcMeServices
 90
     1024
 91
        1
280
     0
281
     0
  0
CLASS
  1
ACRFINSADJUSTERMGR
  2
AcRfInsAdjusterMgr
  3
AcMeServices
 90
     1024
 91
        1
280
     0
281
     0
  0
CLASS
  1
ACMEDRAWINGMAN
  2
AcMeDrawingMan
  3
AcMeServices
 90
     1024
 91
        1
280
     0
281
     0
  0
CLASS
  1
AMATTR
  2
AcMeAttribute
  3
AcMeServices
 90
     1024
 91
        0
280
     0
281
     0
  0
CLASS
  1
ACMEBOMCOLUMN
  2
AcMeBOMColumn
  3
AcMeServices
 90
     1024
 91
        0
280
     0
281
     0
  0
CLASS
  1
ACMEBOMCONF
  2
AcMeBOMConf
  3
AcMeServices
 90
     1024
 91
        0
280
     0
281
     0
  0
CLASS
  1
ACMEBOMTABLE
  2
AcMeBOMTable
  3
AcMeServices
 90
     1024
 91
        0
280
     0
281
     0
  0
CLASS
  1
ACMEBOMENTRY
  2
AcMeBOMEntry
  3
AcMeServices
 90
     1024
 91
        0
280
     0
281
     0
  0
CLASS
  1
ACMEVIEW
  2
AcMeView
  3
AcMeServices
 90
     1024
 91
        0
280
     0
281
     0
  0
CLASS
  1
LAYER_INDEX
  2
AcDbLayerIndex
  3
ObjectDBX Classes
 90
        0
 91
        0
280
     0
281
     0
  0
CLASS
  1
ACIMSYSVARMAN
  2
AcImSysVarManager
  3
AcMeServices
 90
     1024
 91
        5
280
     0
281
     0
  0
CLASS
  1
ACIMINTSYSVAR
  2
AcImIntSysVar
  3
AcMeServices
 90
     1024
 91
       27
280
     0
281
     0
  0
CLASS
  1
ACIMSTRSYSVAR
  2
AcImStrSysVar
  3
AcMeServices
 90
     1024
 91
        5
280
     0
281
     0
  0
CLASS
  1
ACMSTANDARDJIS
  2
AcmStandardJIS
  3
"Amdt_StdImp|Product Description: AutoCAD Mechanical|Company: Autodesk, Inc."
 90
     1024
 91
        1
280
     0
281
     0
  0
CLASS
  1
ACMSTANDARDANSI
  2
AcmStandardANSI
  3
"Amdt_StdImp|Product Description: AutoCAD Mechanical|Company: Autodesk, Inc."
 90
     1024
 91
        1
280
     0
281
     0
  0
CLASS
  1
ACMSTANDARDBSI
  2
AcmStandardBSI
  3
"Amdt_StdImp|Product Description: AutoCAD Mechanical|Company: Autodesk, Inc."
 90
     1024
 91
        1
280
     0
281
     0
  0
CLASS
  1
ACMSTANDARDDIN
  2
AcmStandardDIN
  3
"Amdt_StdImp|Product Description: AutoCAD Mechanical|Company: Autodesk, Inc."
 90
     1024
 91
        1
280
     0
281
     0
  0
CLASS
  1
ACMSTANDARDISO
  2
AcmStandardISO
  3
"Amdt_StdImp|Product Description: AutoCAD Mechanical|Company: Autodesk, Inc."
 90
     1024
 91
        1
280
     0
281
     0
  0
CLASS
  1
ACDBDICTIONARYWDFLT
  2
AcDbDictionaryWithDefault
  3
ObjectDBX Classes
 90
        0
 91
        1
280
     0
281
     0
  0
CLASS
  1
ACME_DOCUMENT
  2
AcMeDbDoc
  3
AcMeServices
 90
     1024
 91
        2
280
     0
281
     0
  0
CLASS
  1
AMGSETTINGSOBJ
  2
AmgSettingsObj
  3
"AcadM|Product Description: AutoCAD Mechanical|Company: Autodesk, Inc."
 90
     1024
 91
        2
280
     0
281
     0
  0
CLASS
  1
ACIMREALSYSVAR
  2
AcImRealSysVar
  3
AcMeServices
 90
     1024
 91
        3
280
     0
281
     0
  0
CLASS
  1
ACDBENTITYCACHE
  2
AcMeEntityCache
  3
AcMeServices
 90
     1024
 91
        1
280
     0
281
     0
  0
CLASS
  1
GSMANAGER
  2
AcMeGSManager
  3
AcMeServices
 90
     1024
 91
        1
280
     0
281
     0
  0
CLASS
  1
AMDTINTERNALREACTOR
  2
AmdtInternalReactor
  3
AcMeServices
 90
     1024
 91
        2
280
     0
281
     0
  0
CLASS
  1
ACME_DATABASE
  2
AcMeDbDatabase
  3
AcMeServices
 90
     1024
 91
        1
280
     0
281
     0
  0
CLASS
  1
ACMDATADICTIONARY
  2
AcmDataDictionary
  3
"AcmSymBB|Product Description: AutoCAD Mechanical|Company: Autodesk, Inc."
 90
     1024
 91
        1
280
     0
281
     0
  0
CLASS
  1
ACMDATAENTRYBLOCK
  2
AcmDataEntryBlock
  3
AcmSymBB|Product Description: AutoCAD Mechanical|Company: Autodesk, Inc.
 90
     1024
 91
        1
280
     0
281
     0
  0
CLASS
  1
ACMSURFSTANDARDJIS
  2
AcmSurfTextStdJIS
  3
"Amdt_StdImp|Product Description: AutoCAD Mechanical|Company: Autodesk, Inc."
 90
     1024
 91
        2
280
     0
281
     0
  0
CLASS
  1
ACMFCFSTANDARDJIS
  2
AcmFCFStdJIS
  3
"Amdt_StdImp|Product Description: AutoCAD Mechanical|Company: Autodesk, Inc."
 90
     1024
 91
        2
280
     0
281
     0
  0
CLASS
  1
ACMWELDSTANDARDJIS
  2
AcmWeldingStdJIS
  3
"Amdt_StdImp|Product Description: AutoCAD Mechanical|Company: Autodesk, Inc."
 90
     1024
 91
        2
280
     0
281
     0
  0
CLASS
  1
ACMIDSTANDARDJIS
  2
AcmIdStdJIS
  3
"Amdt_StdImp|Product Description: AutoCAD Mechanical|Company: Autodesk, Inc."
 90
     1024
 91
        2
280
     0
281
     0
  0
CLASS
  1
ACMDATUMSTANDARDJIS
  2
AcmDatumStdJIS
  3
"Amdt_StdImp|Product Description: AutoCAD Mechanical|Company: Autodesk, Inc."
 90
     1024
 91
        2
280
     0
281
     0
  0
CLASS
  1
ACMBOMSTANDARDJIS
  2
AcmBOMStdJIS
  3
"Amdt_StdImp|Product Description: AutoCAD Mechanical|Company: Autodesk, Inc."
 90
     1024
 91
        2
280
     0
281
     0
  0
CLASS
  1
AMGOBJPROPCFG
  2
AmgObjPropCfg
  3
"AmgLay|Product Description: AutoCAD Mechanical|Company: Autodesk, Inc."
 90
     1025
 91
        1
280
     0
281
     0
  0
CLASS
  1
ACMSURFSTANDARDANSI
  2
AcmSurfTextStdANSI
  3
"Amdt_StdImp|Product Description: AutoCAD Mechanical|Company: Autodesk, Inc."
 90
     1024
 91
        2
280
     0
281
     0
  0
CLASS
  1
ACMFCFSTANDARDANSI
  2
AcmFCFStdANSI
  3
"Amdt_StdImp|Product Description: AutoCAD Mechanical|Company: Autodesk, Inc."
 90
     1024
 91
        2
280
     0
281
     0
  0
CLASS
  1
ACMWELDSTANDARDANSI
  2
AcmWeldingStdANSI
  3
"Amdt_StdImp|Product Description: AutoCAD Mechanical|Company: Autodesk, Inc."
 90
     1024
 91
        2
280
     0
281
     0
  0
CLASS
  1
ACMIDSTANDARDANSI
  2
AcmIdStdANSI
  3
"Amdt_StdImp|Product Description: AutoCAD Mechanical|Company: Autodesk, Inc."
 90
     1024
 91
        2
280
     0
281
     0
  0
CLASS
  1
ACMDATUMSTANDARDANSI
  2
AcmDatumStdANSI
  3
"Amdt_StdImp|Product Description: AutoCAD Mechanical|Company: Autodesk, Inc."
 90
     1024
 91
        2
280
     0
281
     0
  0
CLASS
  1
ACMBOMSTANDARDANSI
  2
AcmBOMStdANSI
  3
"Amdt_StdImp|Product Description: AutoCAD Mechanical|Company: Autodesk, Inc."
 90
     1024
 91
        2
280
     0
281
     0
  0
CLASS
  1
ACMSURFSTANDARDBSI
  2
AcmSurfTextStdBSI
  3
"Amdt_StdImp|Product Description: AutoCAD Mechanical|Company: Autodesk, Inc."
 90
     1024
 91
        2
280
     0
281
     0
  0
CLASS
  1
ACMFCFSTANDARDBSI
  2
AcmFCFStdBSI
  3
"Amdt_StdImp|Product Description: AutoCAD Mechanical|Company: Autodesk, Inc."
 90
     1024
 91
        2
280
     0
281
     0
  0
CLASS
  1
ACMWELDSTANDARDBSI
  2
AcmWeldingStdBSI
  3
"Amdt_StdImp|Product Description: AutoCAD Mechanical|Company: Autodesk, Inc."
 90
     1024
 91
        2
280
     0
281
     0
  0
CLASS
  1
ACMIDSTANDARDBSI
  2
AcmIdStdBSI
  3
"Amdt_StdImp|Product Description: AutoCAD Mechanical|Company: Autodesk, Inc."
 90
     1024
 91
        2
280
     0
281
     0
  0
CLASS
  1
ACMDATUMSTANDARDBSI
  2
AcmDatumStdBSI
  3
"Amdt_StdImp|Product Description: AutoCAD Mechanical|Company: Autodesk, Inc."
 90
     1024
 91
        2
280
     0
281
     0
  0
CLASS
  1
ACMBOMSTANDARDBSI
  2
AcmBOMStdBSI
  3
"Amdt_StdImp|Product Description: AutoCAD Mechanical|Company: Autodesk, Inc."
 90
     1024
 91
        2
280
     0
281
     0
  0
CLASS
  1
AMDTEDGESTANDARDDIN
  2
AmdtEdgeStdDIN
  3
"Amdt_StdImp|Product Description: AutoCAD Mechanical|Company: Autodesk, Inc."
 90
     1024
 91
        2
280
     0
281
     0
  0
CLASS
  1
ACMSURFSTANDARDDIN
  2
AcmSurfTextStdDIN
  3
"Amdt_StdImp|Product Description: AutoCAD Mechanical|Company: Autodesk, Inc."
 90
     1024
 91
        2
280
     0
281
     0
  0
CLASS
  1
ACMFCFSTANDARDDIN
  2
AcmFCFStdDIN
  3
"Amdt_StdImp|Product Description: AutoCAD Mechanical|Company: Autodesk, Inc."
 90
     1024
 91
        2
280
     0
281
     0
  0
CLASS
  1
ACMWELDSTANDARDDIN
  2
AcmWeldingStdDIN
  3
"Amdt_StdImp|Product Description: AutoCAD Mechanical|Company: Autodesk, Inc."
 90
     1024
 91
        2
280
     0
281
     0
  0
CLASS
  1
ACMIDSTANDARDDIN
  2
AcmIdStdDIN
  3
"Amdt_StdImp|Product Description: AutoCAD Mechanical|Company: Autodesk, Inc."
 90
     1024
 91
        2
280
     0
281
     0
  0
CLASS
  1
ACMDATUMSTANDARDDIN
  2
AcmDatumStdDIN
  3
"Amdt_StdImp|Product Description: AutoCAD Mechanical|Company: Autodesk, Inc."
 90
     1024
 91
        2
280
     0
281
     0
  0
CLASS
  1
ACMBOMSTANDARDDIN
  2
AcmBOMStdDIN
  3
"Amdt_StdImp|Product Description: AutoCAD Mechanical|Company: Autodesk, Inc."
 90
     1024
 91
        2
280
     0
281
     0
  0
CLASS
  1
AMDTEDGESTANDARDISO
  2
AmdtEdgeStdISO
  3
"Amdt_StdImp|Product Description: AutoCAD Mechanical|Company: Autodesk, Inc."
 90
     1024
 91
        2
280
     0
281
     0
  0
CLASS
  1
ACMSURFSTANDARDISO
  2
AcmSurfTextStdISO
  3
"Amdt_StdImp|Product Description: AutoCAD Mechanical|Company: Autodesk, Inc."
 90
     1024
 91
        2
280
     0
281
     0
  0
CLASS
  1
ACMFCFSTANDARDISO
  2
AcmFCFStdISO
  3
"Amdt_StdImp|Product Description: AutoCAD Mechanical|Company: Autodesk, Inc."
 90
     1024
 91
        2
280
     0
281
     0
  0
CLASS
  1
ACMWELDSTANDARDISO
  2
AcmWeldingStdISO
  3
"Amdt_StdImp|Product Description: AutoCAD Mechanical|Company: Autodesk, Inc."
 90
     1024
 91
        2
280
     0
281
     0
  0
CLASS
  1
ACMIDSTANDARDISO
  2
AcmIdStdISO
  3
"Amdt_StdImp|Product Description: AutoCAD Mechanical|Company: Autodesk, Inc."
 90
     1024
 91
        2
280
     0
281
     0
  0
CLASS
  1
ACMDATUMSTANDARDISO
  2
AcmDatumStdISO
  3
"Amdt_StdImp|Product Description: AutoCAD Mechanical|Company: Autodesk, Inc."
 90
     1024
 91
        2
280
     0
281
     0
  0
CLASS
  1
ACMBOMSTANDARDISO
  2
AcmBOMStdISO
  3
"Amdt_StdImp|Product Description: AutoCAD Mechanical|Company: Autodesk, Inc."
 90
     1024
 91
        2
280
     0
281
     0
  0
CLASS
  1
ACAMGFILTERDAT
  2
AcAmgFilterDat
  3
"AcadM|Product Description: AutoCAD Mechanical|Company: Autodesk, Inc."
 90
     1024
 91
        5
280
     0
281
     0
  0
CLASS
  1
ACMDIMBREAKPERSREACTOR
  2
AcmDimBreakPersReactor
  3
AmgDim|Product Description: AutoCAD Mechanical|Company: Autodesk, Inc.
 90
     4095
 91
        0
280
     0
281
     0
  0
CLASS
  1
ACGREFMASTER
  2
AcGrefMaster
  3
AcAttribServices
 90
     1024
 91
        1
280
     0
281
     0
  0
CLASS
  1
AM_DRAWING_MGR
  2
AcDmDwgMgr
  3
AcMechDwgViewMgmt
 90
     1024
 91
        1
280
     0
281
     0
  0
CLASS
  1
AM_DWG_DOCUMENT
  2
AcDmDwgDocument
  3
AcMechDwgViewMgmt
 90
     1024
 91
        1
280
     0
281
     0
  0
CLASS
  1
AM_DWG_SHEET
  2
AcDmSheet
  3
AcMechDwgViewMgmt
 90
     1024
 91
        1
280
     0
281
     0
  0
CLASS
  1
AM_VIEWDIMPARMAP
  2
AcDmViewDimParMap
  3
AcMechDwgViewMgmt
 90
     1024
 91
        1
280
     0
281
     0
  0
CLASS
  1
AM_DWGMGR_NAME
  2
AcDmDwgMgrName
  3
AcMechDwgViewMgmt
 90
     1024
 91
        1
280
     0
281
     0
  0
CLASS
  1
ACGREFACADMASTER
  2
AcGrefacadMaster
  3
AcGrefServices
 90
     1024
 91
        1
280
     0
281
     0
  0
CLASS
  1
AMDTMENUSTATEMGR
  2
AmdtMenuStateMgr
  3
McadcomServices
 90
     1024
 91
        1
280
     0
281
     0
  0
CLASS
  1
AMDTMCOMMENUSTATE
  2
AmdtMcomMenuState
  3
McadcomServices
 90
     1024
 91
        1
280
     0
281
     0
  0
CLASS
  1
AMIMASTER
  2
AmiMaster
  3
AmiServices
 90
     1024
 91
        1
280
     0
281
     0
  0
CLASS
  1
MAPIAMMOUDLE
  2
MApiAmModule
  3
MApiAmServices
 90
     1024
 91
        1
280
     0
281
     0
  0
CLASS
  1
AMDTADMENUSTATE
  2
AmdtAdMenuState
  3
DesignerServices
 90
     1024
 91
        1
280
     0
281
     0
  0
CLASS
  1
ADAPPL
  2
AcAdAppl
  3
DesignerServices
 90
     1024
 91
        1
280
     0
281
     0
  0
CLASS
  1
DEPMGR
  2
AcAdDepMgr
  3
DesignerServices
 90
     1024
 91
        1
280
     0
281
     0
  0
CLASS
  1
PARAMMGR
  2
AcAdParamMgr
  3
DesignerServices
 90
     1024
 91
        1
280
     0
281
     0
  0
CLASS
  1
PARAMSCOPE
  2
AcAdParamScope
  3
DesignerServices
 90
     1024
 91
        1
280
     0
281
     0
  0
CLASS
  1
NAMEDAPPL
  2
AcAdNamedAppl
  3
DesignerServices
 90
     1024
 91
        1
280
     0
281
     0
  0
CLASS
  1
AMDTDMMENUSTATE
  2
AmdtDmMenuState
  3
AcMechDwgViewMgmt
 90
     1024
 91
        1
280
     0
281
     0
  0
CLASS
  1
AMDTAMMENUSTATE
  2
AmdtAmMenuState
  3
DesignerAssemblies
 90
     1024
 91
        1
280
     0
281
     0
  0
CLASS
  1
ACAMPROJECT
  2
AcAmProject
  3
DesignerAssemblies
 90
     1024
 91
        1
280
     0
281
     0
  0
CLASS
  1
ACAMGRCOMPDEF
  2
AcAmGrCompDef
  3
DesignerAssemblies
 90
     1024
 91
        1
280
     0
281
     0
  0
CLASS
  1
ACCMCONTEXT
  2
AcCmContext
  3
DesignerAssemblies
 90
     1024
 91
        1
280
     0
281
     0
  0
CLASS
  1
ACAMCOMPDEF
  2
AcAmCompDef
  3
DesignerAssemblies
 90
     1024
 91
        1
280
     0
281
     0
  0
CLASS
  1
ACAMCOMPDEFMGR
  2
AcAmCompDefMgr
  3
DesignerAssemblies
 90
     1024
 91
        1
280
     0
281
     0
  0
CLASS
  1
AMCONTEXTMGR
  2
AcAmContextMgr
  3
DesignerAssemblies
 90
     1024
 91
        1
280
     0
281
     0
  0
CLASS
  1
ACAMCONTEXTMODELER
  2
AcAmContextModeler
  3
DesignerAssemblies
 90
     1024
 91
        1
280
     0
281
     0
  0
CLASS
  1
ACAMGTITLESTD
  2
AcAmgTitleStd
  3
"AmgTitle|Product Description: AutoCAD Mechanical|Company: Autodesk, Inc."
 90
     4095
 91
        5
280
     0
281
     0
  0
CLASS
  1
ACMDETAILSTANDARDJIS
  2
AmdtDetailSymStdJIS
  3
"Amdt_StdImp|Product Description: AutoCAD Mechanical|Company: Autodesk, Inc."
 90
     1024
 91
        1
280
     0
281
     0
  0
CLASS
  1
ACMSECTIONSTANDARDJIS
  2
AmdtSectionSymStdJIS
  3
"Amdt_StdImp|Product Description: AutoCAD Mechanical|Company: Autodesk, Inc."
 90
     1024
 91
        1
280
     0
281
     0
  0
CLASS
  1
ACMCENTERLINESTANDARDJIS
  2
AmdtCenterLineStdJIS
  3
"Amdt_StdImp|Product Description: AutoCAD Mechanical|Company: Autodesk, Inc."
 90
     1024
 91
        1
280
     0
281
     0
  0
CLASS
  1
ACMTHREADLINESTANDARDJIS
  2
AmdtThreadLineStdJIS
  3
"Amdt_StdImp|Product Description: AutoCAD Mechanical|Company: Autodesk, Inc."
 90
     1024
 91
        1
280
     0
281
     0
  0
CLASS
  1
ACMNOTESTANDARDJIS
  2
AmdtNoteStdJIS
  3
"Amdt_StdImp|Product Description: AutoCAD Mechanical|Company: Autodesk, Inc."
 90
     1024
 91
        1
280
     0
281
     0
  0
CLASS
  1
AMDTNOTETEMPLATEDB
  2
AmdtNoteTemplateDB
  3
AcmSymBB|Product Description: AutoCAD Mechanical|Company: Autodesk, Inc.
 90
     1024
 91
       20
280
     0
281
     0
  0
CLASS
  1
ACMDETAILSTANDARDANSI
  2
AmdtDetailSymStdANSI
  3
"Amdt_StdImp|Product Description: AutoCAD Mechanical|Company: Autodesk, Inc."
 90
     1024
 91
        1
280
     0
281
     0
  0
CLASS
  1
ACMSECTIONSTANDARDANSI
  2
AmdtSectionSymStdANSI
  3
"Amdt_StdImp|Product Description: AutoCAD Mechanical|Company: Autodesk, Inc."
 90
     1024
 91
        1
280
     0
281
     0
  0
CLASS
  1
ACMCENTERLINESTANDARDANSI
  2
AmdtCenterLineStdANSI
  3
"Amdt_StdImp|Product Description: AutoCAD Mechanical|Company: Autodesk, Inc."
 90
     1024
 91
        1
280
     0
281
     0
  0
CLASS
  1
ACMTHREADLINESTANDARDANSI
  2
AmdtThreadLineStdANSI
  3
"Amdt_StdImp|Product Description: AutoCAD Mechanical|Company: Autodesk, Inc."
 90
     1024
 91
        1
280
     0
281
     0
  0
CLASS
  1
ACMNOTESTANDARDANSI
  2
AmdtNoteStdANSI
  3
"Amdt_StdImp|Product Description: AutoCAD Mechanical|Company: Autodesk, Inc."
 90
     1024
 91
        1
280
     0
281
     0
  0
CLASS
  1
ACMDETAILSTANDARDBSI
  2
AmdtDetailSymStdBSI
  3
"Amdt_StdImp|Product Description: AutoCAD Mechanical|Company: Autodesk, Inc."
 90
     1024
 91
        1
280
     0
281
     0
  0
CLASS
  1
ACMSECTIONSTANDARDBSI
  2
AmdtSectionSymStdBSI
  3
"Amdt_StdImp|Product Description: AutoCAD Mechanical|Company: Autodesk, Inc."
 90
     1024
 91
        1
280
     0
281
     0
  0
CLASS
  1
ACMCENTERLINESTANDARDBSI
  2
AmdtCenterLineStdBSI
  3
"Amdt_StdImp|Product Description: AutoCAD Mechanical|Company: Autodesk, Inc."
 90
     1024
 91
        1
280
     0
281
     0
  0
CLASS
  1
ACMTHREADLINESTANDARDBSI
  2
AmdtThreadLineStdBSI
  3
"Amdt_StdImp|Product Description: AutoCAD Mechanical|Company: Autodesk, Inc."
 90
     1024
 91
        1
280
     0
281
     0
  0
CLASS
  1
ACMNOTESTANDARDBSI
  2
AmdtNoteStdBSI
  3
"Amdt_StdImp|Product Description: AutoCAD Mechanical|Company: Autodesk, Inc."
 90
     1024
 91
        1
280
     0
281
     0
  0
CLASS
  1
ACMDETAILSTANDARDDIN
  2
AmdtDetailSymStdDIN
  3
"Amdt_StdImp|Product Description: AutoCAD Mechanical|Company: Autodesk, Inc."
 90
     1024
 91
        1
280
     0
281
     0
  0
CLASS
  1
ACMSECTIONSTANDARDDIN
  2
AmdtSectionSymStdDIN
  3
"Amdt_StdImp|Product Description: AutoCAD Mechanical|Company: Autodesk, Inc."
 90
     1024
 91
        1
280
     0
281
     0
  0
CLASS
  1
ACMCENTERLINESTANDARDDIN
  2
AmdtCenterLineStdDIN
  3
"Amdt_StdImp|Product Description: AutoCAD Mechanical|Company: Autodesk, Inc."
 90
     1024
 91
        1
280
     0
281
     0
  0
CLASS
  1
ACMTHREADLINESTANDARDDIN
  2
AmdtThreadLineStdDIN
  3
"Amdt_StdImp|Product Description: AutoCAD Mechanical|Company: Autodesk, Inc."
 90
     1024
 91
        1
280
     0
281
     0
  0
CLASS
  1
ACMNOTESTANDARDDIN
  2
AmdtNoteStdDIN
  3
"Amdt_StdImp|Product Description: AutoCAD Mechanical|Company: Autodesk, Inc."
 90
     1024
 91
        1
280
     0
281
     0
  0
CLASS
  1
ACMDETAILSTANDARDISO
  2
AmdtDetailSymStdISO
  3
"Amdt_StdImp|Product Description: AutoCAD Mechanical|Company: Autodesk, Inc."
 90
     1024
 91
        1
280
     0
281
     0
  0
CLASS
  1
ACMSECTIONSTANDARDISO
  2
AmdtSectionSymStdISO
  3
"Amdt_StdImp|Product Description: AutoCAD Mechanical|Company: Autodesk, Inc."
 90
     1024
 91
        1
280
     0
281
     0
  0
CLASS
  1
ACMCENTERLINESTANDARDISO
  2
AmdtCenterLineStdISO
  3
"Amdt_StdImp|Product Description: AutoCAD Mechanical|Company: Autodesk, Inc."
 90
     1024
 91
        1
280
     0
281
     0
  0
CLASS
  1
ACMTHREADLINESTANDARDISO
  2
AmdtThreadLineStdISO
  3
"Amdt_StdImp|Product Description: AutoCAD Mechanical|Company: Autodesk, Inc."
 90
     1024
 91
        1
280
     0
281
     0
  0
CLASS
  1
ACMNOTESTANDARDISO
  2
AmdtNoteStdISO
  3
"Amdt_StdImp|Product Description: AutoCAD Mechanical|Company: Autodesk, Inc."
 90
     1024
 91
        1
280
     0
281
     0
  0
CLASS
  1
ACAMGLAYSTD
  2
AcAmgLayStd
  3
"AmgLay|Product Description: AutoCAD Mechanical|Company: Autodesk, Inc."
 90
     1024
 91
        5
280
     0
281
     0
  0
CLASS
  1
ACAMGDIMSTD
  2
AcAmgDimStd
  3
"AmgDim|Product Description: AutoCAD Mechanical|Company: Autodesk, Inc."
 90
     1024
 91
        5
280
     0
281
     0
  0
CLASS
  1
ACAMGHOLECHARTSTDANSI
  2
AcAmgHoleChartStdANSI
  3
AmgDim|Product Description: AutoCAD Mechanical|Company: Autodesk, Inc.
 90
     1024
 91
        1
280
     0
281
     0
  0
CLASS
  1
ACAMGHOLECHARTSTDBSI
  2
AcAmgHoleChartStdBSI
  3
AmgDim|Product Description: AutoCAD Mechanical|Company: Autodesk, Inc.
 90
     1024
 91
        1
280
     0
281
     0
  0
CLASS
  1
ACAMGHOLECHARTSTDDIN
  2
AcAmgHoleChartStdDIN
  3
AmgDim|Product Description: AutoCAD Mechanical|Company: Autodesk, Inc.
 90
     1024
 91
        1
280
     0
281
     0
  0
CLASS
  1
ACAMGHOLECHARTSTDISO
  2
AcAmgHoleChartStdISO
  3
AmgDim|Product Description: AutoCAD Mechanical|Company: Autodesk, Inc.
 90
     1024
 91
        1
280
     0
281
     0
  0
CLASS
  1
ACAMGHOLECHARTSTDJIS
  2
AcAmgHoleChartStdJIS
  3
AmgDim|Product Description: AutoCAD Mechanical|Company: Autodesk, Inc.
 90
     1024
 91
        1
280
     0
281
     0
  0
CLASS
  1
CATALOGSTATE
  2
AcAmCatalogState
  3
DesignerAssemblies
 90
     1024
 91
        1
280
     0
281
     0
  0
CLASS
  1
ACAMGRCOMPDEFSET
  2
AcAmGrCompDefSet
  3
DesignerAssemblies
 90
     1024
 91
        1
280
     0
281
     0
  0
CLASS
  1
AMDTBROWSERDBTAB
  2
AmdtBrowserDbTab
  3
McadcomServices
 90
     1024
 91
        1
280
     0
281
     0
  0
CLASS
  1
CBROWSERAPPOBJECT
  2
CBrowserAppObject
  3
McadcomServices
 90
     1024
 91
        3
280
     0
281
     0
  0
CLASS
  1
DM_PLACEHOLDER
  2
AcDmSelsetPlaceholder
  3
AcMechDwgViewMgmt
 90
     1024
 91
        1
280
     0
281
     0
  0
CLASS
  1
TABLESTYLE
  2
AcDbTableStyle
  3
ObjectDBX Classes
 90
     4095
 91
        1
280
     0
281
     0
  0
CLASS
  1
VAACXREFPANELOBJECT
  2
VaAcXREFPanelObject
  3
VAAC_ADDIN
 90
        0
 91
        0
280
     0
281
     0
  0
CLASS
  1
VAACIMAGEINVENTORY
  2
VaAcImageInventory
  3
VAAC_ADDIN
 90
        0
 91
        0
280
     0
281
     0
  0
CLASS
  1
MATERIAL
  2
AcDbMaterial
  3
ObjectDBX Classes
 90
     1153
 91
        3
280
     0
281
     0
  0
CLASS
  1
VISUALSTYLE
  2
AcDbVisualStyle
  3
ObjectDBX Classes
 90
     4095
 91
       16
280
     0
281
     0
  0
CLASS
  1
ACRFATTGENMGR
  2
AcRfAttGeneralMgr
  3
AcAttribServices
 90
     1024
 91
        1
280
     0
281
     0
  0
CLASS
  1
ACRFOBJATTMGR
  2
AcRfObjAttGroupMgr
  3
AcAttribServices
 90
     1024
 91
        1
280
     0
281
     0
  0
CLASS
  1
ACRFMCADAPIATTHOLDER
  2
AcRfMCADAPIAttHolder
  3
AcAttribServices
 90
     1024
 91
        1
280
     0
281
     0
  0
CLASS
  1
AMDTSYSATTR
  2
AmdtSystemAttribute
  3
AcAttribServices
 90
     1024
 91
        1
280
     0
281
     0
  0
CLASS
  1
ACMTAPERSTANDARDJIS
  2
AcmTaperStdJIS
  3
"Amdt_StdImp|Product Description: AutoCAD Mechanical|Company: Autodesk, Inc."
 90
     1024
 91
        1
280
     0
281
     0
  0
CLASS
  1
ACMTAPERSTANDARDANSI
  2
AcmTaperStdANSI
  3
"Amdt_StdImp|Product Description: AutoCAD Mechanical|Company: Autodesk, Inc."
 90
     1024
 91
        1
280
     0
281
     0
  0
CLASS
  1
ACMTAPERSTANDARDBSI
  2
AcmTaperStdBSI
  3
"Amdt_StdImp|Product Description: AutoCAD Mechanical|Company: Autodesk, Inc."
 90
     1024
 91
        1
280
     0
281
     0
  0
CLASS
  1
ACMTAPERSTANDARDDIN
  2
AcmTaperStdDIN
  3
"Amdt_StdImp|Product Description: AutoCAD Mechanical|Company: Autodesk, Inc."
 90
     1024
 91
        1
280
     0
281
     0
  0
CLASS
  1
ACMTAPERSTANDARDISO
  2
AcmTaperStdISO
  3
"Amdt_StdImp|Product Description: AutoCAD Mechanical|Company: Autodesk, Inc."
 90
     1024
 91
        1
280
     0
281
     0
  0
CLASS
  1
CAMSSTRUCTBTNSTATE
  2
StructBtnState
  3
DesignerAssemblies
 90
     1024
 91
        1
280
     0
281
     0
  0
CLASS
  1
SCALE
  2
AcDbScale
  3
ObjectDBX Classes
 90
     1153
 91
       33
280
     0
281
     0
  0
CLASS
  1
MLEADERSTYLE
  2
AcDbMLeaderStyle
  3
ACDB_MLEADERSTYLE_CLASS
 90
     4095
 91
        1
280
     0
281
     0
  0
CLASS
  1
ACMANOOTATIONVIEWSTANDARDJIS
  2
AmdtAnViewStdJIS
  3
"Amdt_StdImp|Product Description: AutoCAD Mechanical|Company: Autodesk, Inc."
 90
     1024
 91
        1
280
     0
281
     0
  0
CLASS
  1
ACMANOOTATIONVIEWSTANDARDANSI
  2
AmdtAnViewStdANSI
  3
"Amdt_StdImp|Product Description: AutoCAD Mechanical|Company: Autodesk, Inc."
 90
     1024
 91
        1
280
     0
281
     0
  0
CLASS
  1
ACMANOOTATIONVIEWSTANDARDBSI
  2
AmdtAnViewStdBSI
  3
"Amdt_StdImp|Product Description: AutoCAD Mechanical|Company: Autodesk, Inc."
 90
     1024
 91
        1
280
     0
281
     0
  0
CLASS
  1
ACMANOOTATIONVIEWSTANDARDDIN
  2
AmdtAnViewStdDIN
  3
"Amdt_StdImp|Product Description: AutoCAD Mechanical|Company: Autodesk, Inc."
 90
     1024
 91
        1
280
     0
281
     0
  0
CLASS
  1
ACMANOOTATIONVIEWSTANDARDISO
  2
AmdtAnViewStdISO
  3
"Amdt_StdImp|Product Description: AutoCAD Mechanical|Company: Autodesk, Inc."
 90
     1024
 91
        1
280
     0
281
     0
  0
CLASS
  1
CELLSTYLEMAP
  2
AcDbCellStyleMap
  3
ObjectDBX Classes
 90
     1152
 91
        3
280
     0
281
     0
  0
CLASS
  1
SORTENTSTABLE
  2
AcDbSortentsTable
  3
ObjectDBX Classes
 90
        0
 91
        1
280
     0
281
     0
  0
ENDSEC
  0
SECTION
  2
TABLES
  0
TABLE
  2
VPORT
  5
13
330
0
100
AcDbSymbolTable
 70
     1
  0
VPORT
  5
C08
330
13
100
AcDbSymbolTableRecord
100
AcDbViewportTableRecord
  2
*Active
 70
     0
 10
0.0
 20
0.0
 11
1.0
 21
1.0
 12
503.4639740230363
 22
468.998531025368
 13
0.0
 23
0.0
 14
10.0
 24
10.0
 15
10.0
 25
10.0
 16
0.0
 26
0.0
 36
1.0
 17
0.0
 27
0.0
 37
0.0
 40
841.9731092564543
 41
1.528528528528528
 42
50.0
 43
0.0
 44
0.0
 50
0.0
 51
0.0
 71
     0
 72
   100
 73
     1
 74
     0
 75
     0
 76
     0
 77
     0
 78
     0
281
     0
 65
     1
110
0.0
120
0.0
130
0.0
111
1.0
121
0.0
131
0.0
112
0.0
122
1.0
132
0.0
 79
     0
146
0.0
  0
ENDTAB
  0
TABLE
  2
LTYPE
  5
E
330
0
100
AcDbSymbolTable
 70
    21
  0
LTYPE
  5
F
330
E
100
AcDbSymbolTableRecord
100
AcDbLinetypeTableRecord
  2
BYBLOCK
 70
     0
  3

 72
    65
 73
     0
 40
0.0
  0
LTYPE
  5
10
330
E
100
AcDbSymbolTableRecord
100
AcDbLinetypeTableRecord
  2
BYLAYER
 70
     0
  3

 72
    65
 73
     0
 40
0.0
  0
LTYPE
  5
6
330
E
100
AcDbSymbolTableRecord
100
AcDbLinetypeTableRecord
  2
CONTINUOUS
 70
     0
  3
Solid line
 72
    65
 73
     0
 40
0.0
  0
LTYPE
  5
3E
330
E
100
AcDbSymbolTableRecord
100
AcDbLinetypeTableRecord
  2
MITTE
 70
     0
  3
____ _ ____ _ ____ _ ____ _ ____ _ ____ _ ____ 
 72
    65
 73
     4
 40
2.0
 49
1.25
 74
     0
 49
-0.25
 74
     0
 49
0.25
 74
     0
 49
-0.25
 74
     0
  0
LTYPE
  5
EA
330
E
100
AcDbSymbolTableRecord
100
AcDbLinetypeTableRecord
  2
GESTRICHELT
 70
     0
  3
__ __ __ __ __ __ __ __ __ __ __ __ __ __ __ __
 72
    65
 73
     2
 40
0.75
 49
0.5
 74
     0
 49
-0.25
 74
     0
  0
LTYPE
  5
2F8
330
E
100
AcDbSymbolTableRecord
100
AcDbLinetypeTableRecord
  2
ACJISTGB
 70
     0
  3
__ . . __ . .
 72
    65
 73
     6
 40
9.0
 49
4.0
 74
     0
 49
-1.0
 74
     0
 49
1.0
 74
     0
 49
-1.0
 74
     0
 49
1.0
 74
     0
 49
-1.0
 74
     0
  0
LTYPE
  5
2F9
330
E
100
AcDbSymbolTableRecord
100
AcDbLinetypeTableRecord
  2
ACJISTGL
 70
     0
  3
_ _ _ _ _
 72
    65
 73
     2
 40
3.0
 49
2.0
 74
     0
 49
-1.0
 74
     0
  0
LTYPE
  5
2FC
330
E
100
AcDbSymbolTableRecord
100
AcDbLinetypeTableRecord
  2
ACANSTGB
 70
     0
  3
__ . . __ . .
 72
    65
 73
     6
 40
0.35433070866
 49
0.15748031496
 74
     0
 49
-0.03937007874
 74
     0
 49
0.03937007874
 74
     0
 49
-0.03937007874
 74
     0
 49
0.03937007874
 74
     0
 49
-0.03937007874
 74
     0
  0
LTYPE
  5
2FD
330
E
100
AcDbSymbolTableRecord
100
AcDbLinetypeTableRecord
  2
ACANSTGL
 70
     0
  3
_ _ _ _ _
 72
    65
 73
     2
 40
0.11811023622
 49
0.07874015748
 74
     0
 49
-0.03937007874
 74
     0
  0
LTYPE
  5
300
330
E
100
AcDbSymbolTableRecord
100
AcDbLinetypeTableRecord
  2
ACBSIWELD
 70
     0
  3
_ _ _ _ _
 72
    65
 73
     2
 40
2.0
 49
2.0
 74
     0
 49
-1.0
 74
     0
  0
LTYPE
  5
301
330
E
100
AcDbSymbolTableRecord
100
AcDbLinetypeTableRecord
  2
ACBSITGB
 70
     0
  3
__ . . __ . .
 72
    65
 73
     6
 40
9.0
 49
4.0
 74
     0
 49
-1.0
 74
     0
 49
1.0
 74
     0
 49
-1.0
 74
     0
 49
1.0
 74
     0
 49
-1.0
 74
     0
  0
LTYPE
  5
302
330
E
100
AcDbSymbolTableRecord
100
AcDbLinetypeTableRecord
  2
ACBSITGL
 70
     0
  3
_ _ _ _ _
 72
    65
 73
     2
 40
3.0
 49
2.0
 74
     0
 49
-1.0
 74
     0
  0
LTYPE
  5
305
330
E
100
AcDbSymbolTableRecord
100
AcDbLinetypeTableRecord
  2
ACDINWELD
 70
     0
  3
_ _ _ _ _
 72
    65
 73
     2
 40
2.0
 49
2.0
 74
     0
 49
-1.0
 74
     0
  0
LTYPE
  5
306
330
E
100
AcDbSymbolTableRecord
100
AcDbLinetypeTableRecord
  2
ACDINTGB
 70
     0
  3
__ . . __ . .
 72
    65
 73
     6
 40
9.0
 49
4.0
 74
     0
 49
-1.0
 74
     0
 49
1.0
 74
     0
 49
-1.0
 74
     0
 49
1.0
 74
     0
 49
-1.0
 74
     0
  0
LTYPE
  5
307
330
E
100
AcDbSymbolTableRecord
100
AcDbLinetypeTableRecord
  2
ACDINTGL
 70
     0
  3
_ _ _ _ _
 72
    65
 73
     2
 40
3.0
 49
2.0
 74
     0
 49
-1.0
 74
     0
  0
LTYPE
  5
30A
330
E
100
AcDbSymbolTableRecord
100
AcDbLinetypeTableRecord
  2
ACISOWELD
 70
     0
  3
_ _ _ _ _
 72
    65
 73
     2
 40
2.0
 49
2.0
 74
     0
 49
-1.0
 74
     0
  0
LTYPE
  5
30B
330
E
100
AcDbSymbolTableRecord
100
AcDbLinetypeTableRecord
  2
ACISOTGB
 70
     0
  3
__ . . __ . .
 72
    65
 73
     6
 40
9.0
 49
4.0
 74
     0
 49
-1.0
 74
     0
 49
1.0
 74
     0
 49
-1.0
 74
     0
 49
1.0
 74
     0
 49
-1.0
 74
     0
  0
LTYPE
  5
30C
330
E
100
AcDbSymbolTableRecord
100
AcDbLinetypeTableRecord
  2
ACISOTGL
 70
     0
  3
_ _ _ _ _
 72
    65
 73
     2
 40
3.0
 49
2.0
 74
     0
 49
-1.0
 74
     0
  0
LTYPE
  5
34D
330
E
100
AcDbSymbolTableRecord
100
AcDbLinetypeTableRecord
  2
Amconstr
 70
     0
  3
_______________________
 72
    65
 73
     2
 40
9999.0
 49
9999.0
 74
     0
 49
0.0
 74
     0
  0
LTYPE
  5
353
330
E
100
AcDbSymbolTableRecord
100
AcDbLinetypeTableRecord
  2
PHANTOM2
 70
     0
  3
Phantom (.5x) ___ _ _ ___ _ _ ___ _ _ ___ _ _
 72
    65
 73
     6
 40
1.25
 49
0.625
 74
     0
 49
-0.125
 74
     0
 49
0.125
 74
     0
 49
-0.125
 74
     0
 49
0.125
 74
     0
 49
-0.125
 74
     0
  0
LTYPE
  5
354
330
E
100
AcDbSymbolTableRecord
100
AcDbLinetypeTableRecord
  2
Amzigzag2
 70
     0
  3
/\/-/\/-/\/-/\/-/\/-/\/
 72
    65
 73
     2
 40
0.4401
 49
0.0001
 74
     4
 75
   135
340
351
 46
0.0016
 50
0.0
 44
0.0
 45
0.0
 49
-0.4400000000000001
 74
     0
  0
LTYPE
  5
B35
330
E
100
AcDbSymbolTableRecord
100
AcDbLinetypeTableRecord
  2
HIDDEN
 70
     0
  3
Verdeckt
 72
    65
 73
     2
 40
0.375
 49
0.25
 74
     0
 49
-0.125
 74
     0
  0
LTYPE
  5
B36
330
E
100
AcDbSymbolTableRecord
100
AcDbLinetypeTableRecord
  2
CENTER
 70
     0
  3
Mitte ____ _ ____ _ ____ _ ____ _ ____ _ ____
 72
    65
 73
     4
 40
2.0
 49
1.25
 74
     0
 49
-0.25
 74
     0
 49
0.25
 74
     0
 49
-0.25
 74
     0
  0
ENDTAB
  0
TABLE
  2
LAYER
  5
B
330
0
100
AcDbSymbolTable
 70
     5
  0
LAYER
  5
5
102
{ACAD_XDICTIONARY
360
C93
102
}
330
B
100
AcDbSymbolTableRecord
100
AcDbLayerTableRecord
  2
0
 70
     0
 62
     7
  6
CONTINUOUS
370
    -3
390
322
  0
LAYER
  5
21
102
{ACAD_XDICTIONARY
360
C95
102
}
330
B
100
AcDbSymbolTableRecord
100
AcDbLayerTableRecord
  2
BEM
 70
     1
 62
     1
  6
CONTINUOUS
370
    -3
390
322
  0
LAYER
  5
3D
102
{ACAD_XDICTIONARY
360
C97
102
}
330
B
100
AcDbSymbolTableRecord
100
AcDbLayerTableRecord
  2
MITTE
 70
     0
 62
     6
  6
MITTE
370
    -3
390
322
  0
LAYER
  5
62
102
{ACAD_XDICTIONARY
360
C99
102
}
330
B
100
AcDbSymbolTableRecord
100
AcDbLayerTableRecord
  2
LINIE
 70
     0
 62
     6
  6
CONTINUOUS
370
    -3
390
322
  0
LAYER
  5
2A
330
B
100
AcDbSymbolTableRecord
100
AcDbLayerTableRecord
  2
Defpoints
 70
     0
 62
     7
  6
CONTINUOUS
290
     0
370
    -3
390
322
  0
ENDTAB
  0
TABLE
  2
STYLE
  5
C
330
0
100
AcDbSymbolTable
 70
    12
  0
STYLE
  5
D
330
C
100
AcDbSymbolTableRecord
100
AcDbTextStyleTableRecord
  2
STANDARD
 70
     0
 40
0.0
 41
1.0
 50
0.0
 71
     0
 42
10.0
  3
romans.shx
  4

  0
STYLE
  5
2F6
330
C
100
AcDbSymbolTableRecord
100
AcDbTextStyleTableRecord
  2
ACJISTS
 70
     0
 40
1.0
 41
1.0
 50
0.0
 71
     0
 42
10.0
  3
isocp.shx
  4
bigfont.shx
  0
STYLE
  5
2F7
330
C
100
AcDbSymbolTableRecord
100
AcDbTextStyleTableRecord
  2
ACJISGDT
 70
     0
 40
0.0
 41
1.0
 50
0.0
 71
     0
 42
10.0
  3
amgdt.shx
  4

  0
STYLE
  5
2FA
330
C
100
AcDbSymbolTableRecord
100
AcDbTextStyleTableRecord
  2
ACANSTSB
 70
     0
 40
1.0
 41
1.0
 50
0.0
 71
     0
 42
10.0
  3
romans.shx
  4

  0
STYLE
  5
2FB
330
C
100
AcDbSymbolTableRecord
100
AcDbTextStyleTableRecord
  2
ACANSGDT
 70
     0
 40
0.0
 41
1.0
 50
0.0
 71
     0
 42
10.0
  3
amgdt.shx
  4

  0
STYLE
  5
2FE
330
C
100
AcDbSymbolTableRecord
100
AcDbTextStyleTableRecord
  2
ACBSITS
 70
     0
 40
1.0
 41
1.0
 50
0.0
 71
     0
 42
10.0
  3
isocp.shx
  4

  0
STYLE
  5
2FF
330
C
100
AcDbSymbolTableRecord
100
AcDbTextStyleTableRecord
  2
ACBSIGDT
 70
     0
 40
0.0
 41
1.0
 50
0.0
 71
     0
 42
10.0
  3
amgdt.shx
  4

  0
STYLE
  5
303
330
C
100
AcDbSymbolTableRecord
100
AcDbTextStyleTableRecord
  2
ACDINTS
 70
     0
 40
1.0
 41
1.0
 50
0.0
 71
     0
 42
10.0
  3
isocp.shx
  4

  0
STYLE
  5
304
330
C
100
AcDbSymbolTableRecord
100
AcDbTextStyleTableRecord
  2
ACDINGDT
 70
     0
 40
0.0
 41
1.0
 50
0.0
 71
     0
 42
10.0
  3
amgdt.shx
  4

  0
STYLE
  5
308
330
C
100
AcDbSymbolTableRecord
100
AcDbTextStyleTableRecord
  2
ACISOTS
 70
     0
 40
1.0
 41
1.0
 50
0.0
 71
     0
 42
10.0
  3
isocp.shx
  4

  0
STYLE
  5
309
330
C
100
AcDbSymbolTableRecord
100
AcDbTextStyleTableRecord
  2
ACISOGDT
 70
     0
 40
0.0
 41
1.0
 50
0.0
 71
     0
 42
10.0
  3
amgdt.shx
  4

  0
STYLE
  5
351
330
C
100
AcDbSymbolTableRecord
100
AcDbTextStyleTableRecord
  2

 70
     1
 40
0.0
 41
1.0
 50
0.0
 71
     0
 42
10.0
  3
ltypeshp.shx
  4

  0
ENDTAB
  0
TABLE
  2
VIEW
  5
11
330
0
100
AcDbSymbolTable
 70
     0
  0
ENDTAB
  0
TABLE
  2
UCS
  5
12
330
0
100
AcDbSymbolTable
 70
     0
  0
ENDTAB
  0
TABLE
  2
APPID
  5
15
330
0
100
AcDbSymbolTable
 70
    13
  0
APPID
  5
16
330
15
100
AcDbSymbolTableRecord
100
AcDbRegAppTableRecord
  2
ACAD
 70
     0
  0
APPID
  5
2BA
330
15
100
AcDbSymbolTableRecord
100
AcDbRegAppTableRecord
  2
MCAD_NO_VIS
 70
     0
  0
APPID
  5
331
330
15
100
AcDbSymbolTableRecord
100
AcDbRegAppTableRecord
  2
ACAD_TEMP_GRAPHIC
 70
     0
  0
APPID
  5
60A
330
15
100
AcDbSymbolTableRecord
100
AcDbRegAppTableRecord
  2
GENIUS_GENODEF_13
 70
     0
  0
APPID
  5
60B
330
15
100
AcDbSymbolTableRecord
100
AcDbRegAppTableRecord
  2
GENIUS_GENOBJ-N-FIL_13
 70
     0
  0
APPID
  5
B4B
330
15
100
AcDbSymbolTableRecord
100
AcDbRegAppTableRecord
  2
AD_DRAW
 70
     0
  0
APPID
  5
B4E
330
15
100
AcDbSymbolTableRecord
100
AcDbRegAppTableRecord
  2
ACATTRIBSERVICES
 70
     0
  0
APPID
  5
B6C
330
15
100
AcDbSymbolTableRecord
100
AcDbRegAppTableRecord
  2
DESIGNERASSEMBLIES
 70
     0
  0
APPID
  5
BDF
330
15
100
AcDbSymbolTableRecord
100
AcDbRegAppTableRecord
  2
ACADM_DIM_EDIT
 70
     0
  0
APPID
  5
BE0
330
15
100
AcDbSymbolTableRecord
100
AcDbRegAppTableRecord
  2
AMDT_DM_ADJ
 70
     0
  0
APPID
  5
C4C
330
15
100
AcDbSymbolTableRecord
100
AcDbRegAppTableRecord
  2
ACAD_PSEXT
 70
     0
  0
APPID
  5
C73
330
15
100
AcDbSymbolTableRecord
100
AcDbRegAppTableRecord
  2
ACAD_MLEADERVER
 70
     0
  0
APPID
  5
CA6
330
15
100
AcDbSymbolTableRecord
100
AcDbRegAppTableRecord
  2
DCO15
 70
     0
  0
ENDTAB
  0
TABLE
  2
DIMSTYLE
  5
17
330
0
100
AcDbSymbolTable
 70
    36
100
AcDbDimStyleTable
 71
     1
340
1D
  0
DIMSTYLE
105
1D
102
{ACAD_REACTORS
330
78C
330
791
330
792
330
795
330
79A
330
7B9
330
7FE
330
800
330
812
330
84A
330
87D
330
881
330
882
330
883
330
892
330
8B1
330
8EE
102
}
330
17
100
AcDbSymbolTableRecord
100
AcDbDimStyleTableRecord
  2
ISO-25
 70
     0
 41
7.0
 42
0.0
 43
7.0
 44
1.25
 73
     0
 74
     0
 77
     1
 78
     8
140
10.0
141
0.0
144
0.5
147
4.0
172
     1
176
   256
177
   256
178
   256
284
     8
288
     1
340
D
  0
DIMSTYLE
105
CE
330
17
100
AcDbSymbolTableRecord
100
AcDbDimStyleTableRecord
  2
STANDARD
 70
     0
  4
"
 41
7.0
 42
0.0
 43
7.0
 44
1.25
 47
0.1
 48
0.1
 73
     0
 74
     0
 77
     1
 78
     8
140
10.0
141
0.0
143
0.0393701
144
0.5
147
4.0
172
     1
176
   256
177
   256
178
   256
271
     2
272
     3
274
     4
283
     0
284
     8
288
     1
340
D
  0
DIMSTYLE
105
BA7
330
17
100
AcDbSymbolTableRecord
100
AcDbDimStyleTableRecord
  2
AM_ANSI
 70
     0
  4
mm
 41
0.1
 42
0.05
 43
0.5
 44
0.1
 47
0.1
 48
0.1
 78
     7
 79
     2
140
0.12
141
0.0
146
0.71
147
0.06
176
   256
177
   256
178
     2
274
     4
284
     7
340
D
371
    -1
372
    -1
  0
DIMSTYLE
105
BA8
330
17
100
AcDbSymbolTableRecord
100
AcDbDimStyleTableRecord
  2
AM_ANSI$3
 70
     0
  4
mm
 41
0.1
 42
0.05
 43
0.5
 44
0.1
 47
0.1
 48
0.1
 78
     7
 79
     2
140
0.12
141
0.0
146
0.71
147
0.06
176
   256
177
   256
178
     2
274
     4
284
     7
288
     1
289
     0
340
D
371
    -1
372
    -1
  0
DIMSTYLE
105
BA9
330
17
100
AcDbSymbolTableRecord
100
AcDbDimStyleTableRecord
  2
AM_ANSI$4
 70
     0
  4
mm
 41
0.1
 42
0.05
 43
0.5
 44
0.1
 47
0.1
 48
0.1
 78
     7
 79
     2
140
0.12
141
0.0
146
0.71
147
0.06
176
   256
177
   256
178
     2
274
     4
284
     7
288
     1
289
     0
340
D
371
    -1
372
    -1
  0
DIMSTYLE
105
BAA
330
17
100
AcDbSymbolTableRecord
100
AcDbDimStyleTableRecord
  2
AM_ANSI$7
 70
     0
  4
mm
 41
0.1
 42
0.05
 43
0.5
 44
0.1
 47
0.1
 48
0.1
 78
     7
 79
     2
140
0.24
141
0.0
146
0.71
147
0.06
176
   256
177
   256
178
     2
274
     4
284
     7
340
D
371
    -1
372
    -1
  0
DIMSTYLE
105
BAB
330
17
100
AcDbSymbolTableRecord
100
AcDbDimStyleTableRecord
  2
AM_ANSI$SF
 70
     0
  4
mm
 41
0.1
 42
0.05
 43
0.5
 44
0.1
 47
0.1
 48
0.1
 75
     1
 76
     1
 78
     7
 79
     2
140
0.12
141
0.0
146
0.71
147
0.06
176
   256
177
   256
178
     2
274
     4
284
     7
340
D
371
    -1
372
    -1
  0
DIMSTYLE
105
BB0
330
17
100
AcDbSymbolTableRecord
100
AcDbDimStyleTableRecord
  2
AM_ANSI$SH
 70
     0
  4
mm
 41
0.1
 42
0.05
 43
0.5
 44
0.1
 47
0.1
 48
0.1
 75
     1
 76
     1
 78
     7
 79
     2
140
0.12
141
0.0
146
0.71
147
0.06
173
     1
176
   256
177
   256
178
     2
274
     4
284
     7
340
D
343
BAC
371
    -1
372
    -1
  0
DIMSTYLE
105
BB3
330
17
100
AcDbSymbolTableRecord
100
AcDbDimStyleTableRecord
  2
AM_BSI
 70
     0
  4
mm
 41
0.1574803149606299
 42
0.05
 43
0.5
 44
0.1
 47
0.1
 48
0.1
 73
     0
 74
     0
 77
     1
 78
     7
 79
     2
140
0.12
141
0.0
146
0.71
147
0.06
172
     1
176
   256
177
   256
178
     2
274
     4
283
     0
284
     7
340
D
371
    -1
372
    -1
  0
DIMSTYLE
105
BB4
330
17
100
AcDbSymbolTableRecord
100
AcDbDimStyleTableRecord
  2
AM_BSI$3
 70
     0
  4
mm
 41
0.1574803149606299
 42
0.05
 43
0.5
 44
0.1
 47
0.1
 48
0.1
 73
     0
 77
     1
 78
     7
 79
     2
140
0.12
141
0.0
146
0.71
147
0.06
176
   256
177
   256
178
     2
274
     4
283
     0
284
     7
288
     1
289
     0
340
D
371
    -1
372
    -1
  0
DIMSTYLE
105
BB5
330
17
100
AcDbSymbolTableRecord
100
AcDbDimStyleTableRecord
  2
AM_BSI$4
 70
     0
  4
mm
 41
0.1574803149606299
 42
0.05
 43
0.5
 44
0.1
 47
0.1
 48
0.1
 73
     0
 77
     1
 78
     7
 79
     2
140
0.12
141
0.0
146
0.71
147
0.06
176
   256
177
   256
178
     2
274
     4
283
     0
284
     7
288
     1
289
     0
340
D
371
    -1
372
    -1
  0
DIMSTYLE
105
BB6
330
17
100
AcDbSymbolTableRecord
100
AcDbDimStyleTableRecord
  2
AM_BSI$6
 70
     0
  4
mm
 41
0.1574803149606299
 42
0.05
 43
0.5
 44
0.1
 47
0.1
 48
0.1
 73
     0
 74
     0
 78
     7
 79
     2
140
0.12
141
0.0
146
0.71
147
0.06
172
     1
176
   256
177
   256
178
     2
274
     4
283
     0
284
     7
340
D
371
    -1
372
    -1
  0
DIMSTYLE
105
BB7
330
17
100
AcDbSymbolTableRecord
100
AcDbDimStyleTableRecord
  2
AM_BSI$7
 70
     0
  4
mm
 41
0.1
 42
0.05
 43
0.5
 44
0.1
 47
0.1
 48
0.1
 73
     0
 74
     0
 77
     1
 78
     7
 79
     2
140
0.24
141
0.0
146
0.71
147
0.06
172
     1
176
   256
177
   256
178
     2
274
     4
283
     0
284
     7
340
D
371
    -1
372
    -1
  0
DIMSTYLE
105
BB8
330
17
100
AcDbSymbolTableRecord
100
AcDbDimStyleTableRecord
  2
AM_BSI$SF
 70
     0
  4
mm
 41
0.1574803149606299
 42
0.05
 43
0.5
 44
0.1
 47
0.1
 48
0.1
 73
     0
 74
     0
 75
     1
 76
     1
 77
     1
 78
     7
 79
     2
140
0.12
141
0.0
146
0.71
147
0.06
172
     1
176
   256
177
   256
178
     2
274
     4
283
     0
284
     7
340
D
371
    -1
372
    -1
  0
DIMSTYLE
105
BB9
330
17
100
AcDbSymbolTableRecord
100
AcDbDimStyleTableRecord
  2
AM_BSI$SH
 70
     0
  4
mm
 41
0.1574803149606299
 42
0.05
 43
0.5
 44
0.1
 47
0.1
 48
0.1
 73
     0
 74
     0
 75
     1
 76
     1
 77
     1
 78
     7
 79
     2
140
0.12
141
0.0
144
2.0
146
0.71
147
0.06
172
     1
173
     1
176
   256
177
   256
178
     2
274
     4
283
     0
284
     7
340
D
343
BAC
371
    -1
372
    -1
  0
DIMSTYLE
105
BBC
330
17
100
AcDbSymbolTableRecord
100
AcDbDimStyleTableRecord
  2
AM_DIN
 70
     0
  4
mm
 41
0.1
 42
0.05
 43
0.5
 44
0.1
 47
0.1
 48
0.1
 73
     0
 74
     0
 77
     1
 78
     7
 79
     2
140
0.12
141
0.0
146
0.71
147
0.06
172
     1
176
   256
177
   256
178
     2
274
     4
283
     0
284
     7
340
D
371
    -1
372
    -1
  0
DIMSTYLE
105
BBD
330
17
100
AcDbSymbolTableRecord
100
AcDbDimStyleTableRecord
  2
AM_DIN$3
 70
     0
  4
mm
 41
0.1
 42
0.05
 43
0.5
 44
0.1
 47
0.1
 48
0.1
 73
     0
 77
     1
 78
     7
 79
     2
140
0.12
141
0.0
146
0.71
147
0.06
176
   256
177
   256
178
     2
274
     4
283
     0
284
     7
288
     1
289
     0
340
D
371
    -1
372
    -1
  0
DIMSTYLE
105
BBE
330
17
100
AcDbSymbolTableRecord
100
AcDbDimStyleTableRecord
  2
AM_DIN$4
 70
     0
  4
mm
 41
0.1
 42
0.05
 43
0.5
 44
0.1
 47
0.1
 48
0.1
 73
     0
 77
     1
 78
     7
 79
     2
140
0.12
141
0.0
146
0.71
147
0.06
176
   256
177
   256
178
     2
274
     4
283
     0
284
     7
288
     1
289
     0
340
D
371
    -1
372
    -1
  0
DIMSTYLE
105
BBF
330
17
100
AcDbSymbolTableRecord
100
AcDbDimStyleTableRecord
  2
AM_DIN$6
 70
     0
  4
mm
 41
0.1
 42
0.05
 43
0.5
 44
0.1
 47
0.1
 48
0.1
 73
     0
 74
     0
 78
     7
 79
     2
140
0.12
141
0.0
146
0.71
147
0.06
172
     1
176
   256
177
   256
178
     2
274
     4
283
     0
284
     7
340
D
371
    -1
372
    -1
  0
DIMSTYLE
105
BC0
330
17
100
AcDbSymbolTableRecord
100
AcDbDimStyleTableRecord
  2
AM_DIN$7
 70
     0
  4
mm
 41
0.1
 42
0.05
 43
0.5
 44
0.1
 47
0.1
 48
0.1
 73
     0
 74
     0
 77
     1
 78
     7
 79
     2
140
0.24
141
0.0
146
0.71
147
0.06
172
     1
176
   256
177
   256
178
     2
274
     4
283
     0
284
     7
340
D
371
    -1
372
    -1
  0
DIMSTYLE
105
BC1
330
17
100
AcDbSymbolTableRecord
100
AcDbDimStyleTableRecord
  2
AM_DIN$SF
 70
     0
  4
mm
 41
0.1
 42
0.05
 43
0.5
 44
0.1
 47
0.1
 48
0.1
 73
     0
 74
     0
 75
     1
 76
     1
 77
     1
 78
     7
 79
     2
140
0.12
141
0.0
146
0.71
147
0.06
172
     1
176
   256
177
   256
178
     2
274
     4
283
     0
284
     7
340
D
371
    -1
372
    -1
  0
DIMSTYLE
105
BC2
330
17
100
AcDbSymbolTableRecord
100
AcDbDimStyleTableRecord
  2
AM_DIN$SH
 70
     0
  4
mm
 41
0.1
 42
0.05
 43
0.5
 44
0.1
 47
0.1
 48
0.1
 73
     0
 74
     0
 75
     1
 76
     1
 77
     1
 78
     7
 79
     2
140
0.12
141
0.0
144
2.0
146
0.71
147
0.06
172
     1
173
     1
176
   256
177
   256
178
     2
274
     4
283
     0
284
     7
340
D
343
BAC
371
    -1
372
    -1
  0
DIMSTYLE
105
BC5
330
17
100
AcDbSymbolTableRecord
100
AcDbDimStyleTableRecord
  2
AM_ISO
 70
     0
  4
mm
 41
0.1
 42
0.05
 43
0.5
 44
0.1
 47
0.1
 48
0.1
 73
     0
 74
     0
 77
     1
 78
     7
 79
     2
140
0.12
141
0.0
146
0.71
147
0.06
172
     1
176
   256
177
   256
178
     2
274
     4
283
     0
284
     7
340
D
371
    -1
372
    -1
  0
DIMSTYLE
105
BC6
330
17
100
AcDbSymbolTableRecord
100
AcDbDimStyleTableRecord
  2
AM_ISO$3
 70
     0
  4
mm
 41
0.1
 42
0.05
 43
0.5
 44
0.1
 47
0.1
 48
0.1
 73
     0
 77
     1
 78
     7
 79
     2
140
0.12
141
0.0
146
0.71
147
0.06
176
   256
177
   256
178
     2
274
     4
283
     0
284
     7
288
     1
289
     0
340
D
371
    -1
372
    -1
  0
DIMSTYLE
105
BC7
330
17
100
AcDbSymbolTableRecord
100
AcDbDimStyleTableRecord
  2
AM_ISO$4
 70
     0
  4
mm
 41
0.1
 42
0.05
 43
0.5
 44
0.1
 47
0.1
 48
0.1
 73
     0
 77
     1
 78
     7
 79
     2
140
0.12
141
0.0
146
0.71
147
0.06
176
   256
177
   256
178
     2
274
     4
283
     0
284
     7
288
     1
289
     0
340
D
371
    -1
372
    -1
  0
DIMSTYLE
105
BC8
330
17
100
AcDbSymbolTableRecord
100
AcDbDimStyleTableRecord
  2
AM_ISO$6
 70
     0
  4
mm
 41
0.1
 42
0.05
 43
0.5
 44
0.1
 47
0.1
 48
0.1
 73
     0
 74
     0
 78
     7
 79
     2
140
0.12
141
0.0
146
0.71
147
0.06
172
     1
176
   256
177
   256
178
     2
274
     4
283
     0
284
     7
340
D
371
    -1
372
    -1
  0
DIMSTYLE
105
BC9
330
17
100
AcDbSymbolTableRecord
100
AcDbDimStyleTableRecord
  2
AM_ISO$7
 70
     0
  4
mm
 41
0.1
 42
0.05
 43
0.5
 44
0.1
 47
0.1
 48
0.1
 73
     0
 74
     0
 77
     1
 78
     7
 79
     2
140
0.24
141
0.0
146
0.71
147
0.06
172
     1
176
   256
177
   256
178
     2
274
     4
283
     0
284
     7
340
D
371
    -1
372
    -1
  0
DIMSTYLE
105
BCA
330
17
100
AcDbSymbolTableRecord
100
AcDbDimStyleTableRecord
  2
AM_ISO$SF
 70
     0
  4
mm
 41
0.1
 42
0.05
 43
0.5
 44
0.1
 47
0.1
 48
0.1
 73
     0
 74
     0
 75
     1
 76
     1
 77
     1
 78
     7
 79
     2
140
0.12
141
0.0
146
0.71
147
0.06
172
     1
176
   256
177
   256
178
     2
274
     4
283
     0
284
     7
340
D
371
    -1
372
    -1
  0
DIMSTYLE
105
BCB
330
17
100
AcDbSymbolTableRecord
100
AcDbDimStyleTableRecord
  2
AM_ISO$SH
 70
     0
  4
mm
 41
0.1
 42
0.05
 43
0.5
 44
0.1
 47
0.1
 48
0.1
 73
     0
 74
     0
 75
     1
 76
     1
 77
     1
 78
     7
 79
     2
140
0.12
141
0.0
144
2.0
146
0.71
147
0.06
172
     1
173
     1
176
   256
177
   256
178
     2
274
     4
283
     0
284
     7
340
D
343
BAC
371
    -1
372
    -1
  0
DIMSTYLE
105
BCE
330
17
100
AcDbSymbolTableRecord
100
AcDbDimStyleTableRecord
  2
AM_JIS
 70
     0
  4
mm
 41
0.1
 42
0.05
 43
0.5
 44
0.1
 47
0.1
 48
0.1
 73
     0
 74
     0
 77
     3
 78
     7
 79
     2
140
0.12
141
0.0
146
0.71
147
0.06
172
     1
176
   256
177
   256
178
     2
274
     4
283
     0
284
     7
340
D
341
BCF
342
BCF
343
BCF
344
BCF
371
    -1
372
    -1
  0
DIMSTYLE
105
BD5
330
17
100
AcDbSymbolTableRecord
100
AcDbDimStyleTableRecord
  2
AM_JIS$3
 70
     0
  4
mm
 41
0.1
 42
0.05
 43
0.5
 44
0.1
 47
0.1
 48
0.1
 73
     0
 77
     3
 78
     7
 79
     2
140
0.12
141
0.0
146
0.71
147
0.06
176
   256
177
   256
178
     2
274
     4
283
     0
284
     7
288
     1
289
     0
340
D
341
BCF
342
BCF
343
BCF
344
BCF
371
    -1
372
    -1
  0
DIMSTYLE
105
BD6
330
17
100
AcDbSymbolTableRecord
100
AcDbDimStyleTableRecord
  2
AM_JIS$4
 70
     0
  4
mm
 41
0.1
 42
0.05
 43
0.5
 44
0.1
 47
0.1
 48
0.1
 73
     0
 77
     3
 78
     7
 79
     2
140
0.12
141
0.0
146
0.71
147
0.06
176
   256
177
   256
178
     2
274
     4
283
     0
284
     7
288
     1
289
     0
340
D
341
BCF
342
BCF
343
BCF
344
BCF
371
    -1
372
    -1
  0
DIMSTYLE
105
BD7
330
17
100
AcDbSymbolTableRecord
100
AcDbDimStyleTableRecord
  2
AM_JIS$6
 70
     0
  4
mm
 41
0.1
 42
0.05
 43
0.5
 44
0.1
 47
0.1
 48
0.1
 73
     0
 74
     0
 78
     7
 79
     2
140
0.12
141
0.0
146
0.71
147
0.06
172
     1
176
   256
177
   256
178
     2
274
     4
283
     0
284
     7
340
D
341
BCF
342
BCF
343
BCF
344
BCF
371
    -1
372
    -1
  0
DIMSTYLE
105
BD8
330
17
100
AcDbSymbolTableRecord
100
AcDbDimStyleTableRecord
  2
AM_JIS$7
 70
     0
  4
mm
 41
0.1
 42
0.05
 43
0.5
 44
0.1
 47
0.1
 48
0.1
 73
     0
 74
     0
 77
     3
 78
     7
 79
     2
140
0.24
141
0.0
146
0.71
147
0.06
172
     1
176
   256
177
   256
178
     2
274
     4
283
     0
284
     7
340
D
341
BCF
342
BCF
343
BCF
344
BCF
371
    -1
372
    -1
  0
DIMSTYLE
105
BD9
330
17
100
AcDbSymbolTableRecord
100
AcDbDimStyleTableRecord
  2
AM_JIS$SF
 70
     0
  4
mm
 41
0.1
 42
0.05
 43
0.5
 44
0.1
 47
0.1
 48
0.1
 73
     0
 74
     0
 75
     1
 76
     1
 77
     3
 78
     7
 79
     2
140
0.12
141
0.0
146
0.71
147
0.06
172
     1
176
   256
177
   256
178
     2
274
     4
283
     0
284
     7
340
D
341
BCF
342
BCF
343
BCF
344
BCF
371
    -1
372
    -1
  0
DIMSTYLE
105
BDA
330
17
100
AcDbSymbolTableRecord
100
AcDbDimStyleTableRecord
  2
AM_JIS$SH
 70
     0
  4
mm
 41
0.1
 42
0.05
 43
0.5
 44
0.1
 47
0.1
 48
0.1
 73
     0
 74
     0
 75
     1
 76
     1
 77
     3
 78
     7
 79
     2
140
0.12
141
0.0
144
2.0
146
0.71
147
0.06
172
     1
173
     1
176
   256
177
   256
178
     2
274
     4
283
     0
284
     7
340
D
341
BCF
342
BCF
343
BAC
344
BCF
371
    -1
372
    -1
  0
ENDTAB
  0
TABLE
  2
BLOCK_RECORD
  5
1
330
0
100
AcDbSymbolTable
 70
    26
  0
BLOCK_RECORD
  5
2
102
{ACAD_XDICTIONARY
360
3
102
}
330
1
100
AcDbSymbolTableRecord
100
AcDbBlockTableRecord
  2
*MODEL_SPACE
340
325
  0
BLOCK_RECORD
  5
8
330
1
100
AcDbSymbolTableRecord
100
AcDbBlockTableRecord
  2
*PAPER_SPACE
340
326
  0
BLOCK_RECORD
  5
904
330
1
100
AcDbSymbolTableRecord
100
AcDbBlockTableRecord
  2
*D0
340
0
  0
BLOCK_RECORD
  5
91C
330
1
100
AcDbSymbolTableRecord
100
AcDbBlockTableRecord
  2
*D2
340
0
  0
BLOCK_RECORD
  5
92A
330
1
100
AcDbSymbolTableRecord
100
AcDbBlockTableRecord
  2
*D3
340
0
  0
BLOCK_RECORD
  5
932
330
1
100
AcDbSymbolTableRecord
100
AcDbBlockTableRecord
  2
*D4
340
0
  0
BLOCK_RECORD
  5
93E
330
1
100
AcDbSymbolTableRecord
100
AcDbBlockTableRecord
  2
*D5
340
0
  0
BLOCK_RECORD
  5
94C
330
1
100
AcDbSymbolTableRecord
100
AcDbBlockTableRecord
  2
*D6
340
0
  0
BLOCK_RECORD
  5
95A
330
1
100
AcDbSymbolTableRecord
100
AcDbBlockTableRecord
  2
*D7
340
0
  0
BLOCK_RECORD
  5
968
330
1
100
AcDbSymbolTableRecord
100
AcDbBlockTableRecord
  2
*D8
340
0
  0
BLOCK_RECORD
  5
982
330
1
100
AcDbSymbolTableRecord
100
AcDbBlockTableRecord
  2
*D10
340
0
  0
BLOCK_RECORD
  5
98B
330
1
100
AcDbSymbolTableRecord
100
AcDbBlockTableRecord
  2
*D11
340
0
  0
BLOCK_RECORD
  5
997
330
1
100
AcDbSymbolTableRecord
100
AcDbBlockTableRecord
  2
*D12
340
0
  0
BLOCK_RECORD
  5
9A3
330
1
100
AcDbSymbolTableRecord
100
AcDbBlockTableRecord
  2
*D13
340
0
  0
BLOCK_RECORD
  5
9C9
330
1
100
AcDbSymbolTableRecord
100
AcDbBlockTableRecord
  2
*D16
340
0
  0
BLOCK_RECORD
  5
9D5
330
1
100
AcDbSymbolTableRecord
100
AcDbBlockTableRecord
  2
*D17
340
0
  0
BLOCK_RECORD
  5
9E3
330
1
100
AcDbSymbolTableRecord
100
AcDbBlockTableRecord
  2
*D18
340
0
  0
BLOCK_RECORD
  5
A17
330
1
100
AcDbSymbolTableRecord
100
AcDbBlockTableRecord
  2
*D20
340
0
  0
BLOCK_RECORD
  5
A23
330
1
100
AcDbSymbolTableRecord
100
AcDbBlockTableRecord
  2
*D21
340
0
  0
BLOCK_RECORD
  5
BAC
330
1
100
AcDbSymbolTableRecord
100
AcDbBlockTableRecord
  2
GENAXEH
340
0
  0
BLOCK_RECORD
  5
BCF
330
1
100
AcDbSymbolTableRecord
100
AcDbBlockTableRecord
  2
_Open30
340
0
  0
ENDTAB
  0
ENDSEC
  0
SECTION
  2
BLOCKS
  0
BLOCK
  5
4
330
2
100
AcDbEntity
  8
0
100
AcDbBlockBegin
  2
*MODEL_SPACE
 70
     0
 10
0.0
 20
0.0
 30
0.0
  3
*MODEL_SPACE
  1

  0
ENDBLK
  5
7
330
2
100
AcDbEntity
  8
0
100
AcDbBlockEnd
  0
BLOCK
  5
9
330
8
100
AcDbEntity
 67
     1
  8
0
100
AcDbBlockBegin
  2
*PAPER_SPACE
 70
     0
 10
0.0
 20
0.0
 30
0.0
  3
*PAPER_SPACE
  1

  0
ENDBLK
  5
A
330
8
100
AcDbEntity
 67
     1
  8
0
100
AcDbBlockEnd
  0
BLOCK
  5
90E
330
904
100
AcDbEntity
  8
0
 48
10.0
100
AcDbBlockBegin
  2
*D0
 70
     1
 10
0.0
 20
0.0
 30
0.0
  3
*D0
  1

  0
LINE
  5
F89
330
904
100
AcDbEntity
  8
BEM
370
    -2
100
AcDbLine
 10
664.1062644580134
 20
349.6594577246704
 30
0.0
 11
664.1062644580134
 21
255.1318829736565
 31
0.0
  0
LINE
  5
F8A
330
904
100
AcDbEntity
  8
BEM
370
    -2
100
AcDbLine
 10
441.2062644580132
 20
376.056287670844
 30
0.0
 11
441.2062644580132
 21
255.1318829736565
 31
0.0
  0
LINE
  5
F8B
330
904
100
AcDbEntity
  8
BEM
370
    -2
100
AcDbLine
 10
657.1062644580134
 20
256.3818829736565
 30
0.0
 11
448.2062644580132
 21
256.3818829736565
 31
0.0
  0
SOLID
  5
F8C
330
904
100
AcDbEntity
  8
BEM
100
AcDbTrace
 10
657.1062644580134
 20
257.5485496403232
 30
0.0
 11
657.1062644580134
 21
255.2152163069898
 31
0.0
 12
664.1062644580134
 22
256.3818829736565
 32
0.0
 13
664.1062644580134
 23
256.3818829736565
 33
0.0
  0
SOLID
  5
F8D
330
904
100
AcDbEntity
  8
BEM
100
AcDbTrace
 10
448.2062644580132
 20
257.5485496403232
 30
0.0
 11
448.2062644580132
 21
255.2152163069898
 31
0.0
 12
441.2062644580132
 22
256.3818829736565
 32
0.0
 13
441.2062644580132
 23
256.3818829736565
 33
0.0
  0
MTEXT
  5
F8E
330
904
100
AcDbEntity
  8
BEM
100
AcDbMText
 10
552.6562644580133
 20
265.3818829736565
 30
0.0
 40
10.0
 41
0.0
 71
     5
 72
     1
  1
\A1;223
 73
     1
 44
1.0
  0
POINT
  5
F8F
330
904
100
AcDbEntity
  8
Defpoints
 62
     0
100
AcDbPoint
 10
664.1062644580134
 20
349.6594577246704
 30
0.0
  0
POINT
  5
F90
330
904
100
AcDbEntity
  8
Defpoints
 62
     0
100
AcDbPoint
 10
441.2062644580132
 20
376.056287670844
 30
0.0
  0
POINT
  5
F91
330
904
100
AcDbEntity
  8
Defpoints
 62
     0
100
AcDbPoint
 10
441.2062644580132
 20
256.3818829736565
 30
0.0
  0
ENDBLK
  5
90F
330
904
100
AcDbEntity
  8
0
 48
10.0
100
AcDbBlockEnd
  0
BLOCK
  5
928
330
91C
100
AcDbEntity
  8
0
 48
10.0
100
AcDbBlockBegin
  2
*D2
 70
     1
 10
0.0
 20
0.0
 30
0.0
  3
*D2
  1

  0
LINE
  5
F9B
330
91C
100
AcDbEntity
  8
BEM
 48
10.0
370
    -2
100
AcDbLine
 10
178.3147256928234
 20
542.6881464096426
 30
0.0
 11
192.3915989648929
 21
581.3640378611791
 31
0.0
  0
LINE
  5
F9C
330
91C
100
AcDbEntity
  8
BEM
 48
10.0
370
    -2
100
AcDbLine
 10
150.4230101154088
 20
565.0634674497846
 30
0.0
 11
150.4230101154088
 21
588.7642324176034
 31
0.0
  0
ARC
  5
F9D
330
91C
100
AcDbEntity
  8
BEM
 48
10.0
370
    -2
100
AcDbCircle
 10
150.4230101154088
 20
466.0562876708428
 30
0.0
 40
121.4579447467605
100
AcDbArc
 50
73.30259157549749
 51
86.69740842450307
  0
SOLID
  5
F9E
330
91C
100
AcDbEntity
  8
BEM
 48
10.0
100
AcDbTrace
 10
185.6872321728867
 20
583.5003691518704
 30
0.0
 11
184.9527002384438
 21
581.2856666251803
 31
0.0
 12
191.9640737857358
 22
580.1894220851967
 32
0.0
 13
191.9640737857358
 23
580.1894220851967
 33
0.0
  0
SOLID
  5
F9F
330
91C
100
AcDbEntity
  8
BEM
 48
10.0
100
AcDbTrace
 10
157.3864838140579
 20
586.1463343368483
 30
0.0
 11
157.4537224511326
 21
588.4786986759102
 31
0.0
 12
150.4230101154088
 22
587.5142324176034
 32
0.0
 13
150.4230101154088
 23
587.5142324176034
 33
0.0
  0
MTEXT
  5
FA0
330
91C
100
AcDbEntity
  8
BEM
 48
10.0
100
AcDbMText
 10
175.8983762123507
 20
594.0026868768213
 30
0.0
 40
10.0
 41
0.0
 71
     5
 72
     1
  1
\A1;20\U+00B0
 11
0.9807482361794265
 21
-0.1952764635867404
 31
0.0
 73
     1
 44
1.0
  0
POINT
  5
FA1
330
91C
100
AcDbEntity
  8
Defpoints
 62
     0
 48
10.0
100
AcDbPoint
 10
164.523416864721
 20
586.692977245827
 30
0.0
  0
POINT
  5
FA2
330
91C
100
AcDbEntity
  8
Defpoints
 62
     0
 48
10.0
100
AcDbPoint
 10
150.4230101154088
 20
565.0634674497846
 30
0.0
  0
POINT
  5
FA3
330
91C
100
AcDbEntity
  8
Defpoints
 62
     0
 48
10.0
100
AcDbPoint
 10
172.0856851555274
 20
525.5739981885539
 30
0.0
  0
POINT
  5
FA4
330
91C
100
AcDbEntity
  8
Defpoints
 62
     0
 48
10.0
100
AcDbPoint
 10
178.3147256928234
 20
542.6881464096426
 30
0.0
  0
POINT
  5
FA5
330
91C
100
AcDbEntity
  8
Defpoints
 62
     0
 48
10.0
100
AcDbPoint
 10
150.4230101154088
 20
351.2111419222661
 30
0.0
  0
ENDBLK
  5
929
330
91C
100
AcDbEntity
  8
0
 48
10.0
100
AcDbBlockEnd
  0
BLOCK
  5
930
330
92A
100
AcDbEntity
  8
0
 48
10.0
100
AcDbBlockBegin
  2
*D3
 70
     1
 10
0.0
 20
0.0
 30
0.0
  3
*D3
  1

  0
LINE
  5
FB8
330
92A
100
AcDbEntity
  8
BEM
370
    -2
100
AcDbLine
 10
386.626332508036
 20
408.7341476727686
 30
0.0
 11
434.1215812480997
 21
443.4031615970255
 31
0.0
  0
MTEXT
  5
FB9
330
92A
100
AcDbEntity
  8
BEM
100
AcDbMText
 10
396.8588318609812
 20
427.3459790007706
 30
0.0
 40
10.0
 41
0.0
 71
     5
 72
     1
  1
\A1;R2.5
 11
0.8077073799807342
 21
0.5895835719596143
 31
0.0
 73
     1
 44
1.0
  0
SOLID
  5
FBA
330
92A
100
AcDbEntity
  8
BEM
100
AcDbTrace
 10
433.4337337474801
 20
444.3454868736697
 30
0.0
 11
434.8094287487192
 21
442.4608363203813
 31
0.0
 12
439.7755329079648
 22
447.5302466007428
 32
0.0
 13
439.7755329079648
 23
447.5302466007428
 33
0.0
  0
POINT
  5
FBB
330
92A
100
AcDbEntity
  8
Defpoints
 62
     0
100
AcDbPoint
 10
439.7755329079648
 20
447.5302466007428
 30
0.0
  0
POINT
  5
FBC
330
92A
100
AcDbEntity
  8
Defpoints
 62
     0
100
AcDbPoint
 10
437.756264458013
 20
446.0562876708437
 30
0.0
  0
ENDBLK
  5
931
330
92A
100
AcDbEntity
  8
0
 48
10.0
100
AcDbBlockEnd
  0
BLOCK
  5
93C
330
932
100
AcDbEntity
  8
0
 48
10.0
100
AcDbBlockBegin
  2
*D4
 70
     1
 10
0.0
 20
0.0
 30
0.0
  3
*D4
  1

  0
LINE
  5
FBD
330
932
100
AcDbEntity
  8
BEM
370
    -2
100
AcDbLine
 10
183.9465373302358
 20
400.3863087418436
 30
0.0
 11
183.9465373302358
 21
321.0543269965597
 31
0.0
  0
LINE
  5
FBE
330
932
100
AcDbEntity
  8
BEM
370
    -2
100
AcDbLine
 10
146.9465373302358
 20
400.2255788849073
 30
0.0
 11
146.9465373302358
 21
321.0543269965597
 31
0.0
  0
LINE
  5
FBF
330
932
100
AcDbEntity
  8
BEM
370
    -2
100
AcDbLine
 10
176.9465373302358
 20
322.3043269965597
 30
0.0
 11
153.9465373302358
 21
322.3043269965597
 31
0.0
  0
SOLID
  5
FC0
330
932
100
AcDbEntity
  8
BEM
100
AcDbTrace
 10
176.9465373302358
 20
323.4709936632264
 30
0.0
 11
176.9465373302358
 21
321.137660329893
 31
0.0
 12
183.9465373302358
 22
322.3043269965597
 32
0.0
 13
183.9465373302358
 23
322.3043269965597
 33
0.0
  0
SOLID
  5
FC1
330
932
100
AcDbEntity
  8
BEM
100
AcDbTrace
 10
153.9465373302358
 20
323.4709936632264
 30
0.0
 11
153.9465373302358
 21
321.137660329893
 31
0.0
 12
146.9465373302358
 22
322.3043269965597
 32
0.0
 13
146.9465373302358
 23
322.3043269965597
 33
0.0
  0
MTEXT
  5
FC2
330
932
100
AcDbEntity
  8
BEM
100
AcDbMText
 10
165.4465373302358
 20
331.3043269965597
 30
0.0
 40
10.0
 41
0.0
 71
     5
 72
     1
  1
\A1;37
 73
     1
 44
1.0
  0
POINT
  5
FC3
330
932
100
AcDbEntity
  8
Defpoints
 62
     0
100
AcDbPoint
 10
183.9465373302358
 20
400.3863087418436
 30
0.0
  0
POINT
  5
FC4
330
932
100
AcDbEntity
  8
Defpoints
 62
     0
100
AcDbPoint
 10
146.9465373302358
 20
400.2255788849073
 30
0.0
  0
POINT
  5
FC5
330
932
100
AcDbEntity
  8
Defpoints
 62
     0
100
AcDbPoint
 10
146.9465373302358
 20
322.3043269965597
 30
0.0
  0
ENDBLK
  5
93D
330
932
100
AcDbEntity
  8
0
 48
10.0
100
AcDbBlockEnd
  0
BLOCK
  5
94A
330
93E
100
AcDbEntity
  8
0
 48
10.0
100
AcDbBlockBegin
  2
*D5
 70
     1
 10
0.0
 20
0.0
 30
0.0
  3
*D5
  1

  0
LINE
  5
FC6
330
93E
100
AcDbEntity
  8
BEM
370
    -2
100
AcDbLine
 10
441.2062644580133
 20
376.056287670844
 30
0.0
 11
441.2062644580133
 21
292.4704228095379
 31
0.0
  0
LINE
  5
FC7
330
93E
100
AcDbEntity
  8
BEM
370
    -2
100
AcDbLine
 10
454.7062644580131
 20
378.056287670844
 30
0.0
 11
454.7062644580131
 21
292.4704228095379
 31
0.0
  0
LINE
  5
FC8
330
93E
100
AcDbEntity
  8
BEM
370
    -2
100
AcDbLine
 10
434.2062644580133
 20
293.7204228095379
 30
0.0
 11
427.2062644580134
 21
293.7204228095379
 31
0.0
  0
LINE
  5
FC9
330
93E
100
AcDbEntity
  8
BEM
370
    -2
100
AcDbLine
 10
461.7062644580131
 20
293.7204228095379
 30
0.0
 11
505.7538835056321
 21
293.7204228095379
 31
0.0
  0
LINE
  5
FCA
330
93E
100
AcDbEntity
  8
BEM
370
    -2
100
AcDbLine
 10
441.2062644580133
 20
293.7204228095379
 30
0.0
 11
454.7062644580131
 21
293.7204228095379
 31
0.0
  0
SOLID
  5
FCB
330
93E
100
AcDbEntity
  8
BEM
100
AcDbTrace
 10
434.2062644580133
 20
294.8870894762046
 30
0.0
 11
434.2062644580133
 21
292.5537561428712
 31
0.0
 12
441.2062644580133
 22
293.7204228095379
 32
0.0
 13
441.2062644580133
 23
293.7204228095379
 33
0.0
  0
SOLID
  5
FCC
330
93E
100
AcDbEntity
  8
BEM
100
AcDbTrace
 10
461.7062644580131
 20
294.8870894762046
 30
0.0
 11
461.7062644580131
 21
292.5537561428712
 31
0.0
 12
454.7062644580131
 22
293.7204228095379
 32
0.0
 13
454.7062644580131
 23
293.7204228095379
 33
0.0
  0
MTEXT
  5
FCD
330
93E
100
AcDbEntity
  8
BEM
100
AcDbMText
 10
487.2300739818227
 20
302.7204228095379
 30
0.0
 40
10.0
 41
0.0
 71
     5
 72
     1
  1
\A1;13.5
 73
     1
 44
1.0
  0
POINT
  5
FCE
330
93E
100
AcDbEntity
  8
Defpoints
 62
     0
100
AcDbPoint
 10
441.2062644580133
 20
376.056287670844
 30
0.0
  0
POINT
  5
FCF
330
93E
100
AcDbEntity
  8
Defpoints
 62
     0
100
AcDbPoint
 10
454.7062644580131
 20
378.056287670844
 30
0.0
  0
POINT
  5
FD0
330
93E
100
AcDbEntity
  8
Defpoints
 62
     0
100
AcDbPoint
 10
454.7062644580131
 20
293.7204228095379
 30
0.0
  0
ENDBLK
  5
94B
330
93E
100
AcDbEntity
  8
0
 48
10.0
100
AcDbBlockEnd
  0
BLOCK
  5
958
330
94C
100
AcDbEntity
  8
0
 48
10.0
100
AcDbBlockBegin
  2
*D6
 70
     1
 10
0.0
 20
0.0
 30
0.0
  3
*D6
  1

  0
LINE
  5
FD1
330
94C
100
AcDbEntity
  8
BEM
370
    -2
100
AcDbLine
 10
446.2062644580133
 20
403.756287670844
 30
0.0
 11
446.2062644580133
 21
333.3726004084265
 31
0.0
  0
LINE
  5
FD2
330
94C
100
AcDbEntity
  8
BEM
370
    -2
100
AcDbLine
 10
441.2062644580132
 20
376.056287670844
 30
0.0
 11
441.2062644580132
 21
333.3726004084265
 31
0.0
  0
LINE
  5
FD3
330
94C
100
AcDbEntity
  8
BEM
370
    -2
100
AcDbLine
 10
434.2062644580132
 20
334.6226004084265
 30
0.0
 11
427.2062644580132
 21
334.6226004084265
 31
0.0
  0
LINE
  5
FD4
330
94C
100
AcDbEntity
  8
BEM
370
    -2
100
AcDbLine
 10
453.2062644580133
 20
334.6226004084265
 30
0.0
 11
474.8729311246801
 21
334.6226004084265
 31
0.0
  0
LINE
  5
FD5
330
94C
100
AcDbEntity
  8
BEM
370
    -2
100
AcDbLine
 10
441.2062644580132
 20
334.6226004084265
 30
0.0
 11
446.2062644580133
 21
334.6226004084265
 31
0.0
  0
SOLID
  5
FD6
330
94C
100
AcDbEntity
  8
BEM
100
AcDbTrace
 10
434.2062644580132
 20
335.7892670750932
 30
0.0
 11
434.2062644580132
 21
333.4559337417598
 31
0.0
 12
441.2062644580132
 22
334.6226004084265
 32
0.0
 13
441.2062644580132
 23
334.6226004084265
 33
0.0
  0
SOLID
  5
FD7
330
94C
100
AcDbEntity
  8
BEM
100
AcDbTrace
 10
453.2062644580133
 20
335.7892670750932
 30
0.0
 11
453.2062644580133
 21
333.4559337417598
 31
0.0
 12
446.2062644580133
 22
334.6226004084265
 32
0.0
 13
446.2062644580133
 23
334.6226004084265
 33
0.0
  0
MTEXT
  5
FD8
330
94C
100
AcDbEntity
  8
BEM
100
AcDbMText
 10
467.5395977913467
 20
343.6226004084265
 30
0.0
 40
10.0
 41
0.0
 71
     5
 72
     1
  1
\A1;5
 73
     1
 44
1.0
  0
POINT
  5
FD9
330
94C
100
AcDbEntity
  8
Defpoints
 62
     0
100
AcDbPoint
 10
446.2062644580133
 20
403.756287670844
 30
0.0
  0
POINT
  5
FDA
330
94C
100
AcDbEntity
  8
Defpoints
 62
     0
100
AcDbPoint
 10
441.2062644580132
 20
376.056287670844
 30
0.0
  0
POINT
  5
FDB
330
94C
100
AcDbEntity
  8
Defpoints
 62
     0
100
AcDbPoint
 10
441.2062644580132
 20
334.6226004084265
 30
0.0
  0
ENDBLK
  5
959
330
94C
100
AcDbEntity
  8
0
 48
10.0
100
AcDbBlockEnd
  0
BLOCK
  5
966
330
95A
100
AcDbEntity
  8
0
 48
10.0
100
AcDbBlockBegin
  2
*D7
 70
     1
 10
0.0
 20
0.0
 30
0.0
  3
*D7
  1

  0
LINE
  5
FDC
330
95A
100
AcDbEntity
  8
BEM
370
    -2
100
AcDbLine
 10
70.99799087792746
 20
466.0562876708439
 30
0.0
 11
42.44804750032854
 21
466.0562876708439
 31
0.0
  0
LINE
  5
FDD
330
95A
100
AcDbEntity
  8
BEM
370
    -2
100
AcDbLine
 10
105.0704080565227
 20
459.2687844706391
 30
0.0
 11
42.44804750032854
 21
459.2687844706391
 31
0.0
  0
LINE
  5
FDE
330
95A
100
AcDbEntity
  8
BEM
370
    -2
100
AcDbLine
 10
43.69804750032854
 20
473.056287670844
 30
0.0
 11
43.69804750032854
 21
480.0562876708439
 31
0.0
  0
LINE
  5
FDF
330
95A
100
AcDbEntity
  8
BEM
370
    -2
100
AcDbLine
 10
43.69804750032854
 20
452.2687844706391
 30
0.0
 11
43.69804750032854
 21
445.2687844706392
 31
0.0
  0
LINE
  5
FE0
330
95A
100
AcDbEntity
  8
BEM
370
    -2
100
AcDbLine
 10
43.69804750032854
 20
466.0562876708439
 30
0.0
 11
43.69804750032854
 21
459.2687844706391
 31
0.0
  0
SOLID
  5
FE1
330
95A
100
AcDbEntity
  8
BEM
100
AcDbTrace
 10
42.53138083366188
 20
473.056287670844
 30
0.0
 11
44.86471416699521
 21
473.056287670844
 31
0.0
 12
43.69804750032854
 22
466.0562876708439
 32
0.0
 13
43.69804750032854
 23
466.0562876708439
 33
0.0
  0
SOLID
  5
FE2
330
95A
100
AcDbEntity
  8
BEM
100
AcDbTrace
 10
42.53138083366187
 20
452.2687844706391
 30
0.0
 11
44.8647141669952
 21
452.2687844706391
 31
0.0
 12
43.69804750032854
 22
459.2687844706391
 32
0.0
 13
43.69804750032854
 23
459.2687844706391
 33
0.0
  0
MTEXT
  5
FE3
330
95A
100
AcDbEntity
  8
BEM
100
AcDbMText
 10
34.69804750032847
 20
462.6625360707415
 30
0.0
 40
10.0
 41
0.0
 71
     5
 72
     1
  1
\A1;6.7
 11
0.0000000000000001
 21
1.0
 31
0.0
 73
     1
 44
1.0
  0
POINT
  5
FE4
330
95A
100
AcDbEntity
  8
Defpoints
 62
     0
100
AcDbPoint
 10
70.99799087792746
 20
466.0562876708439
 30
0.0
  0
POINT
  5
FE5
330
95A
100
AcDbEntity
  8
Defpoints
 62
     0
100
AcDbPoint
 10
105.0704080565227
 20
459.2687844706391
 30
0.0
  0
POINT
  5
FE6
330
95A
100
AcDbEntity
  8
Defpoints
 62
     0
100
AcDbPoint
 10
43.69804750032854
 20
459.2687844706391
 30
0.0
  0
ENDBLK
  5
967
330
95A
100
AcDbEntity
  8
0
 48
10.0
100
AcDbBlockEnd
  0
BLOCK
  5
972
330
968
100
AcDbEntity
  8
0
 48
10.0
100
AcDbBlockBegin
  2
*D8
 70
     1
 10
0.0
 20
0.0
 30
0.0
  3
*D8
  1

  0
LINE
  5
FF0
330
968
100
AcDbEntity
  8
BEM
370
    -2
100
AcDbLine
 10
372.2562644580133
 20
483.5562876708439
 30
0.0
 11
338.5852186932263
 21
483.5562876708439
 31
0.0
  0
LINE
  5
FF1
330
968
100
AcDbEntity
  8
BEM
370
    -2
100
AcDbLine
 10
372.2562644580133
 20
448.5562876708439
 30
0.0
 11
338.5852186932263
 21
448.5562876708439
 31
0.0
  0
LINE
  5
FF2
330
968
100
AcDbEntity
  8
BEM
370
    -2
100
AcDbLine
 10
339.8352186932263
 20
476.556287670844
 30
0.0
 11
339.8352186932263
 21
455.556287670844
 31
0.0
  0
SOLID
  5
FF3
330
968
100
AcDbEntity
  8
BEM
100
AcDbTrace
 10
338.6685520265596
 20
476.556287670844
 30
0.0
 11
341.001885359893
 21
476.556287670844
 31
0.0
 12
339.8352186932263
 22
483.5562876708439
 32
0.0
 13
339.8352186932263
 23
483.5562876708439
 33
0.0
  0
SOLID
  5
FF4
330
968
100
AcDbEntity
  8
BEM
100
AcDbTrace
 10
338.6685520265596
 20
455.556287670844
 30
0.0
 11
341.001885359893
 21
455.556287670844
 31
0.0
 12
339.8352186932263
 22
448.5562876708439
 32
0.0
 13
339.8352186932263
 23
448.5562876708439
 33
0.0
  0
MTEXT
  5
FF5
330
968
100
AcDbEntity
  8
BEM
100
AcDbMText
 10
330.8352186932262
 20
466.594902306565
 30
0.0
 40
10.0
 41
0.0
 71
     5
 72
     1
  1
\A1;%%c35
 11
0.0000000000000001
 21
1.0
 31
0.0
 73
     1
 44
1.0
  0
POINT
  5
FF6
330
968
100
AcDbEntity
  8
Defpoints
 62
     0
100
AcDbPoint
 10
372.2562644580133
 20
483.5562876708439
 30
0.0
  0
POINT
  5
FF7
330
968
100
AcDbEntity
  8
Defpoints
 62
     0
100
AcDbPoint
 10
372.2562644580133
 20
448.5562876708439
 30
0.0
  0
POINT
  5
FF8
330
968
100
AcDbEntity
  8
Defpoints
 62
     0
100
AcDbPoint
 10
339.8352186932263
 20
448.5562876708439
 30
0.0
  0
ENDBLK
  5
973
330
968
100
AcDbEntity
  8
0
 48
10.0
100
AcDbBlockEnd
  0
BLOCK
  5
989
330
982
100
AcDbEntity
  8
0
 48
10.0
100
AcDbBlockBegin
  2
*D10
 70
     1
 10
0.0
 20
0.0
 30
0.0
  3
*D10
  1

  0
LINE
  5
1004
330
982
100
AcDbEntity
  8
BEM
370
    -2
100
AcDbLine
 10
884.4686357780773
 20
514.3398072891142
 30
0.0
 11
972.9887291642025
 21
417.7727680525727
 31
0.0
  0
SOLID
  5
1005
330
982
100
AcDbEntity
  8
BEM
100
AcDbTrace
 10
885.3286475778938
 20
515.1281541767769
 30
0.0
 11
883.6086239782607
 21
513.5514604014515
 31
0.0
 12
879.7385544521011
 22
519.4998780880133
 32
0.0
 13
879.7385544521011
 23
519.4998780880133
 33
0.0
  0
SOLID
  5
1006
330
982
100
AcDbEntity
  8
BEM
100
AcDbTrace
 10
973.8487409640192
 20
418.5611149402356
 30
0.0
 11
972.1287173643863
 21
416.9844211649103
 31
0.0
 12
977.7188104901789
 22
412.6126972536737
 32
0.0
 13
977.7188104901789
 23
412.6126972536737
 33
0.0
  0
MTEXT
  5
1007
102
{ACAD_XDICTIONARY
360
10AB
102
}
330
982
100
AcDbEntity
  8
BEM
100
AcDbMText
 10
959.6620219190405
 20
445.6299535469569
 30
0.0
 40
10.0
 41
0.0
 71
     5
 72
     1
  1
\A1;\U+2205145
 11
0.6757259037108786
 21
-0.7371529712713071
 31
0.0
 73
     1
 44
1.0
  0
POINT
  5
1008
330
982
100
AcDbEntity
  8
Defpoints
 62
     0
100
AcDbPoint
 10
977.7188104901789
 20
412.6126972536737
 30
0.0
  0
POINT
  5
1009
330
982
100
AcDbEntity
  8
Defpoints
 62
     0
100
AcDbPoint
 10
879.7385544521011
 20
519.4998780880133
 30
0.0
  0
ENDBLK
  5
98A
330
982
100
AcDbEntity
  8
0
 48
10.0
100
AcDbBlockEnd
  0
BLOCK
  5
995
330
98B
100
AcDbEntity
  8
0
 48
10.0
100
AcDbBlockBegin
  2
*D11
 70
     1
 10
0.0
 20
0.0
 30
0.0
  3
*D11
  1

  0
LINE
  5
100A
330
98B
100
AcDbEntity
  8
BEM
370
    -2
100
AcDbLine
 10
552.2562644580133
 20
466.0562876708439
 30
0.0
 11
563.9043569106485
 21
466.0562876708439
 31
0.0
  0
LINE
  5
100B
330
98B
100
AcDbEntity
  8
BEM
370
    -2
100
AcDbLine
 10
561.1267510230105
 20
364.0562876708439
 30
0.0
 11
563.9043569106485
 21
364.0562876708439
 31
0.0
  0
LINE
  5
100C
330
98B
100
AcDbEntity
  8
BEM
370
    -2
100
AcDbLine
 10
562.6543569106485
 20
459.0562876708439
 30
0.0
 11
562.6543569106485
 21
371.0562876708439
 31
0.0
  0
SOLID
  5
100D
330
98B
100
AcDbEntity
  8
BEM
100
AcDbTrace
 10
561.4876902439818
 20
459.0562876708439
 30
0.0
 11
563.8210235773151
 21
459.0562876708439
 31
0.0
 12
562.6543569106485
 22
466.0562876708439
 32
0.0
 13
562.6543569106485
 23
466.0562876708439
 33
0.0
  0
SOLID
  5
100E
330
98B
100
AcDbEntity
  8
BEM
100
AcDbTrace
 10
561.4876902439818
 20
371.0562876708439
 30
0.0
 11
563.8210235773151
 21
371.0562876708439
 31
0.0
 12
562.6543569106485
 22
364.0562876708439
 32
0.0
 13
562.6543569106485
 23
364.0562876708439
 33
0.0
  0
MTEXT
  5
100F
330
98B
100
AcDbEntity
  8
BEM
100
AcDbMText
 10
553.6543569106483
 20
415.0562876708439
 30
0.0
 40
10.0
 41
0.0
 71
     5
 72
     1
  1
\A1;102
 11
0.0000000000000001
 21
1.0
 31
0.0
 73
     1
 44
1.0
  0
POINT
  5
1010
330
98B
100
AcDbEntity
  8
Defpoints
 62
     0
100
AcDbPoint
 10
552.2562644580133
 20
466.0562876708439
 30
0.0
  0
POINT
  5
1011
330
98B
100
AcDbEntity
  8
Defpoints
 62
     0
100
AcDbPoint
 10
561.1267510230105
 20
364.0562876708439
 30
0.0
  0
POINT
  5
1012
330
98B
100
AcDbEntity
  8
Defpoints
 62
     0
100
AcDbPoint
 10
562.6543569106485
 20
364.0562876708439
 30
0.0
  0
ENDBLK
  5
996
330
98B
100
AcDbEntity
  8
0
 48
10.0
100
AcDbBlockEnd
  0
BLOCK
  5
9A1
330
997
100
AcDbEntity
  8
0
 48
10.0
100
AcDbBlockBegin
  2
*D12
 70
     1
 10
0.0
 20
0.0
 30
0.0
  3
*D12
  1

  0
LINE
  5
1013
330
997
100
AcDbEntity
  8
BEM
370
    -2
100
AcDbLine
 10
723.2633758047777
 20
513.2687844706391
 30
0.0
 11
800.6578832585015
 21
513.268784470639
 31
0.0
  0
LINE
  5
1014
330
997
100
AcDbEntity
  8
BEM
370
    -2
100
AcDbLine
 10
734.1062644580135
 20
394.2687844706394
 30
0.0
 11
800.6578832585015
 21
394.2687844706394
 31
0.0
  0
LINE
  5
1015
330
997
100
AcDbEntity
  8
BEM
370
    -2
100
AcDbLine
 10
799.4078832585016
 20
506.2687844706391
 30
0.0
 11
799.4078832585016
 21
401.2687844706394
 31
0.0
  0
SOLID
  5
1016
330
997
100
AcDbEntity
  8
BEM
100
AcDbTrace
 10
798.2412165918349
 20
506.2687844706391
 30
0.0
 11
800.5745499251682
 21
506.2687844706391
 31
0.0
 12
799.4078832585016
 22
513.268784470639
 32
0.0
 13
799.4078832585016
 23
513.268784470639
 33
0.0
  0
SOLID
  5
1017
330
997
100
AcDbEntity
  8
BEM
100
AcDbTrace
 10
798.2412165918349
 20
401.2687844706394
 30
0.0
 11
800.5745499251682
 21
401.2687844706394
 31
0.0
 12
799.4078832585016
 22
394.2687844706394
 32
0.0
 13
799.4078832585016
 23
394.2687844706394
 33
0.0
  0
MTEXT
  5
1018
330
997
100
AcDbEntity
  8
BEM
100
AcDbMText
 10
790.4078832585014
 20
453.7687844706393
 30
0.0
 40
10.0
 41
0.0
 71
     5
 72
     1
  1
\A1;119
 11
0.0000000000000001
 21
1.0
 31
0.0
 73
     1
 44
1.0
  0
POINT
  5
1019
330
997
100
AcDbEntity
  8
Defpoints
 62
     0
100
AcDbPoint
 10
723.2633758047777
 20
513.2687844706391
 30
0.0
  0
POINT
  5
101A
330
997
100
AcDbEntity
  8
Defpoints
 62
     0
100
AcDbPoint
 10
734.1062644580135
 20
394.2687844706394
 30
0.0
  0
POINT
  5
101B
330
997
100
AcDbEntity
  8
Defpoints
 62
     0
100
AcDbPoint
 10
799.4078832585016
 20
394.2687844706394
 30
0.0
  0
ENDBLK
  5
9A2
330
997
100
AcDbEntity
  8
0
 48
10.0
100
AcDbBlockEnd
  0
BLOCK
  5
9AD
330
9A3
100
AcDbEntity
  8
0
 48
10.0
100
AcDbBlockBegin
  2
*D13
 70
     1
 10
0.0
 20
0.0
 30
0.0
  3
*D13
  1

  0
LINE
  5
101C
330
9A3
100
AcDbEntity
  8
BEM
370
    -2
100
AcDbLine
 10
736.1290255259588
 20
459.2687844706391
 30
0.0
 11
773.7353827040362
 21
459.2687844706391
 31
0.0
  0
LINE
  5
101D
330
9A3
100
AcDbEntity
  8
BEM
370
    -2
100
AcDbLine
 10
734.1062644580135
 20
394.2687844706394
 30
0.0
 11
773.7353827040362
 21
394.2687844706394
 31
0.0
  0
LINE
  5
101E
330
9A3
100
AcDbEntity
  8
BEM
370
    -2
100
AcDbLine
 10
772.4853827040361
 20
452.2687844706391
 30
0.0
 11
772.4853827040361
 21
401.2687844706394
 31
0.0
  0
SOLID
  5
101F
330
9A3
100
AcDbEntity
  8
BEM
100
AcDbTrace
 10
771.3187160373695
 20
452.2687844706391
 30
0.0
 11
773.6520493707027
 21
452.2687844706391
 31
0.0
 12
772.4853827040361
 22
459.2687844706391
 32
0.0
 13
772.4853827040361
 23
459.2687844706391
 33
0.0
  0
SOLID
  5
1020
330
9A3
100
AcDbEntity
  8
BEM
100
AcDbTrace
 10
771.3187160373695
 20
401.2687844706394
 30
0.0
 11
773.6520493707027
 21
401.2687844706394
 31
0.0
 12
772.4853827040361
 22
394.2687844706394
 32
0.0
 13
772.4853827040361
 23
394.2687844706394
 33
0.0
  0
MTEXT
  5
1021
330
9A3
100
AcDbEntity
  8
BEM
100
AcDbMText
 10
763.485382704036
 20
426.7687844706394
 30
0.0
 40
10.0
 41
0.0
 71
     5
 72
     1
  1
\A1;65
 11
0.0000000000000001
 21
1.0
 31
0.0
 73
     1
 44
1.0
  0
POINT
  5
1022
330
9A3
100
AcDbEntity
  8
Defpoints
 62
     0
100
AcDbPoint
 10
736.1290255259588
 20
459.2687844706391
 30
0.0
  0
POINT
  5
1023
330
9A3
100
AcDbEntity
  8
Defpoints
 62
     0
100
AcDbPoint
 10
734.1062644580135
 20
394.2687844706394
 30
0.0
  0
POINT
  5
1024
330
9A3
100
AcDbEntity
  8
Defpoints
 62
     0
100
AcDbPoint
 10
772.4853827040361
 20
394.2687844706394
 30
0.0
  0
ENDBLK
  5
9AE
330
9A3
100
AcDbEntity
  8
0
 48
10.0
100
AcDbBlockEnd
  0
BLOCK
  5
9D3
330
9C9
100
AcDbEntity
  8
0
 48
10.0
100
AcDbBlockBegin
  2
*D16
 70
     1
 10
0.0
 20
0.0
 30
0.0
  3
*D16
  1

  0
LINE
  5
1039
330
9C9
100
AcDbEntity
  8
BEM
370
    -2
100
AcDbLine
 10
718.6062644580134
 20
382.7687844706392
 30
0.0
 11
718.6062644580134
 21
255.1318829736565
 31
0.0
  0
LINE
  5
103A
330
9C9
100
AcDbEntity
  8
BEM
370
    -2
100
AcDbLine
 10
664.1062644580134
 20
349.6594577246704
 30
0.0
 11
664.1062644580134
 21
255.1318829736565
 31
0.0
  0
LINE
  5
103B
330
9C9
100
AcDbEntity
  8
BEM
370
    -2
100
AcDbLine
 10
711.6062644580134
 20
256.3818829736565
 30
0.0
 11
671.1062644580135
 21
256.3818829736565
 31
0.0
  0
SOLID
  5
103C
330
9C9
100
AcDbEntity
  8
BEM
100
AcDbTrace
 10
711.6062644580134
 20
257.5485496403232
 30
0.0
 11
711.6062644580134
 21
255.2152163069898
 31
0.0
 12
718.6062644580134
 22
256.3818829736565
 32
0.0
 13
718.6062644580134
 23
256.3818829736565
 33
0.0
  0
SOLID
  5
103D
330
9C9
100
AcDbEntity
  8
BEM
100
AcDbTrace
 10
671.1062644580135
 20
257.5485496403232
 30
0.0
 11
671.1062644580135
 21
255.2152163069898
 31
0.0
 12
664.1062644580134
 22
256.3818829736565
 32
0.0
 13
664.1062644580134
 23
256.3818829736565
 33
0.0
  0
MTEXT
  5
103E
330
9C9
100
AcDbEntity
  8
BEM
100
AcDbMText
 10
692.3681692199182
 20
265.3818829736565
 30
0.0
 40
10.0
 41
0.0
 71
     5
 72
     1
  1
\A1;54.5
 73
     1
 44
1.0
  0
POINT
  5
103F
330
9C9
100
AcDbEntity
  8
Defpoints
 62
     0
100
AcDbPoint
 10
718.6062644580134
 20
382.7687844706392
 30
0.0
  0
POINT
  5
1040
330
9C9
100
AcDbEntity
  8
Defpoints
 62
     0
100
AcDbPoint
 10
664.1062644580134
 20
349.6594577246704
 30
0.0
  0
POINT
  5
1041
330
9C9
100
AcDbEntity
  8
Defpoints
 62
     0
100
AcDbPoint
 10
664.1062644580134
 20
256.3818829736565
 30
0.0
  0
ENDBLK
  5
9D4
330
9C9
100
AcDbEntity
  8
0
 48
10.0
100
AcDbBlockEnd
  0
BLOCK
  5
9E1
330
9D5
100
AcDbEntity
  8
0
 48
10.0
100
AcDbBlockBegin
  2
*D17
 70
     1
 10
0.0
 20
0.0
 30
0.0
  3
*D17
  1

  0
LINE
  5
1042
330
9D5
100
AcDbEntity
  8
BEM
370
    -2
100
AcDbLine
 10
673.1062644580134
 20
359.3352753007601
 30
0.0
 11
673.1062644580134
 21
356.4884392305966
 31
0.0
  0
LINE
  5
1043
330
9D5
100
AcDbEntity
  8
BEM
370
    -2
100
AcDbLine
 10
655.1062644580134
 20
359.7656670815505
 30
0.0
 11
655.1062644580134
 21
356.4884392305966
 31
0.0
  0
LINE
  5
1044
330
9D5
100
AcDbEntity
  8
BEM
370
    -2
100
AcDbLine
 10
680.1062644580134
 20
357.7384392305966
 30
0.0
 11
687.1062644580135
 21
357.7384392305966
 31
0.0
  0
LINE
  5
1045
330
9D5
100
AcDbEntity
  8
BEM
370
    -2
100
AcDbLine
 10
648.1062644580134
 20
357.7384392305966
 30
0.0
 11
641.1062644580134
 21
357.7384392305966
 31
0.0
  0
LINE
  5
1046
330
9D5
100
AcDbEntity
  8
BEM
370
    -2
100
AcDbLine
 10
673.1062644580134
 20
357.7384392305966
 30
0.0
 11
655.1062644580134
 21
357.7384392305966
 31
0.0
  0
SOLID
  5
1047
330
9D5
100
AcDbEntity
  8
BEM
100
AcDbTrace
 10
680.1062644580134
 20
358.9051058972632
 30
0.0
 11
680.1062644580134
 21
356.5717725639299
 31
0.0
 12
673.1062644580134
 22
357.7384392305966
 32
0.0
 13
673.1062644580134
 23
357.7384392305966
 33
0.0
  0
SOLID
  5
1048
330
9D5
100
AcDbEntity
  8
BEM
100
AcDbTrace
 10
648.1062644580134
 20
358.9051058972632
 30
0.0
 11
648.1062644580134
 21
356.5717725639299
 31
0.0
 12
655.1062644580134
 22
357.7384392305966
 32
0.0
 13
655.1062644580134
 23
357.7384392305966
 33
0.0
  0
MTEXT
  5
1049
330
9D5
100
AcDbEntity
  8
BEM
100
AcDbMText
 10
664.1062644580134
 20
366.7384392305966
 30
0.0
 40
10.0
 41
0.0
 71
     5
 72
     1
  1
\A1;M18x1.5
 73
     1
 44
1.0
  0
POINT
  5
104A
330
9D5
100
AcDbEntity
  8
Defpoints
 62
     0
100
AcDbPoint
 10
673.1062644580134
 20
359.3352753007601
 30
0.0
  0
POINT
  5
104B
330
9D5
100
AcDbEntity
  8
Defpoints
 62
     0
100
AcDbPoint
 10
655.1062644580134
 20
359.7656670815505
 30
0.0
  0
POINT
  5
104C
330
9D5
100
AcDbEntity
  8
Defpoints
 62
     0
100
AcDbPoint
 10
655.1062644580134
 20
357.7384392305966
 30
0.0
  0
ENDBLK
  5
9E2
330
9D5
100
AcDbEntity
  8
0
 48
10.0
100
AcDbBlockEnd
  0
BLOCK
  5
9ED
330
9E3
100
AcDbEntity
  8
0
 48
10.0
100
AcDbBlockBegin
  2
*D18
 70
     1
 10
0.0
 20
0.0
 30
0.0
  3
*D18
  1

  0
LINE
  5
104D
330
9E3
100
AcDbEntity
  8
BEM
370
    -2
100
AcDbLine
 10
569.7062644580131
 20
521.0562876708439
 30
0.0
 11
561.4043569106485
 21
521.0562876708439
 31
0.0
  0
LINE
  5
104E
330
9E3
100
AcDbEntity
  8
BEM
370
    -2
100
AcDbLine
 10
569.6304341272267
 20
466.0562876708439
 30
0.0
 11
561.4043569106485
 21
466.0562876708439
 31
0.0
  0
LINE
  5
104F
330
9E3
100
AcDbEntity
  8
BEM
370
    -2
100
AcDbLine
 10
562.6543569106485
 20
514.056287670844
 30
0.0
 11
562.6543569106485
 21
473.056287670844
 31
0.0
  0
SOLID
  5
1050
330
9E3
100
AcDbEntity
  8
BEM
100
AcDbTrace
 10
561.4876902439818
 20
514.056287670844
 30
0.0
 11
563.8210235773151
 21
514.056287670844
 31
0.0
 12
562.6543569106485
 22
521.0562876708439
 32
0.0
 13
562.6543569106485
 23
521.0562876708439
 33
0.0
  0
SOLID
  5
1051
330
9E3
100
AcDbEntity
  8
BEM
100
AcDbTrace
 10
561.4876902439818
 20
473.056287670844
 30
0.0
 11
563.8210235773151
 21
473.056287670844
 31
0.0
 12
562.6543569106485
 22
466.0562876708439
 32
0.0
 13
562.6543569106485
 23
466.0562876708439
 33
0.0
  0
MTEXT
  5
1052
330
9E3
100
AcDbEntity
  8
BEM
100
AcDbMText
 10
553.6543569106483
 20
493.556287670844
 30
0.0
 40
10.0
 41
0.0
 71
     5
 72
     1
  1
\A1;55
 11
0.0000000000000001
 21
1.0
 31
0.0
 73
     1
 44
1.0
  0
POINT
  5
1053
330
9E3
100
AcDbEntity
  8
Defpoints
 62
     0
100
AcDbPoint
 10
569.7062644580131
 20
521.0562876708439
 30
0.0
  0
POINT
  5
1054
330
9E3
100
AcDbEntity
  8
Defpoints
 62
     0
100
AcDbPoint
 10
569.6304341272267
 20
466.0562876708439
 30
0.0
  0
POINT
  5
1055
330
9E3
100
AcDbEntity
  8
Defpoints
 62
     0
100
AcDbPoint
 10
562.6543569106485
 20
466.0562876708439
 30
0.0
  0
ENDBLK
  5
9EE
330
9E3
100
AcDbEntity
  8
0
 48
10.0
100
AcDbBlockEnd
  0
BLOCK
  5
A21
330
A17
100
AcDbEntity
  8
0
 48
10.0
100
AcDbBlockBegin
  2
*D20
 70
     1
 10
0.0
 20
0.0
 30
0.0
  3
*D20
  1

  0
LINE
  5
FA6
330
A17
100
AcDbEntity
  8
BEM
370
    -2
100
AcDbLine
 10
441.2062644580132
 20
528.5562876708439
 30
0.0
 11
304.0070444164131
 21
528.5562876708439
 31
0.0
  0
LINE
  5
FA7
330
A17
100
AcDbEntity
  8
BEM
370
    -2
100
AcDbLine
 10
441.2062644580133
 20
403.5562876708439
 30
0.0
 11
304.0070444164131
 21
403.556287670844
 31
0.0
  0
LINE
  5
FA8
330
A17
100
AcDbEntity
  8
BEM
370
    -2
100
AcDbLine
 10
305.2570444164131
 20
521.5562876708439
 30
0.0
 11
305.2570444164131
 21
410.556287670844
 31
0.0
  0
SOLID
  5
FA9
330
A17
100
AcDbEntity
  8
BEM
100
AcDbTrace
 10
304.0903777497464
 20
521.5562876708439
 30
0.0
 11
306.4237110830798
 21
521.5562876708439
 31
0.0
 12
305.2570444164131
 22
528.5562876708439
 32
0.0
 13
305.2570444164131
 23
528.5562876708439
 33
0.0
  0
SOLID
  5
FAA
330
A17
100
AcDbEntity
  8
BEM
100
AcDbTrace
 10
304.0903777497464
 20
410.556287670844
 30
0.0
 11
306.4237110830798
 21
410.556287670844
 31
0.0
 12
305.2570444164131
 22
403.556287670844
 32
0.0
 13
305.2570444164131
 23
403.556287670844
 33
0.0
  0
MTEXT
  5
FAB
330
A17
100
AcDbEntity
  8
BEM
100
AcDbMText
 10
296.2570444164131
 20
466.056287670844
 30
0.0
 40
10.0
 41
0.0
 71
     5
 72
     1
  1
\A1;%%c125
 11
0.0000000000000001
 21
1.0
 31
0.0
 73
     1
 44
1.0
  0
POINT
  5
FAC
330
A17
100
AcDbEntity
  8
Defpoints
 62
     0
100
AcDbPoint
 10
441.2062644580132
 20
528.5562876708439
 30
0.0
  0
POINT
  5
FAD
330
A17
100
AcDbEntity
  8
Defpoints
 62
     0
100
AcDbPoint
 10
441.2062644580133
 20
403.5562876708439
 30
0.0
  0
POINT
  5
FAE
330
A17
100
AcDbEntity
  8
Defpoints
 62
     0
100
AcDbPoint
 10
305.2570444164131
 20
403.556287670844
 30
0.0
  0
ENDBLK
  5
A22
330
A17
100
AcDbEntity
  8
0
 48
10.0
100
AcDbBlockEnd
  0
BLOCK
  5
A2D
330
A23
100
AcDbEntity
  8
0
 48
10.0
100
AcDbBlockBegin
  2
*D21
 70
     1
 10
0.0
 20
0.0
 30
0.0
  3
*D21
  1

  0
LINE
  5
FAF
330
A23
100
AcDbEntity
  8
BEM
370
    -2
100
AcDbLine
 10
441.2062644580131
 20
556.056287670844
 30
0.0
 11
278.9765813368733
 21
556.056287670844
 31
0.0
  0
LINE
  5
FB0
330
A23
100
AcDbEntity
  8
BEM
370
    -2
100
AcDbLine
 10
441.2062644580132
 20
376.056287670844
 30
0.0
 11
278.9765813368732
 21
376.056287670844
 31
0.0
  0
LINE
  5
FB1
330
A23
100
AcDbEntity
  8
BEM
370
    -2
100
AcDbLine
 10
280.2265813368732
 20
549.0562876708439
 30
0.0
 11
280.2265813368732
 21
383.0562876708441
 31
0.0
  0
SOLID
  5
FB2
330
A23
100
AcDbEntity
  8
BEM
100
AcDbTrace
 10
279.0599146702066
 20
549.0562876708439
 30
0.0
 11
281.39324800354
 21
549.0562876708439
 31
0.0
 12
280.2265813368732
 22
556.056287670844
 32
0.0
 13
280.2265813368732
 23
556.056287670844
 33
0.0
  0
SOLID
  5
FB3
330
A23
100
AcDbEntity
  8
BEM
100
AcDbTrace
 10
279.0599146702065
 20
383.0562876708441
 30
0.0
 11
281.3932480035399
 21
383.0562876708441
 31
0.0
 12
280.2265813368732
 22
376.056287670844
 32
0.0
 13
280.2265813368732
 23
376.056287670844
 33
0.0
  0
MTEXT
  5
FB4
330
A23
100
AcDbEntity
  8
BEM
100
AcDbMText
 10
271.2265813368732
 20
466.056287670844
 30
0.0
 40
10.0
 41
0.0
 71
     5
 72
     1
  1
\A1;%%c180
 11
0.0000000000000001
 21
1.0
 31
0.0
 73
     1
 44
1.0
  0
POINT
  5
FB5
330
A23
100
AcDbEntity
  8
Defpoints
 62
     0
100
AcDbPoint
 10
441.2062644580131
 20
556.056287670844
 30
0.0
  0
POINT
  5
FB6
330
A23
100
AcDbEntity
  8
Defpoints
 62
     0
100
AcDbPoint
 10
441.2062644580132
 20
376.056287670844
 30
0.0
  0
POINT
  5
FB7
330
A23
100
AcDbEntity
  8
Defpoints
 62
     0
100
AcDbPoint
 10
280.2265813368732
 20
376.056287670844
 30
0.0
  0
ENDBLK
  5
A2E
330
A23
100
AcDbEntity
  8
0
 48
10.0
100
AcDbBlockEnd
  0
BLOCK
  5
BAE
330
BAC
100
AcDbEntity
  8
0
 48
10.0
100
AcDbBlockBegin
  2
GENAXEH
 70
     0
 10
0.0
 20
0.0
 30
0.0
  3
GENAXEH
  1

  0
LINE
  5
BAD
330
BAC
100
AcDbEntity
  8
0
100
AcDbLine
 10
-1.0
 20
0.0
 30
0.0
 11
1.0
 21
0.0
 31
0.0
  0
ENDBLK
  5
BAF
330
BAC
100
AcDbEntity
  8
0
 48
10.0
100
AcDbBlockEnd
  0
BLOCK
  5
BD3
330
BCF
100
AcDbEntity
  8
0
 48
10.0
100
AcDbBlockBegin
  2
_Open30
 70
     0
 10
0.0
 20
0.0
 30
0.0
  3
_Open30
  1

  0
LINE
  5
BD0
330
BCF
100
AcDbEntity
  8
0
  6
ByBlock
 62
     0
370
    -2
100
AcDbLine
 10
-1.0
 20
0.26794919
 30
0.0
 11
0.0
 21
0.0
 31
0.0
  0
LINE
  5
BD1
330
BCF
100
AcDbEntity
  8
0
  6
ByBlock
 62
     0
370
    -2
100
AcDbLine
 10
0.0
 20
0.0
 30
0.0
 11
-1.0
 21
-0.26794919
 31
0.0
  0
LINE
  5
BD2
330
BCF
100
AcDbEntity
  8
0
  6
ByBlock
 62
     0
370
    -2
100
AcDbLine
 10
0.0
 20
0.0
 30
0.0
 11
-1.0
 21
0.0
 31
0.0
  0
ENDBLK
  5
BD4
330
BCF
100
AcDbEntity
  8
0
 48
10.0
100
AcDbBlockEnd
  0
ENDSEC
  0
SECTION
  2
ENTITIES
  0
ARC
  5
78A
330
2
100
AcDbEntity
  8
0
100
AcDbCircle
 10
547.7062644580131
 20
370.056287670844
 30
0.0
 40
6.0
100
AcDbArc
 50
180.0
 51
270.0
1001
ACAD
1000
ASC_BOUNDS
1002
{
1070
    19
1002
}
  0
LINE
  5
78B
330
2
100
AcDbEntity
  8
MITTE
 48
10.0
100
AcDbLine
 10
366.0622271745003
 20
466.0562876708439
 30
0.0
 11
606.7206383600242
 21
466.0562876708439
 31
0.0
  0
DIMENSION
  5
78C
330
2
100
AcDbEntity
  8
BEM
100
AcDbDimension
  2
*D0
 10
441.2062644580132
 20
256.3818829736565
 30
0.0
 11
552.6562644580133
 21
265.3818829736565
 31
0.0
 70
    32
  1
223
 71
     5
 42
222.9000000000002
  3
ISO-25
100
AcDbAlignedDimension
 13
664.1062644580134
 23
349.6594577246704
 33
0.0
 14
441.2062644580132
 24
376.056287670844
 34
0.0
100
AcDbRotatedDimension
1001
ACAD
1000
DSTYLE
1002
{
1070
   144
1040
1.0
1070
   289
1070
     0
1002
}
  0
LINE
  5
78E
330
2
100
AcDbEntity
  8
0
100
AcDbLine
 10
520.7062644580132
 20
521.0562876708439
 30
0.0
 11
569.7062644580131
 21
521.0562876708439
 31
0.0
1001
ACAD
1000
ASC_BOUNDS
1002
{
1070
    19
1002
}
  0
LINE
  5
78F
330
2
100
AcDbEntity
  8
0
100
AcDbLine
 10
518.7062644580134
 20
386.056287670844
 30
0.0
 11
543.9040698224788
 21
365.4148098939379
 31
0.0
  0
ARC
  5
790
330
2
100
AcDbEntity
  8
0
100
AcDbCircle
 10
531.7062644580132
 20
376.056287670844
 30
0.0
 40
10.0
100
AcDbArc
 50
0.0
 51
90.0
1001
ACAD
1000
ASC_BOUNDS
1002
{
1070
    19
1002
}
  0
DIMENSION
  5
791
330
2
100
AcDbEntity
  8
BEM
 48
10.0
100
AcDbDimension
  2
*D2
 10
150.4230101154088
 20
351.2111419222661
 30
0.0
 11
174.14088804007
 21
585.1759527512065
 31
0.0
 70
   162
 71
     5
 42
0.349065850398856
  3
ISO-25
100
AcDb2LineAngularDimension
 13
172.0856851555274
 23
525.5739981885538
 33
0.0
 14
178.3147256928234
 24
542.6881464096426
 34
0.0
 15
150.4230101154088
 25
565.0634674497846
 35
0.0
 16
164.523416864721
 26
586.692977245827
 36
0.0
1001
ACAD
1000
DSTYLE
1002
{
1070
   144
1040
1.0
1070
   289
1070
     0
1002
}
  0
DIMENSION
  5
792
330
2
100
AcDbEntity
  8
BEM
100
AcDbDimension
  2
*D20
 10
305.2570444164131
 20
403.556287670844
 30
0.0
 11
296.2570444164131
 21
466.056287670844
 31
0.0
 70
    32
  1
%%c<>
 71
     5
 42
125.0
  3
ISO-25
100
AcDbAlignedDimension
 13
441.2062644580132
 23
528.5562876708439
 33
0.0
 14
441.2062644580133
 24
403.5562876708439
 34
0.0
 50
90.0
100
AcDbRotatedDimension
1001
ACAD
1000
DSTYLE
1002
{
1070
   144
1040
1.0
1070
   289
1070
     0
1002
}
  0
DIMENSION
  5
795
330
2
100
AcDbEntity
  8
BEM
100
AcDbDimension
  2
*D21
 10
280.2265813368732
 20
376.056287670844
 30
0.0
 11
271.2265813368732
 21
466.056287670844
 31
0.0
 70
    32
  1
%%c<>
 71
     5
 42
180.0
  3
ISO-25
100
AcDbAlignedDimension
 13
441.2062644580131
 23
556.056287670844
 33
0.0
 14
441.2062644580132
 24
376.056287670844
 34
0.0
 50
90.0
100
AcDbRotatedDimension
1001
ACAD
1000
DSTYLE
1002
{
1070
   144
1040
1.0
1070
   289
1070
     0
1002
}
  0
ARC
  5
798
330
2
100
AcDbEntity
  8
0
100
AcDbCircle
 10
460.0033254371874
 20
434.4954842737489
 30
0.0
 40
10.0
100
AcDbArc
 50
283.6002851900822
 51
314.9999999999997
1001
ACAD
1000
ASC_BOUNDS
1002
{
1070
    19
1002
}
  0
ARC
  5
799
330
2
100
AcDbEntity
  8
0
100
AcDbCircle
 10
489.7062644580131
 20
422.556287670844
 30
0.0
 40
10.0
100
AcDbArc
 50
0.0
 51
90.0
1001
ACAD
1000
ASC_BOUNDS
1002
{
1070
    19
1002
}
  0
DIMENSION
  5
79A
330
2
100
AcDbEntity
  8
BEM
100
AcDbDimension
  2
*D3
 10
437.756264458013
 20
446.0562876708437
 30
0.0
 11
402.1650840086177
 21
420.0766125809439
 31
0.0
 70
   164
 71
     5
 42
2.5
  3
ISO-25
100
AcDbRadialDimension
 15
439.7755329079648
 25
447.5302466007428
 35
0.0
 40
0.0
1001
ACAD
1000
DSTYLE
1002
{
1070
   144
1040
1.0
1070
   279
1070
     1
1002
}
  0
ARC
  5
79B
330
2
100
AcDbEntity
  8
0
100
AcDbCircle
 10
464.7062644580131
 20
415.0562876708439
 30
0.0
 40
10.0
100
AcDbArc
 50
103.6002851900822
 51
180.0
1001
ACAD
1000
ASC_BOUNDS
1002
{
1070
    19
1002
}
  0
LINE
  5
79C
330
2
100
AcDbEntity
  8
LINIE
  6
GESTRICHELT
 48
10.0
100
AcDbLine
 10
446.2062644580132
 20
528.3562876708439
 30
0.0
 11
446.2062644580133
 21
403.756287670844
 31
0.0
1001
ACAD
1000
ASC_BOUNDS
1002
{
1070
    19
1002
}
  0
LINE
  5
79D
330
2
100
AcDbEntity
  8
0
100
AcDbLine
 10
514.7062644580131
 20
515.0562876708439
 30
0.0
 11
514.7062644580131
 21
422.5230444109602
 31
0.0
  0
LINE
  5
79E
330
2
100
AcDbEntity
  8
0
100
AcDbLine
 10
313.9792241895392
 20
459.2687844706391
 30
0.0
 11
313.9792241895392
 21
412.2687844706392
 31
0.0
  0
LINE
  5
79F
330
2
100
AcDbEntity
  8
0
100
AcDbLine
 10
314.9792241895392
 20
459.2687844706391
 30
0.0
 11
314.9792241895392
 21
419.2247010957373
 31
0.0
  0
LINE
  5
7A0
330
2
100
AcDbEntity
  8
LINIE
  6
GESTRICHELT
 48
7.0
100
AcDbLine
 10
270.2912241895391
 20
422.7687844706391
 30
0.0
 11
278.4792241895392
 21
427.4961284747639
 31
0.0
  0
LINE
  5
7A1
330
2
100
AcDbEntity
  8
LINIE
  6
GESTRICHELT
 48
7.0
100
AcDbLine
 10
278.4792241895392
 20
427.4961284747639
 30
0.0
 11
286.6672241895391
 21
422.7687844706391
 31
0.0
  0
ARC
  5
7A2
330
2
100
AcDbEntity
  8
0
100
AcDbCircle
 10
283.9792241895395
 20
428.0924967821126
 30
0.0
 40
10.0
100
AcDbArc
 50
180.0
 51
219.3842076829998
  0
LINE
  5
7A3
330
2
100
AcDbEntity
  8
LINIE
  6
GESTRICHELT
 48
7.0
100
AcDbLine
 10
233.2912241895391
 20
422.7687844706391
 30
0.0
 11
241.4792241895392
 21
427.4961284747639
 31
0.0
  0
LINE
  5
7A4
330
2
100
AcDbEntity
  8
LINIE
  6
GESTRICHELT
 48
7.0
100
AcDbLine
 10
241.4792241895392
 20
427.4961284747639
 30
0.0
 11
249.6672241895391
 21
422.7687844706391
 31
0.0
  0
ARC
  5
7A5
330
2
100
AcDbEntity
  8
0
100
AcDbCircle
 10
235.979224189539
 20
428.0924967821126
 30
0.0
 40
10.0
100
AcDbArc
 50
320.6157923170001
 51
0.0
  0
LINE
  5
7A6
330
2
100
AcDbEntity
  8
0
100
AcDbLine
 10
205.9792241895392
 20
459.2687844706391
 30
0.0
 11
205.9792241895392
 21
412.2687844706392
 31
0.0
  0
LINE
  5
7A7
330
2
100
AcDbEntity
  8
0
100
AcDbLine
 10
204.9792241895392
 20
459.2687844706391
 30
0.0
 11
204.9792241895389
 21
419.2247010957373
 31
0.0
  0
LINE
  5
7A8
330
2
100
AcDbEntity
  8
0
100
AcDbLine
 10
441.2062644580131
 20
556.056287670844
 30
0.0
 11
441.2062644580132
 21
376.056287670844
 31
0.0
1001
ACAD
1000
ASC_BOUNDS
1002
{
1070
    19
1002
}
  0
LINE
  5
7A9
330
2
100
AcDbEntity
  8
0
100
AcDbLine
 10
454.7062644580132
 20
554.0562876708439
 30
0.0
 11
454.7062644580127
 21
378.0562876708436
 31
0.0
1001
ACAD
1000
ASC_BOUNDS
1002
{
1070
    19
1002
}
  0
LINE
  5
7AA
330
2
100
AcDbEntity
  8
0
100
AcDbLine
 10
499.7062644580129
 20
461.0562876708439
 30
0.0
 11
499.7062644580133
 21
392.0562876708441
 31
0.0
1001
ACAD
1000
ASC_BOUNDS
1002
{
1070
    19
1002
}
  0
LINE
  5
7AB
330
2
100
AcDbEntity
  8
0
100
AcDbLine
 10
452.7062644580133
 20
556.056287670844
 30
0.0
 11
452.7062644580131
 21
376.056287670844
 31
0.0
  0
LINE
  5
7AC
330
2
100
AcDbEntity
  8
MITTE
 48
20.0
100
AcDbLine
 10
259.9792241895392
 20
518.9543109156379
 30
0.0
 11
259.9792241895392
 21
379.8371912695156
 31
0.0
  0
ARC
  5
7AD
330
2
100
AcDbEntity
  8
0
100
AcDbCircle
 10
244.9556969747122
 20
466.0562876708439
 30
0.0
 40
90.0
100
AcDbArc
 50
342.1708262854213
 51
229.4415405741454
  0
LINE
  5
7AE
330
2
100
AcDbEntity
  8
0
100
AcDbLine
 10
169.3691104556595
 20
462.9804465141567
 30
0.0
 11
196.1015617229959
 21
360.6946896892718
 31
0.0
  0
ARC
  5
7AF
330
2
100
AcDbEntity
  8
0
100
AcDbCircle
 10
244.9556969747122
 20
466.0562876708439
 30
0.0
 40
88.0
100
AcDbArc
 50
189.5202251796862
 51
227.5209141935994
  0
ARC
  5
7B0
330
2
100
AcDbEntity
  8
0
100
AcDbCircle
 10
257.6342448269331
 20
438.8670540597444
 30
0.0
 40
73.0
100
AcDbArc
 50
294.9999999999988
 51
28.5939954930963
  0
LINE
  5
7B1
330
2
100
AcDbEntity
  8
MITTE
 48
5.0
100
AcDbLine
 10
278.4792241895392
 20
432.0247723817334
 30
0.0
 11
278.4792241895392
 21
400.3863087418436
 31
0.0
  0
LINE
  5
7B2
330
2
100
AcDbEntity
  8
MITTE
 48
5.0
100
AcDbLine
 10
241.4792241895392
 20
432.0247723817334
 30
0.0
 11
241.4792241895392
 21
400.2255788849073
 31
0.0
  0
HATCH
  5
7B3
330
2
100
AcDbEntity
  8
LINIE
 48
10.0
100
AcDbHatch
 10
0.0
 20
0.0
 30
0.0
210
0.0
220
0.0
230
1.0
  2
AR-CONC
 70
     0
 71
     0
 91
        7
 92
        7
 72
     1
 73
     1
 93
        3
 10
259.9792241895392
 20
513.2687844706391
 42
0.0
 10
259.9792241895392
 20
459.2687844706391
 42
0.0
 10
313.9792241895392
 20
459.2687844706391
 42
0.4142135623730951
 97
        0
 92
        7
 72
     1
 73
     1
 93
        3
 10
259.9792241895392
 20
513.2687844706391
 42
0.3777644791310694
 10
206.4074984351153
 20
466.0562876708439
 42
0.0
 10
259.9792241895392
 20
466.0562876708439
 42
0.0
 97
        0
 92
        7
 72
     1
 73
     1
 93
        4
 10
259.9792241895392
 20
459.2687844706391
 42
0.0
 10
259.9792241895392
 20
466.0562876708439
 42
0.0
 10
206.4074984351153
 20
466.0562876708439
 42
0.0315173936867916
 10
205.9792241895392
 20
459.2687844706391
 42
0.0
 97
        0
 92
        7
 72
     1
 73
     1
 93
       16
 10
259.9792241895392
 20
459.2687844706391
 42
0.0
 10
205.9792241895392
 20
459.2687844706391
 42
0.0
 10
205.9792241895392
 20
412.2687844706391
 42
0.4142135623730907
 10
213.9792241895392
 20
404.2687844706392
 42
0.0
 10
232.4792241895392
 20
404.2687844706392
 42
0.0
 10
232.4792241895392
 20
417.7687844706391
 42
0.0
 10
233.2912241895392
 20
417.7687844706391
 42
0.0
 10
233.2912241895391
 20
422.7687844706391
 42
0.0
 10
241.4792241895392
 20
427.4961284747639
 42
0.0
 10
249.6672241895391
 20
422.7687844706391
 42
0.0
 10
249.6672241895391
 20
417.7687844706391
 42
0.0
 10
250.4792241895392
 20
417.7687844706391
 42
0.0
 10
250.4792241895392
 20
403.7687844706391
 42
0.0
 10
255.4792241895392
 20
403.7687844706391
 42
0.0
 10
255.4792241895392
 20
402.2687844706391
 42
0.0
 10
259.9792241895392
 20
402.2687844706391
 42
0.0
 97
        0
 92
        7
 72
     1
 73
     1
 93
       16
 10
313.9792241895392
 20
459.2687844706391
 42
0.0
 10
259.9792241895392
 20
459.2687844706391
 42
0.0
 10
259.9792241895392
 20
402.2687844706391
 42
0.0
 10
264.4792241895392
 20
402.2687844706391
 42
0.0
 10
264.4792241895392
 20
403.7687844706391
 42
0.0
 10
269.4792241895392
 20
403.7687844706391
 42
0.0
 10
269.4792241895392
 20
417.7687844706391
 42
0.0
 10
270.2912241895393
 20
417.7687844706391
 42
0.0
 10
270.2912241895393
 20
422.7687844706393
 42
0.0
 10
278.4792241895392
 20
427.4961284747639
 42
0.0
 10
286.6672241895391
 20
422.7687844706391
 42
0.0
 10
286.6672241895391
 20
417.7687844706391
 42
0.0
 10
287.4792241895392
 20
417.7687844706391
 42
0.0
 10
287.4792241895392
 20
404.2687844706391
 42
0.0
 10
305.9792241895394
 20
404.2687844706392
 42
0.4142135623730857
 10
313.9792241895392
 20
412.2687844706392
 42
0.0
 97
        0
 92
        7
 72
     1
 73
     1
 93
        5
 10
259.9792241895392
 20
394.2687844706393
 42
0.0
 10
259.9792241895392
 20
402.2687844706391
 42
0.0
 10
241.9792241895389
 20
402.2687844706391
 42
0.0
 10
241.979224189539
 20
395.7687844706392
 42
0.1622776601683737
 10
242.4792241895389
 20
394.2687844706393
 42
0.0
 97
        0
 92
        7
 72
     1
 73
     1
 93
        5
 10
259.9792241895392
 20
402.2687844706391
 42
0.0
 10
259.9792241895392
 20
394.2687844706393
 42
0.0
 10
277.4792241895393
 20
394.2687844706393
 42
0.1622776601683939
 10
277.9792241895394
 20
395.7687844706394
 42
0.0
 10
277.9792241895394
 20
402.2687844706391
 42
0.0
 97
        0
 75
     0
 76
     1
 52
0.0
 41
3.0
 77
     0
 78
    13
 53
50.0
 43
252.4564642545748
 44
89.01988866235388
 45
21.5178054780226
 46
-1.882564049477853
 79
     2
 49
2.25
 49
-24.75
 53
355.0
 43
252.4564642545748
 44
89.01988866235388
 45
-4.162540008389999
 46
22.56576401100035
 79
     2
 49
1.799999999999999
 49
-19.8
 53
100.4514
 43
254.2496146545748
 44
88.86300846235389
 45
17.35528145142065
 46
20.68318626182861
 79
     2
 49
1.912205699999996
 49
-21.03426335999993
 53
46.1842
 43
252.4564642545748
 44
95.01988866235388
 45
32.01723145876933
 46
-4.965570429870542
 79
     2
 49
3.375
 49
-37.125
 53
96.63559999999996
 43
255.1245666045748
 44
94.6060894523539
 45
28.0398811664611
 46
29.22353612701325
 79
     2
 49
2.868308639999991
 49
-31.55138999999993
 53
351.1842000000001
 43
252.4564642545748
 44
95.01988866235388
 45
28.03985835400882
 46
29.22355802775974
 79
     2
 49
2.7
 49
-29.7
 53
21.0
 43
255.4564642545748
 44
93.51988866235387
 45
17.90721156355385
 46
-12.07856671996016
 79
     2
 49
2.25
 49
-24.75
 53
326.0
 43
255.4564642545748
 44
93.51988866235387
 45
7.299459957647451
 46
21.75450135140559
 79
     2
 49
1.799999999999999
 49
-19.8
 53
71.45140000000001
 43
256.9487312445748
 44
92.5133404823539
 45
25.2066788574447
 46
9.675914901298572
 79
     2
 49
1.9122057
 49
-21.03426336
 53
37.5
 43
252.4564642545748
 44
89.01988866235388
 45
0.3647956595187201
 46
9.986815614939345
 79
     6
 49
0.0
 49
-19.56
 49
0.0
 49
-20.1
 49
0.0
 49
-19.875
 53
7.499999999999999
 43
252.4564642545748
 44
89.01988866235388
 45
7.892086123264458
 46
11.8323513564708
 79
     6
 49
0.0
 49
-11.46
 49
0.0
 49
-19.11
 49
0.0
 49
-7.574999999999999
 53
327.5
 43
245.7664642545749
 44
89.01988866235388
 45
16.01467308517227
 46
-0.676646152031394
 79
     6
 49
0.0
 49
-7.5
 49
0.0
 49
-23.4
 49
0.0
 49
-31.05
 53
317.5
 43
242.7664642545749
 44
89.01988866235388
 45
17.49558508027159
 46
3.003149469969529
 79
     6
 49
0.0
 49
-9.75
 49
0.0
 49
-15.54
 49
0.0
 49
-22.05
 47
0.3771958435050378
 98
        7
 10
284.2703571885492
 20
494.3921294478165
 10
246.1604396438885
 20
487.2254079532629
 10
247.6697432151333
 20
460.8216979820363
 10
249.1790467863776
 20
440.075927185755
 10
308.4192143284632
 20
439.3215351834255
 10
252.1976539288672
 20
397.8299919058127
 10
269.9319708909917
 20
398.5843839081422
  0
ARC
  5
7B4
330
2
100
AcDbEntity
  8
0
100
AcDbCircle
 10
305.9792241895394
 20
412.2687844706391
 30
0.0
 40
8.0
100
AcDbArc
 50
269.9999999999935
 51
0.0
  0
LINE
  5
7B7
330
2
100
AcDbEntity
  8
BEM
100
AcDbLine
 10
187.5381150454772
 20
409.6353165175271
 30
0.0
 11
216.523554102833
 21
321.2683747464335
 31
0.0
  0
LINE
  5
7B8
330
2
100
AcDbEntity
  8
0
100
AcDbLine
 10
310.1361424733558
 20
405.009104895233
 30
0.0
 11
280.7727642890496
 21
388.2772965572908
 31
0.0
  0
DIMENSION
  5
7B9
330
2
100
AcDbEntity
  8
BEM
100
AcDbDimension
  2
*D4
 10
146.9465373302358
 20
322.3043269965597
 30
0.0
 11
165.4465373302358
 21
331.3043269965597
 31
0.0
 70
    32
 71
     5
 42
37.0
  3
ISO-25
100
AcDbAlignedDimension
 13
183.9465373302358
 23
400.3863087418436
 33
0.0
 14
146.9465373302358
 24
400.2255788849073
 34
0.0
100
AcDbRotatedDimension
1001
ACAD
1000
DSTYLE
1002
{
1070
   144
1040
1.0
1070
   289
1070
     0
1002
}
  0
LINE
  5
7BA
330
2
100
AcDbEntity
  8
BEM
100
AcDbLine
 10
143.3549596149946
 20
409.6353165175272
 30
0.0
 11
114.3695205576382
 21
321.2683747464338
 31
0.0
  0
LINE
  5
7BE
330
2
100
AcDbEntity
  8
LINIE
  6
GESTRICHELT
 48
10.0
100
AcDbLine
 10
219.9287139323224
 20
402.2687844706391
 30
0.0
 11
300.0297344467559
 21
402.2687844706391
 31
0.0
  0
LINE
  5
7BF
330
2
100
AcDbEntity
  8
0
100
AcDbLine
 10
213.9792241895392
 20
404.2687844706392
 30
0.0
 11
239.479224189539
 21
404.2687844706392
 31
0.0
  0
LINE
  5
7C0
330
2
100
AcDbEntity
  8
0
100
AcDbLine
 10
247.1477780697269
 20
356.4634373772678
 30
0.0
 11
209.1686034647506
 21
351.8177623644477
 31
0.0
  0
LINE
  5
7C1
330
2
100
AcDbEntity
  8
0
100
AcDbLine
 10
219.9792241895392
 20
401.268784470639
 30
0.0
 11
241.979224189539
 21
401.268784470639
 31
0.0
  0
LINE
  5
7C2
330
2
100
AcDbEntity
  8
0
100
AcDbLine
 10
209.8223059057226
 20
405.009104895233
 30
0.0
 11
239.1856840900288
 21
388.2772965572908
 31
0.0
  0
ARC
  5
7C3
330
2
100
AcDbEntity
  8
0
100
AcDbCircle
 10
207.711603526924
 20
363.728981914988
 30
0.0
 40
12.0
100
AcDbArc
 50
194.6466799560693
 51
276.9738691867131
  0
LWPOLYLINE
  5
7C4
330
2
100
AcDbEntity
  8
0
 48
10.0
100
AcDbPolyline
 90
        6
 70
     1
 43
0.0
 10
208.8821730190904
 20
367.0274311057457
 10
205.440347480719
 20
366.3919494274779
 10
204.2697779885526
 20
363.0935002367204
 10
206.5410340347578
 20
360.4305327242305
 10
209.9828595731292
 20
361.0660144024981
 10
211.1534290652955
 20
364.3644635932558
  0
LINE
  5
7C5
330
2
100
AcDbEntity
  8
MITTE
 48
4.0
100
AcDbLine
 10
203.9428214811355
 20
371.8111610940737
 30
0.0
 11
211.4803855727125
 21
355.6468027359024
 31
0.0
  0
LINE
  5
7C6
330
2
100
AcDbEntity
  8
MITTE
 48
4.0
100
AcDbLine
 10
215.7937827060097
 20
367.4977639607765
 30
0.0
 11
199.6294243478384
 21
359.9601998691995
 31
0.0
  0
CIRCLE
  5
7C7
330
2
100
AcDbEntity
  8
0
 48
10.0
100
AcDbCircle
 10
207.711603526924
 20
363.728981914988
 30
0.0
 40
7.4
  0
CIRCLE
  5
7C8
330
2
100
AcDbEntity
  8
0
 48
10.0
100
AcDbCircle
 10
207.711603526924
 20
363.728981914988
 30
0.0
 40
6.5
  0
LINE
  5
7C9
330
2
100
AcDbEntity
  8
0
100
AcDbLine
 10
219.979224189539
 20
401.7687844706392
 30
0.0
 11
219.9792241895392
 21
401.268784470639
 31
0.0
  0
ARC
  5
7CA
330
2
100
AcDbEntity
  8
0
100
AcDbCircle
 10
210.9792241895392
 20
413.0602870927683
 30
0.0
 40
8.0
100
AcDbArc
 50
144.0494323803783
 51
256.8171228859242
  0
ARC
  5
7CB
330
2
100
AcDbEntity
  8
0
100
AcDbCircle
 10
213.979224189539
 20
412.2687844706391
 30
0.0
 40
8.0
100
AcDbArc
 50
180.0
 51
270.0
  0
ARC
  5
7CC
330
2
100
AcDbEntity
  8
0
100
AcDbCircle
 10
202.4792241895392
 20
419.2247010957373
 30
0.0
 40
2.5
100
AcDbArc
 50
324.0494323803783
 51
0.0
  0
ARC
  5
7CD
330
2
100
AcDbEntity
  8
0
100
AcDbCircle
 10
208.5845951855136
 20
402.8369925194383
 30
0.0
 40
2.5
100
AcDbArc
 50
60.32469145801069
 51
76.81712288592418
  0
ARC
  5
7CE
330
2
100
AcDbEntity
  8
0
100
AcDbCircle
 10
217.4792241895392
 20
401.7687844706392
 30
0.0
 40
2.5
100
AcDbArc
 50
0.0
 51
90.0
  0
LINE
  5
7CF
330
2
100
AcDbEntity
  8
0
100
AcDbLine
 10
288.4853779340041
 20
372.7065856060689
 30
0.0
 11
264.0150676840145
 21
361.29589253907
 31
0.0
  0
ARC
  5
7D0
330
2
100
AcDbEntity
  8
0
100
AcDbCircle
 10
240.3484450265355
 20
412.0491286131224
 30
0.0
 40
56.0
100
AcDbArc
 50
276.9738691867131
 51
294.9999999999988
  0
LINE
  5
7D1
330
2
100
AcDbEntity
  8
LINIE
  6
GESTRICHELT
 48
7.0
100
AcDbLine
 10
264.4792241895392
 20
403.7687844706391
 30
0.0
 11
292.4792241895392
 21
403.7687844706391
 31
0.0
  0
LINE
  5
7D2
330
2
100
AcDbEntity
  8
0
100
AcDbLine
 10
242.4792241895389
 20
394.2687844706393
 30
0.0
 11
277.4792241895394
 21
394.2687844706393
 31
0.0
  0
ARC
  5
7D3
330
2
100
AcDbEntity
  8
0
100
AcDbCircle
 10
259.9792241895392
 20
424.7687844706391
 30
0.0
 40
42.0
100
AcDbArc
 50
240.3246914580107
 51
299.6753085419893
  0
LINE
  5
7D4
330
2
100
AcDbEntity
  8
0
100
AcDbLine
 10
241.9792241895385
 20
416.1266488469079
 30
0.0
 11
241.979224189539
 21
395.7687844706393
 31
0.0
  0
ARC
  5
7D5
330
2
100
AcDbEntity
  8
0
100
AcDbCircle
 10
244.479224189539
 20
395.7687844706393
 30
0.0
 40
2.5
100
AcDbArc
 50
180.0
 51
216.8698976458398
  0
LINE
  5
7D6
330
2
100
AcDbEntity
  8
LINIE
  6
GESTRICHELT
 48
7.0
100
AcDbLine
 10
233.2912241895393
 20
404.5807844706391
 30
0.0
 11
249.6672241895391
 21
404.5807844706391
 31
0.0
  0
LINE
  5
7D7
330
2
100
AcDbEntity
  8
LINIE
  6
GESTRICHELT
 48
7.0
100
AcDbLine
 10
227.4792241895392
 20
403.7687844706391
 30
0.0
 11
255.4792241895392
 21
403.7687844706391
 31
0.0
  0
LINE
  5
7D8
330
2
100
AcDbEntity
  8
LINIE
  6
GESTRICHELT
 48
7.0
100
AcDbLine
 10
232.4792241895392
 20
417.7687844706391
 30
0.0
 11
250.4792241895392
 21
417.7687844706391
 31
0.0
  0
LINE
  5
7D9
330
2
100
AcDbEntity
  8
LINIE
  6
GESTRICHELT
 48
7.0
100
AcDbLine
 10
233.2912241895391
 20
422.7687844706391
 30
0.0
 11
249.6672241895391
 21
422.7687844706391
 31
0.0
  0
LINE
  5
7DA
330
2
100
AcDbEntity
  8
LINIE
  6
GESTRICHELT
 48
7.0
100
AcDbLine
 10
232.4792241895392
 20
417.7687844706391
 30
0.0
 11
232.4792241895392
 21
403.7687844706391
 31
0.0
  0
LINE
  5
7DB
330
2
100
AcDbEntity
  8
LINIE
  6
GESTRICHELT
 48
7.0
100
AcDbLine
 10
233.2912241895391
 20
422.7687844706391
 30
0.0
 11
233.2912241895393
 21
404.5807844706391
 31
0.0
  0
LINE
  5
7DC
330
2
100
AcDbEntity
  8
LINIE
  6
GESTRICHELT
 48
7.0
100
AcDbLine
 10
233.2912241895393
 20
404.5807844706391
 30
0.0
 11
232.4792241895392
 21
403.7687844706391
 31
0.0
  0
LINE
  5
7DD
330
2
100
AcDbEntity
  8
LINIE
  6
GESTRICHELT
 48
7.0
100
AcDbLine
 10
227.4792241895392
 20
403.7687844706391
 30
0.0
 11
227.4792241895392
 21
402.2687844706391
 31
0.0
  0
ARC
  5
7DE
330
2
100
AcDbEntity
  8
0
100
AcDbCircle
 10
239.479224189539
 20
401.7687844706392
 30
0.0
 40
2.5
100
AcDbArc
 50
0.0
 51
90.0
  0
LWPOLYLINE
  5
7DF
330
2
100
AcDbEntity
  8
BEM
100
AcDbPolyline
 90
        2
 70
     1
 43
1.0
 10
143.7385942425653
 20
409.6635346507934
 42
-1.0
 10
142.7385942425653
 20
409.6635346507934
 42
-1.0
  0
ARC
  5
7E0
330
2
100
AcDbEntity
  8
0
100
AcDbCircle
 10
251.979224189539
 20
416.1266488469082
 30
0.0
 40
10.0
100
AcDbArc
 50
145.8011143785774
 51
180.0
  0
LINE
  5
7E1
330
2
100
AcDbEntity
  8
LINIE
  6
GESTRICHELT
 48
7.0
100
AcDbLine
 10
249.6672241895391
 20
422.7687844706391
 30
0.0
 11
249.6672241895391
 21
404.580784470639
 31
0.0
  0
LINE
  5
7E2
330
2
100
AcDbEntity
  8
LINIE
  6
GESTRICHELT
 48
7.0
100
AcDbLine
 10
250.4792241895392
 20
417.7687844706391
 30
0.0
 11
250.4792241895392
 21
403.7687844706391
 31
0.0
  0
LINE
  5
7E3
330
2
100
AcDbEntity
  8
LINIE
  6
GESTRICHELT
 48
7.0
100
AcDbLine
 10
255.4792241895392
 20
403.7687844706391
 30
0.0
 11
255.4792241895392
 21
402.2687844706391
 31
0.0
  0
LINE
  5
7E4
330
2
100
AcDbEntity
  8
LINIE
  6
GESTRICHELT
 48
7.0
100
AcDbLine
 10
249.6672241895391
 20
404.5807844706391
 30
0.0
 11
250.4792241895392
 21
403.7687844706391
 31
0.0
  0
LINE
  5
7E5
330
2
100
AcDbEntity
  8
LINIE
  6
GESTRICHELT
 48
7.0
100
AcDbLine
 10
264.4792241895392
 20
403.7687844706391
 30
0.0
 11
264.4792241895392
 21
402.2687844706391
 31
0.0
  0
LINE
  5
7E6
330
2
100
AcDbEntity
  8
0
100
AcDbLine
 10
277.9792241895394
 20
416.1266488469082
 30
0.0
 11
277.9792241895394
 21
395.7687844706394
 31
0.0
  0
LINE
  5
7E7
330
2
100
AcDbEntity
  8
0
100
AcDbLine
 10
299.9792241895394
 20
401.7687844706392
 30
0.0
 11
299.9792241895392
 21
401.268784470639
 31
0.0
  0
LINE
  5
7E8
330
2
100
AcDbEntity
  8
0
100
AcDbLine
 10
277.9792241895394
 20
401.268784470639
 30
0.0
 11
299.9792241895392
 21
401.268784470639
 31
0.0
  0
ARC
  5
7E9
330
2
100
AcDbEntity
  8
0
100
AcDbCircle
 10
275.4792241895394
 20
395.7687844706394
 30
0.0
 40
2.5
100
AcDbArc
 50
323.1301023541543
 51
0.0
  0
LINE
  5
7EA
330
2
100
AcDbEntity
  8
0
100
AcDbLine
 10
280.4792241895394
 20
404.2687844706391
 30
0.0
 11
305.9792241895392
 21
404.2687844706392
 31
0.0
  0
LINE
  5
7EB
330
2
100
AcDbEntity
  8
LINIE
  6
GESTRICHELT
 48
7.0
100
AcDbLine
 10
286.6672241895391
 20
404.5807844706391
 30
0.0
 11
287.4792241895392
 21
403.7687844706391
 31
0.0
  0
LINE
  5
7EC
330
2
100
AcDbEntity
  8
LINIE
  6
GESTRICHELT
 48
7.0
100
AcDbLine
 10
269.4792241895392
 20
417.7687844706391
 30
0.0
 11
287.4792241895392
 21
417.7687844706391
 31
0.0
  0
LINE
  5
7ED
330
2
100
AcDbEntity
  8
LINIE
  6
GESTRICHELT
 48
7.0
100
AcDbLine
 10
269.4792241895392
 20
417.7687844706391
 30
0.0
 11
269.4792241895392
 21
403.7687844706391
 31
0.0
  0
LINE
  5
7EE
330
2
100
AcDbEntity
  8
LINIE
  6
GESTRICHELT
 48
7.0
100
AcDbLine
 10
270.2912241895393
 20
422.7687844706391
 30
0.0
 11
270.2912241895393
 21
404.5807844706391
 31
0.0
  0
LINE
  5
7EF
330
2
100
AcDbEntity
  8
LINIE
  6
GESTRICHELT
 48
7.0
100
AcDbLine
 10
286.6672241895391
 20
422.7687844706391
 30
0.0
 11
286.6672241895391
 21
404.5807844706391
 31
0.0
  0
LINE
  5
7F0
330
2
100
AcDbEntity
  8
LINIE
  6
GESTRICHELT
 48
7.0
100
AcDbLine
 10
270.2912241895391
 20
404.580784470639
 30
0.0
 11
286.6672241895391
 21
404.5807844706391
 31
0.0
  0
LINE
  5
7F1
330
2
100
AcDbEntity
  8
LINIE
  6
GESTRICHELT
 48
7.0
100
AcDbLine
 10
270.2912241895393
 20
404.5807844706391
 30
0.0
 11
269.4792241895392
 21
403.7687844706391
 31
0.0
  0
LWPOLYLINE
  5
7F2
330
2
100
AcDbEntity
  8
BEM
100
AcDbPolyline
 90
        2
 70
     1
 43
1.0
 10
187.1544804179063
 20
409.6635346507934
 42
1.0
 10
188.1544804179063
 20
409.6635346507934
 42
1.0
  0
ARC
  5
7F3
330
2
100
AcDbEntity
  8
0
100
AcDbCircle
 10
280.4792241895394
 20
401.7687844706392
 30
0.0
 40
2.5
100
AcDbArc
 50
90.0
 51
180.0
  0
LINE
  5
7F4
330
2
100
AcDbEntity
  8
LINIE
  6
GESTRICHELT
 48
7.0
100
AcDbLine
 10
270.2912241895393
 20
422.7687844706391
 30
0.0
 11
286.6672241895391
 21
422.7687844706391
 31
0.0
  0
ARC
  5
7F5
330
2
100
AcDbEntity
  8
0
100
AcDbCircle
 10
267.9792241895394
 20
416.1266488469082
 30
0.0
 40
10.0
100
AcDbArc
 50
0.0
 51
34.19888562142253
  0
LINE
  5
7F6
330
2
100
AcDbEntity
  8
MITTE
 48
10.0
100
AcDbLine
 10
286.979224189539
 20
421.7638185856459
 30
0.0
 11
286.979224189539
 21
413.8899898100931
 31
0.0
  0
LINE
  5
7F7
330
2
100
AcDbEntity
  8
LINIE
  6
GESTRICHELT
 48
7.0
100
AcDbLine
 10
287.4792241895392
 20
417.7687844706391
 30
0.0
 11
287.4792241895392
 21
403.7687844706391
 31
0.0
  0
LINE
  5
7F8
330
2
100
AcDbEntity
  8
LINIE
  6
GESTRICHELT
 48
7.0
100
AcDbLine
 10
292.4792241895392
 20
403.7687844706391
 30
0.0
 11
292.4792241895392
 21
402.2687844706391
 31
0.0
  0
ARC
  5
7F9
330
2
100
AcDbEntity
  8
0
100
AcDbCircle
 10
302.479224189539
 20
401.7687844706392
 30
0.0
 40
2.5
100
AcDbArc
 50
90.0
 51
180.0
  0
ARC
  5
7FB
330
2
100
AcDbEntity
  8
0
100
AcDbCircle
 10
308.9792241895392
 20
413.0602870927683
 30
0.0
 40
8.0
100
AcDbArc
 50
283.1828771140758
 51
35.95056761962167
  0
ARC
  5
7FC
330
2
100
AcDbEntity
  8
0
100
AcDbCircle
 10
311.3738531935648
 20
402.8369925194383
 30
0.0
 40
2.5
100
AcDbArc
 50
103.1828771140758
 51
119.6753085419893
  0
ARC
  5
7FD
330
2
100
AcDbEntity
  8
0
100
AcDbCircle
 10
317.4792241895392
 20
419.2247010957373
 30
0.0
 40
2.5
100
AcDbArc
 50
180.0
 51
215.9505676196217
  0
DIMENSION
  5
7FE
330
2
100
AcDbEntity
  8
BEM
100
AcDbDimension
  2
*D5
 10
454.7062644580131
 20
293.7204228095379
 30
0.0
 11
487.2300739818227
 21
293.7204228095379
 31
0.0
 70
   160
 71
     5
 42
13.49999999999977
  3
ISO-25
100
AcDbAlignedDimension
 13
441.2062644580133
 23
376.056287670844
 33
0.0
 14
454.7062644580131
 24
378.056287670844
 34
0.0
100
AcDbRotatedDimension
1001
ACAD
1000
DSTYLE
1002
{
1070
   144
1040
1.0
1070
   289
1070
     0
1002
}
  0
LINE
  5
7FF
330
2
100
AcDbEntity
  8
0
100
AcDbLine
 10
501.2341285030138
 20
388.056287670844
 30
0.0
 11
454.7062644580132
 21
388.056287670844
 31
0.0
  0
DIMENSION
  5
800
330
2
100
AcDbEntity
  8
BEM
100
AcDbDimension
  2
*D6
 10
441.2062644580132
 20
334.6226004084265
 30
0.0
 11
467.5395977913467
 21
334.6226004084265
 31
0.0
 70
   160
 71
     5
 42
5.000000000000113
  3
ISO-25
100
AcDbAlignedDimension
 13
446.2062644580133
 23
403.756287670844
 33
0.0
 14
441.2062644580132
 24
376.056287670844
 34
0.0
100
AcDbRotatedDimension
1001
ACAD
1000
DSTYLE
1002
{
1070
   144
1040
1.0
1070
   289
1070
     0
1002
}
  0
LINE
  5
801
330
2
100
AcDbEntity
  8
0
100
AcDbLine
 10
454.7062644580131
 20
378.056287670844
 30
0.0
 11
452.7062644580131
 21
376.056287670844
 31
0.0
  0
LINE
  5
802
330
2
100
AcDbEntity
  8
0
100
AcDbLine
 10
441.2062644580133
 20
376.056287670844
 30
0.0
 11
452.7062644580131
 21
376.056287670844
 31
0.0
  0
ARC
  5
803
330
2
100
AcDbEntity
  8
LINIE
  6
GESTRICHELT
 48
10.0
100
AcDbCircle
 10
446.0062644580133
 20
403.756287670844
 30
0.0
 40
0.2
100
AcDbArc
 50
270.0
 51
0.0
1001
ACAD
1000
ASC_BOUNDS
1002
{
1070
    19
1002
}
  0
LINE
  5
804
330
2
100
AcDbEntity
  8
LINIE
  6
GESTRICHELT
 48
10.0
100
AcDbLine
 10
441.2062644580133
 20
403.5562876708439
 30
0.0
 11
446.0062644580133
 21
403.5562876708439
 31
0.0
  0
ARC
  5
805
330
2
100
AcDbEntity
  8
0
100
AcDbCircle
 10
505.7062644580134
 20
392.0562876708441
 30
0.0
 40
6.0
100
AcDbArc
 50
180.0
 51
270.0
1001
ACAD
1000
ASC_BOUNDS
1002
{
1070
    19
1002
}
  0
LINE
  5
806
330
2
100
AcDbEntity
  8
0
100
AcDbLine
 10
505.7062644580132
 20
386.0562876708441
 30
0.0
 11
531.7062644580132
 21
386.056287670844
 31
0.0
1001
ACAD
1000
ASC_BOUNDS
1002
{
1070
    19
1002
}
  0
LINE
  5
807
330
2
100
AcDbEntity
  8
MITTE
 48
4.0
100
AcDbLine
 10
323.5881847248001
 20
497.4755401144963
 30
0.0
 11
305.8946084282685
 21
499.7202475352592
 31
0.0
  0
CIRCLE
  5
808
330
2
100
AcDbEntity
  8
0
 48
10.0
100
AcDbCircle
 10
314.7413965765343
 20
498.5978938248776
 30
0.0
 40
7.4
  0
LINE
  5
809
330
2
100
AcDbEntity
  8
MITTE
 48
10.0
100
AcDbLine
 10
338.6343153486006
 20
466.0562876708439
 30
0.0
 11
150.5071505224039
 21
466.0562876708439
 31
0.0
  0
ARC
  5
80C
330
2
100
AcDbEntity
  8
0
100
AcDbCircle
 10
259.9792241895392
 20
459.2687844706391
 30
0.0
 40
54.0
100
AcDbArc
 50
0.0
 51
180.0
  0
LINE
  5
80D
330
2
100
AcDbEntity
  8
MITTE
 48
10.0
100
AcDbLine
 10
196.1607375225667
 20
459.2687844706391
 30
0.0
 11
323.3940484407831
 21
459.2687844706391
 31
0.0
  0
ARC
  5
80E
330
2
100
AcDbEntity
  8
0
100
AcDbCircle
 10
259.9792241895392
 20
459.2687844706391
 30
0.0
 40
55.0
100
AcDbArc
 50
0.0
 51
37.69136182995665
  0
ARC
  5
80F
330
2
100
AcDbEntity
  8
0
100
AcDbCircle
 10
244.9556969747122
 20
466.0562876708439
 30
0.0
 40
89.0
100
AcDbArc
 50
40.2685646988478
 51
99.73143530115821
  0
LINE
  5
810
330
2
100
AcDbEntity
  8
0
100
AcDbLine
 10
319.912735249438
 20
509.4264327997406
 30
0.0
 11
300.0399157813331
 21
518.9170095149941
 31
0.0
  0
ARC
  5
811
330
2
100
AcDbEntity
  8
0
100
AcDbCircle
 10
287.7082148904209
 20
583.5178652690823
 30
0.0
 40
65.0
100
AcDbArc
 50
279.7469712997371
 51
292.7694271590541
  0
DIMENSION
  5
812
330
2
100
AcDbEntity
  8
BEM
100
AcDbDimension
  2
*D7
 10
43.69804750032854
 20
459.2687844706391
 30
0.0
 11
43.69804750032847
 21
462.6625360707415
 31
0.0
 70
   160
  1
6.7
 71
     5
 42
6.78750320020481
  3
ISO-25
100
AcDbAlignedDimension
 13
70.99799087792746
 23
466.0562876708439
 33
0.0
 14
105.0704080565227
 24
459.2687844706391
 34
0.0
 50
90.0
100
AcDbRotatedDimension
1001
ACAD
1000
DSTYLE
1002
{
1070
   144
1040
1.0
1070
   289
1070
     0
1002
}
  0
ARC
  5
813
330
2
100
AcDbEntity
  8
0
100
AcDbCircle
 10
287.7082148904209
 20
583.5178652690823
 30
0.0
 40
65.0
100
AcDbArc
 50
207.2305728409493
 51
253.7467412799675
  0
LINE
  5
814
330
2
100
AcDbEntity
  8
0
100
AcDbLine
 10
208.5164792781061
 20
532.3694342834076
 30
0.0
 11
216.8520585757012
 21
514.4937267932586
 31
0.0
  0
ARC
  5
815
330
2
100
AcDbEntity
  8
0
100
AcDbCircle
 10
244.9556969747122
 20
466.0562876708439
 30
0.0
 40
56.0
100
AcDbArc
 50
87.70168236141797
 51
133.4896255071041
  0
LINE
  5
816
330
2
100
AcDbEntity
  8
0
100
AcDbLine
 10
217.5795571484727
 20
536.5956169008145
 30
0.0
 11
225.9151364460678
 21
518.7199094106656
 31
0.0
  0
LINE
  5
817
330
2
100
AcDbEntity
  8
MITTE
 48
20.0
100
AcDbLine
 10
244.9556969747122
 20
565.0634674497846
 30
0.0
 11
244.9556969747122
 21
438.6103296381718
 31
0.0
  0
ARC
  5
818
330
2
100
AcDbEntity
  8
0
100
AcDbCircle
 10
127.4941193764737
 20
508.8088055865525
 30
0.0
 40
65.0
100
AcDbArc
 50
344.2477660926263
 51
22.76942715905055
  0
ARC
  5
819
330
2
100
AcDbEntity
  8
0
100
AcDbCircle
 10
244.9556969747122
 20
466.0562876708439
 30
0.0
 40
89.0
100
AcDbArc
 50
130.2685646988436
 51
189.7314353011549
  0
ARC
  5
81A
330
2
100
AcDbEntity
  8
0
100
AcDbCircle
 10
224.8232788630149
 20
504.7694384021865
 30
0.0
 40
2.5
100
AcDbArc
 50
270.8412395351307
 51
307.6913618299516
  0
ARC
  5
81B
330
2
100
AcDbEntity
  8
0
100
AcDbCircle
 10
259.9792241895392
 20
459.2687844706391
 30
0.0
 40
55.0
100
AcDbArc
 50
142.3086381700433
 51
180.0
  0
ARC
  5
81C
330
2
100
AcDbEntity
  8
0
100
AcDbCircle
 10
180.9791522595876
 20
466.0147387398729
 30
0.0
 40
12.0
100
AcDbArc
 50
133.4896255071041
 51
194.6466799560693
  0
LINE
  5
81D
330
2
100
AcDbEntity
  8
0
100
AcDbLine
 10
172.7204736009234
 20
474.7207267259045
 30
0.0
 11
206.4151965676132
 21
506.6842316056582
 31
0.0
  0
LINE
  5
81E
330
2
100
AcDbEntity
  8
MITTE
 48
4.0
100
AcDbLine
 10
174.7775796359124
 20
472.3778710976939
 30
0.0
 11
187.2180322456008
 21
459.5975544962905
 31
0.0
  0
LINE
  5
81F
330
2
100
AcDbEntity
  8
MITTE
 48
4.0
100
AcDbLine
 10
187.3879642414583
 20
472.2079391018365
 30
0.0
 11
174.6076476400549
 21
459.7674864921479
 31
0.0
  0
CIRCLE
  5
820
330
2
100
AcDbEntity
  8
0
 48
10.0
100
AcDbCircle
 10
180.9791522595876
 20
466.0147387398729
 30
0.0
 40
6.5
  0
CIRCLE
  5
821
330
2
100
AcDbEntity
  8
0
 48
10.0
100
AcDbCircle
 10
180.9791522595876
 20
466.0147387398729
 30
0.0
 40
7.4
  0
CIRCLE
  5
822
330
2
100
AcDbEntity
  8
0
100
AcDbCircle
 10
184.5384315610329
 20
448.9170333132871
 30
0.0
 40
1.95
  0
LINE
  5
823
330
2
100
AcDbEntity
  8
MITTE
 48
5.0
100
AcDbLine
 10
182.7236550443853
 20
452.8088341124163
 30
0.0
 11
186.3661314566484
 21
444.997518238525
 31
0.0
  0
LINE
  5
824
330
2
100
AcDbEntity
  8
MITTE
 48
5.0
100
AcDbLine
 10
188.8077390902638
 20
450.9078441091863
 30
0.0
 11
180.9577302635335
 21
447.2473248766975
 31
0.0
  0
ARC
  5
825
330
2
100
AcDbEntity
  8
0
100
AcDbCircle
 10
127.4941193764737
 20
508.8088055865525
 30
0.0
 40
65.0
100
AcDbArc
 50
297.2305728409514
 51
311.0711476672102
  0
LWPOLYLINE
  5
826
330
2
100
AcDbEntity
  8
0
 48
10.0
100
AcDbPolyline
 90
        6
 70
     1
 43
0.0
 10
177.6219774279394
 20
465.3908392745923
 10
179.8402236463509
 20
462.6835558179696
 10
183.2939230042374
 20
463.2509716666516
 10
184.5293761437121
 20
466.5256709719561
 10
182.3111299253005
 20
469.2329544285787
 10
178.8574305674142
 20
468.6655385798968
  0
LINE
  5
827
330
2
100
AcDbEntity
  8
MITTE
 48
10.0
100
AcDbLine
 10
185.2979637501411
 20
487.7699268083812
 30
0.0
 11
166.7146302669675
 21
494.5337070496988
 31
0.0
  0
ARC
  5
828
330
2
100
AcDbEntity
  8
MITTE
 48
15.0
100
AcDbCircle
 10
244.9556969747122
 20
466.0562876708439
 30
0.0
 40
72.5
100
AcDbArc
 50
151.5931189888066
 51
169.1811683713776
  0
CIRCLE
  5
829
330
2
100
AcDbEntity
  8
0
100
AcDbCircle
 10
176.8279819677339
 20
490.8527480619548
 30
0.0
 40
5.75
  0
ARC
  5
82A
330
2
100
AcDbEntity
  8
0
100
AcDbCircle
 10
224.9774385208051
 20
494.2705701393731
 30
0.0
 40
8.0
100
AcDbArc
 50
90.84123953513069
 51
179.158760464866
  0
ARC
  5
82B
330
2
100
AcDbEntity
  8
0
100
AcDbCircle
 10
214.4785702579917
 20
494.424729797164
 30
0.0
 40
2.5
100
AcDbArc
 50
322.3086381700434
 51
359.158760464866
  0
LINE
  5
82C
330
2
100
AcDbEntity
  8
LINIE
100
AcDbLine
 10
247.3306633339177
 20
428.0924967821127
 30
0.0
 11
272.9446358088738
 21
428.0924967821127
 31
0.0
  0
LINE
  5
82D
330
2
100
AcDbEntity
  8
MITTE
 48
20.0
100
AcDbLine
 10
259.9792241895392
 20
471.6351101587272
 30
0.0
 11
259.9792241895392
 21
455.2196447896205
 31
0.0
  0
LINE
  5
82E
330
2
100
AcDbEntity
  8
0
100
AcDbLine
 10
295.3498065495171
 20
520.078817416891
 30
0.0
 11
247.2014343664557
 21
522.011239762391
 31
0.0
  0
ARC
  5
82F
330
2
100
AcDbEntity
  8
0
100
AcDbCircle
 10
259.9792241895392
 20
459.2687844706391
 30
0.0
 40
55.0
100
AcDbArc
 50
52.30863817004844
 51
127.6913618299515
  0
ARC
  5
830
330
2
100
AcDbEntity
  8
0
100
AcDbCircle
 10
294.9810098582733
 20
494.2705701393731
 30
0.0
 40
8.0
100
AcDbArc
 50
0.8412395351339508
 51
89.1587604648693
  0
ARC
  5
831
330
2
100
AcDbEntity
  8
0
100
AcDbCircle
 10
305.4798781210867
 20
494.424729797164
 30
0.0
 40
2.5
100
AcDbArc
 50
180.8412395351339
 51
217.6913618299566
  0
ARC
  5
832
330
2
100
AcDbEntity
  8
0
100
AcDbCircle
 10
295.1351695160635
 20
504.7694384021865
 30
0.0
 40
2.5
100
AcDbArc
 50
232.3086381700484
 51
269.1587604648693
  0
ARC
  5
833
330
2
100
AcDbEntity
  8
0
100
AcDbCircle
 10
294.8685771084292
 20
508.088470540131
 30
0.0
 40
12.0
100
AcDbArc
 50
64.47245984834136
 51
87.70168236141797
  0
ARC
  5
834
330
2
100
AcDbEntity
  8
0
100
AcDbCircle
 10
244.9556969747122
 20
466.0562876708439
 30
0.0
 40
88.0
100
AcDbArc
 50
99.52022517967961
 51
130.4797748203128
  0
LINE
  5
835
330
2
100
AcDbEntity
  8
0
100
AcDbLine
 10
209.725703091346
 20
535.6917494053509
 30
0.0
 11
214.2572420265293
 21
537.8048407140543
 31
0.0
  0
ARC
  5
836
330
2
100
AcDbEntity
  8
0
100
AcDbCircle
 10
210.7822487456977
 20
533.4259799377593
 30
0.0
 40
2.5
100
AcDbArc
 50
114.9999999999988
 51
204.9999999999997
  0
ARC
  5
837
330
2
100
AcDbEntity
  8
0
100
AcDbCircle
 10
215.313787680881
 20
535.5390712464627
 30
0.0
 40
2.5
100
AcDbArc
 50
24.99999999999969
 51
114.9999999999988
  0
CIRCLE
  5
838
330
2
100
AcDbEntity
  8
0
100
AcDbCircle
 10
269.7521573658232
 20
534.1840026778222
 30
0.0
 40
5.75
  0
LINE
  5
839
330
2
100
AcDbEntity
  8
MITTE
 48
10.0
100
AcDbLine
 10
266.6183720148308
 20
525.5739981885538
 30
0.0
 11
272.8474125521268
 21
542.6881464096426
 31
0.0
  0
ARC
  5
83A
330
2
100
AcDbEntity
  8
MITTE
 48
15.0
100
AcDbCircle
 10
244.9556969747122
 20
466.0562876708439
 30
0.0
 40
72.5
100
AcDbArc
 50
61.42334422562077
 51
78.5117163400897
  0
LINE
  5
83E
330
2
100
AcDbEntity
  8
0
100
AcDbLine
 10
372.2562644580133
 20
483.5562876708439
 30
0.0
 11
437.7562644580133
 21
483.5562876708439
 31
0.0
  0
LINE
  5
83F
330
2
100
AcDbEntity
  8
0
100
AcDbLine
 10
372.2562644580133
 20
448.5562876708439
 30
0.0
 11
437.7562644580133
 21
448.5562876708439
 31
0.0
  0
ARC
  5
841
330
2
100
AcDbEntity
  8
0
100
AcDbCircle
 10
329.632962040824
 20
478.1122412749197
 30
0.0
 40
9.0
100
AcDbArc
 50
159.9999999999999
 51
208.5939954930963
  0
ARC
  5
842
330
2
100
AcDbEntity
  8
0
100
AcDbCircle
 10
244.9556969747122
 20
466.0562876708439
 30
0.0
 40
88.0
100
AcDbArc
 50
346.1089922459298
 51
21.66142379757124
  0
LINE
  5
843
330
2
100
AcDbEntity
  8
MITTE
 48
4.0
100
AcDbLine
 10
315.8637502869158
 20
507.4446819731434
 30
0.0
 11
313.6190428661528
 21
489.751105676612
 31
0.0
  0
LWPOLYLINE
  5
844
330
2
100
AcDbEntity
  8
0
 48
10.0
100
AcDbPolyline
 90
        6
 70
     1
 43
0.0
 10
314.4518466675721
 20
502.0858962403326
 10
311.5759229218077
 20
500.0911374557804
 10
311.8654728307698
 20
496.6031350403254
 10
315.0309464854964
 20
495.1098914094226
 10
317.9068702312609
 20
497.1046501939748
 10
317.6173203222987
 20
500.5926526094299
  0
CIRCLE
  5
845
330
2
100
AcDbEntity
  8
0
 48
10.0
100
AcDbCircle
 10
314.7413965765343
 20
498.5978938248776
 30
0.0
 40
6.5
  0
ARC
  5
846
330
2
100
AcDbEntity
  8
0
100
AcDbCircle
 10
314.7413965765343
 20
498.5978938248776
 30
0.0
 40
12.0
100
AcDbArc
 50
339.9999999999999
 51
64.47245984834136
  0
LINE
  5
847
330
2
100
AcDbEntity
  8
0
100
AcDbLine
 10
326.0177080259651
 20
494.4936521049697
 30
0.0
 11
321.175728453751
 21
481.1904225648508
 31
0.0
  0
ARC
  5
848
330
2
100
AcDbEntity
  8
0
100
AcDbCircle
 10
244.9556969747122
 20
466.0562876708439
 30
0.0
 40
88.0
100
AcDbArc
 50
28.33857620242905
 51
40.47977482031611
  0
LINE
  5
849
330
2
100
AcDbEntity
  8
0
100
AcDbLine
 10
370.2562644580134
 20
481.5562876708439
 30
0.0
 11
370.2562644580134
 21
450.5562876708441
 31
0.0
  0
DIMENSION
  5
84A
330
2
100
AcDbEntity
  8
BEM
100
AcDbDimension
  2
*D8
 10
339.8352186932263
 20
448.5562876708439
 30
0.0
 11
339.8352186932263
 21
466.594902306565
 31
0.0
 70
   160
  1
%%c<>
 71
     5
 42
35.0
  3
ISO-25
100
AcDbAlignedDimension
 13
372.2562644580133
 23
483.5562876708439
 33
0.0
 14
372.2562644580133
 24
448.5562876708439
 34
0.0
 50
90.0
100
AcDbRotatedDimension
1001
ACAD
1000
DSTYLE
1002
{
1070
   144
1040
1.0
1070
   289
1070
     0
1002
}
  0
LINE
  5
84B
330
2
100
AcDbEntity
  8
0
100
AcDbLine
 10
372.2562644580133
 20
483.5562876708439
 30
0.0
 11
372.2562644580133
 21
448.5562876708439
 31
0.0
  0
LINE
  5
84C
330
2
100
AcDbEntity
  8
0
100
AcDbLine
 10
372.2562644580133
 20
448.5562876708439
 30
0.0
 11
370.2562644580134
 21
450.5562876708439
 31
0.0
  0
LINE
  5
84E
330
2
100
AcDbEntity
  8
0
100
AcDbLine
 10
372.2562644580133
 20
483.5562876708439
 30
0.0
 11
370.2562644580134
 21
481.5562876708439
 31
0.0
  0
LINE
  5
84F
330
2
100
AcDbEntity
  8
0
100
AcDbLine
 10
454.7062644580132
 20
544.0562876708439
 30
0.0
 11
515.644992822171
 21
520.1480531783613
 31
0.0
  0
ARC
  5
851
330
2
100
AcDbEntity
  8
0
100
AcDbCircle
 10
464.7062644580131
 20
517.0562876708439
 30
0.0
 40
10.0
100
AcDbArc
 50
180.0
 51
256.3997148099178
1001
ACAD
1000
ASC_BOUNDS
1002
{
1070
    19
1002
}
  0
ARC
  5
852
330
2
100
AcDbEntity
  8
0
100
AcDbCircle
 10
464.706264458013
 20
481.056287670844
 30
0.0
 40
10.0
100
AcDbArc
 50
180.0
 51
270.0
  0
ARC
  5
853
330
2
100
AcDbEntity
  8
0
100
AcDbCircle
 10
464.7062644580129
 20
451.0562876708438
 30
0.0
 40
10.0
100
AcDbArc
 50
90.0
 51
180.0
  0
LINE
  5
854
330
2
100
AcDbEntity
  8
0
100
AcDbLine
 10
440.2562644580133
 20
488.2098775093302
 30
0.0
 11
440.2562644580133
 21
443.9026978323576
 31
0.0
  0
LINE
  5
855
330
2
100
AcDbEntity
  8
0
100
AcDbLine
 10
440.8562644580134
 20
488.556287670844
 30
0.0
 11
440.8562644580134
 21
443.556287670844
 31
0.0
  0
ARC
  5
856
330
2
100
AcDbEntity
  8
0
100
AcDbCircle
 10
437.7562644580133
 20
446.0562876708439
 30
0.0
 40
2.5
100
AcDbArc
 50
0.0
 51
90.0
  0
LINE
  5
857
330
2
100
AcDbEntity
  8
0
100
AcDbLine
 10
440.8562644580134
 20
443.556287670844
 30
0.0
 11
440.2562644580133
 21
443.9026978323576
 31
0.0
  0
LINE
  5
858
330
2
100
AcDbEntity
  8
0
100
AcDbLine
 10
440.8562644580134
 20
443.556287670844
 30
0.0
 11
441.2062644580132
 21
443.556287670844
 31
0.0
  0
LINE
  5
859
330
2
100
AcDbEntity
  8
0
100
AcDbLine
 10
380.2562644580133
 20
486.8562876708439
 30
0.0
 11
430.2562644580133
 21
486.8562876708439
 31
0.0
  0
LINE
  5
85A
330
2
100
AcDbEntity
  8
0
100
AcDbLine
 10
380.2562644580133
 20
483.5562876708441
 30
0.0
 11
380.2562644580133
 21
486.8562876708439
 31
0.0
  0
ARC
  5
85B
330
2
100
AcDbEntity
  8
0
100
AcDbCircle
 10
437.7562644580133
 20
486.0562876708439
 30
0.0
 40
2.5
100
AcDbArc
 50
270.0
 51
0.0
  0
LINE
  5
85C
330
2
100
AcDbEntity
  8
0
100
AcDbLine
 10
430.2562644580133
 20
483.5562876708439
 30
0.0
 11
430.2562644580133
 21
486.856287670844
 31
0.0
  0
LINE
  5
85D
330
2
100
AcDbEntity
  8
0
100
AcDbLine
 10
440.8562644580134
 20
488.556287670844
 30
0.0
 11
440.2562644580133
 21
488.2098775093302
 31
0.0
  0
LINE
  5
85E
330
2
100
AcDbEntity
  8
0
100
AcDbLine
 10
440.8562644580134
 20
488.556287670844
 30
0.0
 11
441.2062644580131
 21
488.556287670844
 31
0.0
  0
ARC
  5
85F
330
2
100
AcDbEntity
  8
0
100
AcDbCircle
 10
504.7062644580131
 20
481.056287670844
 30
0.0
 40
10.0
100
AcDbArc
 50
270.0
 51
0.0
  0
LINE
  5
860
330
2
100
AcDbEntity
  8
0
100
AcDbLine
 10
504.7062644580131
 20
461.0562876708439
 30
0.0
 11
464.706264458013
 21
461.0562876708439
 31
0.0
  0
LINE
  5
861
330
2
100
AcDbEntity
  8
0
100
AcDbLine
 10
504.7062644580131
 20
471.0562876708439
 30
0.0
 11
464.706264458013
 21
471.0562876708439
 31
0.0
  0
LINE
  5
862
330
2
100
AcDbEntity
  8
0
100
AcDbLine
 10
489.7062644580131
 20
432.5562876708439
 30
0.0
 11
476.3484000817442
 21
432.5562876708439
 31
0.0
1001
ACAD
1000
ASC_BOUNDS
1002
{
1070
    19
1002
}
  0
ARC
  5
863
330
2
100
AcDbEntity
  8
0
100
AcDbCircle
 10
476.3484000817442
 20
422.556287670844
 30
0.0
 40
10.0
100
AcDbArc
 50
90.0
 51
134.9999999999996
1001
ACAD
1000
ASC_BOUNDS
1002
{
1070
    19
1002
}
  0
LINE
  5
864
330
2
100
AcDbEntity
  8
0
100
AcDbLine
 10
467.0743932490529
 20
427.4244164618834
 30
0.0
 11
469.2773322698788
 21
429.6273554827094
 31
0.0
1001
ACAD
1000
ASC_BOUNDS
1002
{
1070
    19
1002
}
  0
ARC
  5
865
330
2
100
AcDbEntity
  8
0
100
AcDbCircle
 10
504.7062644580131
 20
451.056287670844
 30
0.0
 40
10.0
100
AcDbArc
 50
0.0
 51
90.0
  0
LINE
  5
866
330
2
100
AcDbEntity
  8
0
100
AcDbLine
 10
504.7062644580131
 20
499.5562876708439
 30
0.0
 11
476.3484000817442
 21
499.5562876708439
 31
0.0
1001
ACAD
1000
ASC_BOUNDS
1002
{
1070
    19
1002
}
  0
LINE
  5
867
330
2
100
AcDbEntity
  8
0
100
AcDbLine
 10
501.2062644580131
 20
505.0562876708441
 30
0.0
 11
491.2062644580131
 21
505.0562876708441
 31
0.0
  0
LINE
  5
868
330
2
100
AcDbEntity
  8
0
100
AcDbLine
 10
505.2062644580131
 20
503.0562876708439
 30
0.0
 11
489.2062644580131
 21
503.0562876708439
 31
0.0
  0
LINE
  5
869
330
2
100
AcDbEntity
  8
0
100
AcDbLine
 10
501.2062644580131
 20
505.0562876708441
 30
0.0
 11
500.2062644580131
 21
506.056287670844
 31
0.0
  0
ARC
  5
86A
330
2
100
AcDbEntity
  8
0
100
AcDbCircle
 10
486.7062644580131
 20
502.056287670844
 30
0.0
 40
2.5
100
AcDbArc
 50
270.0
 51
0.0
  0
ARC
  5
86B
330
2
100
AcDbEntity
  8
0
100
AcDbCircle
 10
476.3484000817442
 20
509.556287670844
 30
0.0
 40
10.0
100
AcDbArc
 50
225.0000000000003
 51
270.0
1001
ACAD
1000
ASC_BOUNDS
1002
{
1070
    19
1002
}
  0
LINE
  5
86C
330
2
100
AcDbEntity
  8
0
100
AcDbLine
 10
467.0743932490529
 20
504.6881588798043
 30
0.0
 11
469.2773322698788
 21
502.4852198589784
 31
0.0
1001
ACAD
1000
ASC_BOUNDS
1002
{
1070
    19
1002
}
  0
ARC
  5
86D
330
2
100
AcDbEntity
  8
0
100
AcDbCircle
 10
460.0033254371874
 20
497.617091067939
 30
0.0
 40
10.0
100
AcDbArc
 50
45.00000000000031
 51
76.39971480991777
1001
ACAD
1000
ASC_BOUNDS
1002
{
1070
    19
1002
}
  0
LINE
  5
86E
330
2
100
AcDbEntity
  8
0
100
AcDbLine
 10
489.2062644580132
 20
503.0562876708439
 30
0.0
 11
489.2062644580132
 21
502.056287670844
 31
0.0
1001
ACAD
1000
ASC_BOUNDS
1002
{
1070
    19
1005
0
1002
}
  0
LINE
  5
86F
330
2
100
AcDbEntity
  8
0
100
AcDbLine
 10
500.2062644580131
 20
506.056287670844
 30
0.0
 11
492.2062644580131
 21
506.056287670844
 31
0.0
  0
LINE
  5
870
330
2
100
AcDbEntity
  8
0
100
AcDbLine
 10
491.2062644580131
 20
505.0562876708441
 30
0.0
 11
491.2062644580131
 21
503.0562876708439
 31
0.0
1001
ACAD
1000
ASC_BOUNDS
1002
{
1070
    19
1002
}
  0
LINE
  5
871
330
2
100
AcDbEntity
  8
0
100
AcDbLine
 10
492.2062644580131
 20
506.056287670844
 30
0.0
 11
491.2062644580131
 21
505.0562876708441
 31
0.0
  0
ARC
  5
872
330
2
100
AcDbEntity
  8
0
100
AcDbCircle
 10
504.7062644580131
 20
509.556287670844
 30
0.0
 40
10.0
100
AcDbArc
 50
270.0
 51
0.0
1001
ACAD
1000
ASC_BOUNDS
1002
{
1070
    19
1002
}
  0
ARC
  5
873
330
2
100
AcDbEntity
  8
0
100
AcDbCircle
 10
507.7062644580131
 20
502.056287670844
 30
0.0
 40
2.5
100
AcDbArc
 50
180.0
 51
246.6828661559626
  0
LINE
  5
874
330
2
100
AcDbEntity
  8
0
100
AcDbLine
 10
505.2062644580131
 20
503.0562876708439
 30
0.0
 11
505.2062644580131
 21
502.056287670844
 31
0.0
1001
ACAD
1000
ASC_BOUNDS
1002
{
1070
    19
1005
0
1002
}
  0
LINE
  5
875
330
2
100
AcDbEntity
  8
0
100
AcDbLine
 10
501.2062644580131
 20
505.0562876708441
 30
0.0
 11
501.2062644580131
 21
503.056287670844
 31
0.0
1001
ACAD
1000
ASC_BOUNDS
1002
{
1070
    19
1002
}
  0
ARC
  5
876
330
2
100
AcDbEntity
  8
0
100
AcDbCircle
 10
520.7062644580132
 20
515.0562876708439
 30
0.0
 40
6.0
100
AcDbArc
 50
90.0
 51
119.2107476043123
1001
ACAD
1000
ASC_BOUNDS
1002
{
1070
    19
1002
}
  0
ARC
  5
877
330
2
100
AcDbEntity
  8
0
100
AcDbCircle
 10
516.5580656071227
 20
522.4753473345393
 30
0.0
 40
2.5
100
AcDbArc
 50
248.5783165533331
 51
299.2107476043123
  0
ARC
  5
878
330
2
100
AcDbEntity
  8
0
100
AcDbCircle
 10
520.7062644580132
 20
515.0562876708439
 30
0.0
 40
6.0
100
AcDbArc
 50
119.2107476043123
 51
180.0
1001
ACAD
1000
ASC_BOUNDS
1002
{
1070
    19
1002
}
  0
ARC
  5
879
330
2
100
AcDbEntity
  8
LINIE
  6
GESTRICHELT
 48
10.0
100
AcDbCircle
 10
446.0062644580133
 20
528.3562876708439
 30
0.0
 40
0.2
100
AcDbArc
 50
0.0
 51
90.0
  0
LINE
  5
87A
330
2
100
AcDbEntity
  8
LINIE
  6
GESTRICHELT
 48
10.0
100
AcDbLine
 10
441.2062644580132
 20
528.5562876708439
 30
0.0
 11
446.0062644580133
 21
528.5562876708439
 31
0.0
  0
LINE
  5
87B
330
2
100
AcDbEntity
  8
0
100
AcDbLine
 10
441.2062644580131
 20
556.056287670844
 30
0.0
 11
452.7062644580133
 21
556.056287670844
 31
0.0
  0
LINE
  5
87C
330
2
100
AcDbEntity
  8
0
100
AcDbLine
 10
454.7062644580132
 20
554.0562876708439
 30
0.0
 11
452.7062644580133
 21
556.056287670844
 31
0.0
  0
DIMENSION
  5
87D
330
2
100
AcDbEntity
  8
BEM
100
AcDbDimension
  2
*D10
 10
879.7385544521011
 20
519.4998780880133
 30
0.0
 11
953.0276451775987
 21
439.548420413559
 31
0.0
 70
   163
 71
     5
 42
145.0000000000003
  3
ISO-25
100
AcDbDiametricDimension
 15
977.7188104901789
 25
412.6126972536737
 35
0.0
 40
0.0
1001
ACAD
1000
DSTYLE
1002
{
1070
   144
1040
1.0
1070
   289
1070
     0
1002
}
  0
ARC
  5
87E
330
2
100
AcDbEntity
  8
0
100
AcDbCircle
 10
742.6062644580134
 20
428.0924967821127
 30
0.0
 40
10.0
100
AcDbArc
 50
180.0
 51
219.3842076829935
  0
LINE
  5
87F
330
2
100
AcDbEntity
  8
0
100
AcDbLine
 10
732.6062644580134
 20
490.268784470639
 30
0.0
 11
732.6062644580133
 21
412.2687844706392
 31
0.0
  0
LINE
  5
880
330
2
100
AcDbEntity
  8
LINIE
100
AcDbLine
 10
608.965163401554
 20
493.4372244115827
 30
0.0
 11
608.9651634015539
 21
418.9933219340075
 31
0.0
  0
DIMENSION
  5
881
330
2
100
AcDbEntity
  8
BEM
100
AcDbDimension
  2
*D11
 10
562.6543569106485
 20
364.0562876708439
 30
0.0
 11
553.6543569106483
 21
415.0562876708439
 31
0.0
 70
    32
 71
     5
 42
102.0
  3
ISO-25
100
AcDbAlignedDimension
 13
552.2562644580133
 23
466.0562876708439
 33
0.0
 14
561.1267510230105
 24
364.0562876708439
 34
0.0
 50
90.0
100
AcDbRotatedDimension
1001
ACAD
1000
DSTYLE
1002
{
1070
   144
1040
1.0
1070
   289
1070
     0
1002
}
  0
DIMENSION
  5
882
330
2
100
AcDbEntity
  8
BEM
100
AcDbDimension
  2
*D12
 10
799.4078832585016
 20
394.2687844706394
 30
0.0
 11
790.4078832585014
 21
453.7687844706393
 31
0.0
 70
    32
 71
     5
 42
118.9999999999997
  3
ISO-25
100
AcDbAlignedDimension
 13
723.2633758047777
 23
513.2687844706391
 33
0.0
 14
734.1062644580135
 24
394.2687844706394
 34
0.0
 50
90.0
100
AcDbRotatedDimension
1001
ACAD
1000
DSTYLE
1002
{
1070
   144
1040
1.0
1070
   289
1070
     0
1002
}
  0
DIMENSION
  5
883
330
2
100
AcDbEntity
  8
BEM
100
AcDbDimension
  2
*D13
 10
772.4853827040361
 20
394.2687844706394
 30
0.0
 11
763.485382704036
 21
426.7687844706394
 31
0.0
 70
    32
 71
     5
 42
64.99999999999977
  3
ISO-25
100
AcDbAlignedDimension
 13
736.1290255259588
 23
459.2687844706391
 33
0.0
 14
734.1062644580135
 24
394.2687844706394
 34
0.0
 50
90.0
100
AcDbRotatedDimension
1001
ACAD
1000
DSTYLE
1002
{
1070
   144
1040
1.0
1070
   289
1070
     0
1002
}
  0
LINE
  5
885
330
2
100
AcDbEntity
  8
LINIE
 48
10.0
100
AcDbLine
 10
541.7062644580132
 20
376.056287670844
 30
0.0
 11
541.7062644580132
 21
479.6600637767223
 31
0.0
  0
LINE
  5
886
330
2
100
AcDbEntity
  8
MITTE
 48
20.0
100
AcDbLine
 10
866.4571517738647
 20
567.6956500500932
 30
0.0
 11
866.4571517738647
 21
353.8212788351677
 31
0.0
  0
LINE
  5
887
330
2
100
AcDbEntity
  8
LINIE
 48
10.0
100
AcDbLine
 10
571.7062644580131
 20
516.8869691427168
 30
0.0
 11
571.7062644580131
 21
367.672006698577
 31
0.0
  0
ARC
  5
888
330
2
100
AcDbEntity
  8
0
100
AcDbCircle
 10
866.4571517738647
 20
466.0562876708438
 30
0.0
 40
90.0
100
AcDbArc
 50
346.7968803211827
 51
218.3212863366488
  0
ARC
  5
889
330
2
100
AcDbEntity
  8
0
100
AcDbCircle
 10
866.4571517738647
 20
466.0562876708438
 30
0.0
 40
90.0
100
AcDbArc
 50
218.3212863366488
 51
346.7968803211827
  0
LINE
  5
88A
330
2
100
AcDbEntity
  8
0
100
AcDbLine
 10
604.6062644580132
 20
522.056287670844
 30
0.0
 11
604.6062644580125
 21
351.8177623644478
 31
0.0
1001
ACAD
1000
ASC_BOUNDS
1002
{
1070
    19
1002
}
  0
LINE
  5
88B
330
2
100
AcDbEntity
  8
0
100
AcDbLine
 10
598.2062644580138
 20
522.0562876708438
 30
0.0
 11
598.2062644580132
 21
351.8177623644478
 31
0.0
1001
ACAD
1000
ASC_BOUNDS
1002
{
1070
    19
1002
}
  0
LINE
  5
88C
330
2
100
AcDbEntity
  8
0
100
AcDbLine
 10
604.6062644580132
 20
511.4999384847399
 30
0.0
 11
604.606264458013
 21
379.4999384847401
 31
0.0
1001
ACAD
1000
ASC_BOUNDS
1002
{
1070
    19
1005
0
1002
}
  0
LINE
  5
88D
330
2
100
AcDbEntity
  8
0
100
AcDbLine
 10
604.6062644580135
 20
514.268784470639
 30
0.0
 11
604.6062644580135
 21
382.7687844706392
 31
0.0
  0
ARC
  5
88E
330
2
100
AcDbEntity
  8
MITTE
 48
15.0
100
AcDbCircle
 10
866.4571517738645
 20
466.0562876708436
 30
0.0
 40
72.5
100
AcDbArc
 50
281.4882836599036
 51
327.5671739695374
  0
LINE
  5
88F
330
2
100
AcDbEntity
  8
0
100
AcDbLine
 10
947.8121378866815
 20
427.5677668551082
 30
0.0
 11
930.3348142404081
 21
360.6946896892717
 31
0.0
  0
LINE
  5
891
330
2
100
AcDbEntity
  8
0
100
AcDbLine
 10
684.6464498157989
 20
404.2687844706391
 30
0.0
 11
724.6062644580133
 21
404.2687844706392
 31
0.0
  0
DIMENSION
  5
892
330
2
100
AcDbEntity
  8
BEM
100
AcDbDimension
  2
*D16
 10
664.1062644580134
 20
256.3818829736565
 30
0.0
 11
692.3681692199182
 21
256.3818829736565
 31
0.0
 70
   160
 71
     5
 42
54.5
  3
ISO-25
100
AcDbAlignedDimension
 13
718.6062644580134
 23
382.7687844706392
 33
0.0
 14
664.1062644580134
 24
349.6594577246704
 34
0.0
100
AcDbRotatedDimension
1001
ACAD
1000
DSTYLE
1002
{
1070
   144
1040
1.0
1070
   289
1070
     0
1002
}
  0
HATCH
  5
893
330
2
100
AcDbEntity
  8
LINIE
 48
10.0
100
AcDbHatch
 10
0.0
 20
0.0
 30
0.0
210
0.0
220
0.0
230
1.0
  2
ANSI31
 70
     0
 71
     0
 91
        4
 92
        5
 93
        5
 72
     1
 10
731.8267644580134
 20
394.2687844706394
 11
734.1062644580135
 21
394.2687844706394
 72
     2
 10
734.1062644580135
 20
396.7687844706394
 40
2.499999999999999
 50
270.0
 51
360.0000000000013
 73
     1
 72
     1
 10
736.6062644580136
 20
396.7687844706394
 11
736.6062644580134
 21
398.5207904112476
 72
     4
 94
        3
 73
     0
 74
     0
 95
        9
 96
        5
 40
31.73585995709382
 40
31.73585995709382
 40
31.73585995709382
 40
31.73585995709382
 40
33.63609640649291
 40
36.857751855649
 40
36.857751855649
 40
36.857751855649
 40
36.857751855649
 10
736.6062644580136
 20
398.5207904112477
 10
736.0479572304557
 20
398.8237021365823
 10
734.5430975238449
 20
399.6401695359201
 10
732.8901079538074
 20
400.0908144950988
 10
731.8267644580118
 20
400.2878457419766
 72
     1
 10
731.8267644580134
 20
400.2878457419761
 11
731.8267644580134
 21
394.2687844706394
 97
        0
 92
        5
 93
        4
 72
     4
 94
        3
 73
     0
 74
     0
 95
        8
 96
        4
 40
30.57003609658486
 40
30.57003609658486
 40
30.57003609658486
 40
30.57003609658486
 40
31.73585995709381
 40
31.73585995709381
 40
31.73585995709381
 40
31.73585995709381
 10
731.826764458012
 20
400.2878457419766
 10
731.4419712239496
 20
400.3591456474138
 10
731.0540852294333
 20
400.4191283839571
 10
730.6647644580134
 20
400.47055709749
 72
     1
 10
730.6647644580134
 20
400.47055709749
 11
730.6647644580133
 21
395.4307844706393
 72
     1
 10
730.6647644580133
 20
395.4307844706393
 11
731.8267644580136
 21
394.2687844706394
 72
     1
 10
731.8267644580136
 20
394.2687844706394
 11
731.8267644580134
 21
400.2878457419764
 97
        0
 92
        5
 93
        4
 72
     1
 10
705.3857644580135
 20
394.2687844706392
 11
706.5477644580134
 21
395.4307844706392
 72
     1
 10
706.5477644580134
 20
395.4307844706392
 11
706.5477644580134
 21
400.305610729829
 72
     4
 94
        3
 73
     0
 74
     0
 95
        8
 96
        4
 40
5.132474026507138
 40
5.132474026507138
 40
5.132474026507138
 40
5.132474026507138
 40
6.360436656674873
 40
6.360436656674873
 40
6.360436656674873
 40
6.360436656674873
 10
706.5477644580302
 20
400.3056107298342
 10
706.1585829266936
 20
400.1883805390238
 10
705.7713767134051
 20
400.0602021057428
 10
705.3857644580672
 20
399.9231891264788
 72
     1
 10
705.3857644580133
 20
399.9231891264603
 11
705.3857644580135
 21
394.2687844706392
 97
        0
 92
        5
 93
        5
 72
     4
 94
        3
 73
     0
 74
     0
 95
        8
 96
        4
 40
0.0
 40
0.0
 40
0.0
 40
0.0
 40
5.132474026507137
 40
5.132474026507137
 40
5.132474026507137
 40
5.132474026507137
 10
705.3857644580672
 20
399.9231891264788
 10
703.7740339084539
 20
399.3505205939916
 10
702.1901491832336
 20
398.6235159850893
 10
700.6062644580133
 20
397.8965113761868
 72
     1
 10
700.6062644580133
 20
397.8965113761868
 11
700.6062644580133
 21
396.7687844706394
 72
     2
 10
703.1062644580133
 20
396.7687844706393
 40
2.5
 50
180.0
 51
270.0
 73
     1
 72
     1
 10
703.1062644580133
 20
394.2687844706393
 11
705.3857644580134
 21
394.2687844706393
 72
     1
 10
705.3857644580134
 20
394.2687844706393
 11
705.3857644580133
 21
399.9231891264574
 97
        0
 75
     0
 76
     1
 52
0.0
 41
20.0
 77
     0
 78
     1
 53
45.0
 43
145.2067396652065
 44
170.1391383350936
 45
-1.767766952966368
 46
1.767766952966368
 79
     0
 47
0.1218544639141766
 98
        4
 10
733.0467922795125
 20
396.7554005706098
 10
731.3402537662565
 20
397.4865260610071
 10
705.8640720568215
 20
397.1209642725111
 10
704.4013255223672
 20
396.7554005706098
  0
SPLINE
  5
894
330
2
100
AcDbEntity
  8
LINIE
 48
10.0
100
AcDbSpline
210
0.0
220
0.0
230
1.0
 70
     8
 71
     3
 72
    12
 73
     8
 74
     6
 42
0.0000000001
 43
0.0000000001
 44
0.0000000001
 40
0.0
 40
0.0
 40
0.0
 40
0.0
 40
8.823504819814441
 40
17.17642179202402
 40
29.12386730704584
 40
34.9575154062499
 40
36.85775185564901
 40
36.85775185564901
 40
36.85775185564901
 40
36.85775185564901
 10
700.6062644580133
 20
397.8965113761868
 30
0.0
 10
703.3292036165622
 20
399.1463430631176
 30
0.0
 10
708.6298582267605
 20
401.5793486161435
 30
0.0
 10
718.5265832453519
 20
400.6660839144044
 30
0.0
 10
727.13363460822
 20
401.0713216269563
 30
0.0
 10
733.7756696727945
 20
400.0565404567266
 30
0.0
 10
736.0479572304558
 20
398.8237021365821
 30
0.0
 10
736.6062644580136
 20
398.5207904112477
 30
0.0
 11
700.6062644580133
 21
397.8965113761868
 31
0.0
 11
708.9165645821477
 21
400.8618358360226
 31
0.0
 11
717.2691170409404
 21
400.9398702370539
 31
0.0
 11
729.2124843741513
 21
400.6277307195236
 31
0.0
 11
734.9109537204655
 21
399.3791726494022
 31
0.0
 11
736.6062644580136
 21
398.5207904112477
 31
0.0
  0
LINE
  5
895
330
2
100
AcDbEntity
  8
0
100
AcDbLine
 10
703.1062644580133
 20
394.2687844706393
 30
0.0
 11
734.1062644580135
 21
394.2687844706394
 31
0.0
  0
LINE
  5
896
330
2
100
AcDbEntity
  8
0
100
AcDbLine
 10
706.5477644580134
 20
395.4307844706392
 30
0.0
 11
705.3857644580134
 21
394.2687844706393
 31
0.0
  0
LINE
  5
897
330
2
100
AcDbEntity
  8
0
100
AcDbLine
 10
614.1062644580135
 20
404.268784470639
 30
0.0
 11
644.8428873516852
 21
404.2687844706391
 31
0.0
  0
LINE
  5
898
330
2
100
AcDbEntity
  8
0
100
AcDbLine
 10
604.6062644580135
 20
417.7569834759827
 30
0.0
 11
627.1062644580134
 21
417.7569834759827
 31
0.0
  0
LINE
  5
899
330
2
100
AcDbEntity
  8
0
100
AcDbLine
 10
604.6062644580135
 20
405.2711102749931
 30
0.0
 11
627.1062644580134
 21
405.2711102749931
 31
0.0
  0
LINE
  5
89A
330
2
100
AcDbEntity
  8
0
100
AcDbLine
 10
614.1062644580135
 20
401.2687844706389
 30
0.0
 11
629.1062644580135
 21
401.2687844706389
 31
0.0
  0
ARC
  5
89B
330
2
100
AcDbEntity
  8
0
100
AcDbCircle
 10
583.8767013640663
 20
354.3177623644493
 30
0.0
 40
2.5
100
AcDbArc
 50
205.242915887073
 51
269.999999999987
1001
GENIUS_GENODEF_13
1002
{
1000
HIER
1070
     0
1002
}
1002
{
1000
MANEDIT
1070
     0
1002
}
1002
{
1000
NOSEL
1070
     0
1002
}
1002
{
1000
BEHIND
1070
     0
1002
}
1002
{
1000
REACTOR
1002
}
1001
GENIUS_GENOBJ-N-FIL_13
1002
{
1000
OWNER
1000
GEN
1002
}
  0
LINE
  5
89C
330
2
100
AcDbEntity
  8
0
100
AcDbLine
 10
547.7062644580131
 20
364.056287670844
 30
0.0
 11
569.7062644580131
 21
364.056287670844
 31
0.0
1001
ACAD
1000
ASC_BOUNDS
1002
{
1070
    19
1002
}
  0
LINE
  5
89D
330
2
100
AcDbEntity
  8
0
100
AcDbLine
 10
541.7062644580131
 20
376.056287670844
 30
0.0
 11
541.7062644580131
 21
370.056287670844
 31
0.0
1001
ACAD
1000
ASC_BOUNDS
1002
{
1070
    19
1002
}
  0
ARC
  5
89E
330
2
100
AcDbEntity
  8
0
100
AcDbCircle
 10
563.2361360710713
 20
344.5861592839021
 30
0.0
 40
20.31966332204827
100
AcDbArc
 50
25.24291588704779
 51
65.3645084537481
1001
ACAD
1000
ASC_BOUNDS
1002
{
1070
    19
1002
}
  0
ARC
  5
89F
330
2
100
AcDbEntity
  8
0
100
AcDbCircle
 10
569.7062644580131
 20
361.556287670844
 30
0.0
 40
2.5
100
AcDbArc
 50
36.86989764584577
 51
90.0
1001
ACAD
1000
ASC_BOUNDS
1002
{
1070
    19
1002
}
  0
LINE
  5
8A0
330
2
100
AcDbEntity
  8
0
100
AcDbLine
 10
583.8767013640659
 20
351.8177623644478
 30
0.0
 11
604.6062644580125
 21
351.8177623644478
 31
0.0
  0
LINE
  5
8A1
330
2
100
AcDbEntity
  8
MITTE
 48
5.0
100
AcDbLine
 10
616.1039657761183
 20
363.728981914988
 30
0.0
 11
599.783827709634
 21
363.728981914988
 31
0.0
  0
LINE
  5
8A2
330
2
100
AcDbEntity
  8
0
 48
10.0
100
AcDbLine
 10
614.6062644580125
 20
358.028981914988
 30
0.0
 11
614.6062644580125
 21
369.428981914988
 31
0.0
  0
LINE
  5
8A3
330
2
100
AcDbEntity
  8
0
 48
10.0
100
AcDbLine
 10
606.6062644580125
 20
356.328981914988
 30
0.0
 11
606.6062644580125
 21
371.128981914988
 31
0.0
  0
LINE
  5
8A4
330
2
100
AcDbEntity
  8
0
 48
10.0
100
AcDbLine
 10
606.6062644580125
 20
357.228981914988
 30
0.0
 11
606.6062644580125
 21
370.228981914988
 31
0.0
  0
LINE
  5
8A5
330
2
100
AcDbEntity
  8
0
 48
10.0
100
AcDbLine
 10
606.6062644580125
 20
357.228981914988
 30
0.0
 11
613.8062644580125
 21
357.228981914988
 31
0.0
  0
LINE
  5
8A6
330
2
100
AcDbEntity
  8
0
 48
10.0
100
AcDbLine
 10
606.6062644580125
 20
356.328981914988
 30
0.0
 11
604.6062644580125
 21
356.328981914988
 31
0.0
  0
ARC
  5
8A7
330
2
100
AcDbEntity
  8
0
 48
10.0
100
AcDbCircle
 10
613.8062644580125
 20
358.028981914988
 30
0.0
 40
0.8
100
AcDbArc
 50
270.0
 51
0.0
1001
GENIUS_GENODEF_13
1002
{
1000
HIER
1070
     0
1002
}
1002
{
1000
MANEDIT
1070
     0
1002
}
1002
{
1000
NOSEL
1070
     0
1002
}
1002
{
1000
BEHIND
1070
     0
1002
}
1002
{
1000
REACTOR
1002
}
1001
GENIUS_GENOBJ-N-FIL_13
1002
{
1000
OWNER
1000
GEN
1002
}
  0
LINE
  5
8A8
330
2
100
AcDbEntity
  8
0
 48
10.0
100
AcDbLine
 10
606.6062644580125
 20
370.228981914988
 30
0.0
 11
613.8062644580125
 21
370.228981914988
 31
0.0
  0
LINE
  5
8A9
330
2
100
AcDbEntity
  8
0
 48
10.0
100
AcDbLine
 10
606.6062644580125
 20
371.128981914988
 30
0.0
 11
604.6062644580125
 21
371.128981914988
 31
0.0
  0
ARC
  5
8AA
330
2
100
AcDbEntity
  8
0
 48
10.0
100
AcDbCircle
 10
613.8062644580125
 20
369.428981914988
 30
0.0
 40
0.8
100
AcDbArc
 50
0.0
 51
90.0
1001
GENIUS_GENODEF_13
1002
{
1000
HIER
1070
     0
1002
}
1002
{
1000
MANEDIT
1070
     0
1002
}
1002
{
1000
NOSEL
1070
     0
1002
}
1002
{
1000
BEHIND
1070
     0
1002
}
1002
{
1000
REACTOR
1002
}
1001
GENIUS_GENOBJ-N-FIL_13
1002
{
1000
OWNER
1000
GEN
1002
}
  0
ARC
  5
8AB
330
2
100
AcDbEntity
  8
0
100
AcDbCircle
 10
614.1062644580135
 20
398.7687844706389
 30
0.0
 40
2.5
100
AcDbArc
 50
90.0
 51
180.0
  0
LINE
  5
8AC
330
2
100
AcDbEntity
  8
0
100
AcDbLine
 10
611.6062644580137
 20
401.768784470639
 30
0.0
 11
611.6062644580134
 21
385.768784470639
 31
0.0
  0
ARC
  5
8AD
330
2
100
AcDbEntity
  8
0
100
AcDbCircle
 10
608.6062644580135
 20
385.768784470639
 30
0.0
 40
3.0
100
AcDbArc
 50
270.0
 51
0.0
  0
LINE
  5
8AE
330
2
100
AcDbEntity
  8
0
100
AcDbLine
 10
604.6062644580135
 20
382.7687844706392
 30
0.0
 11
608.6062644580133
 21
382.7687844706391
 31
0.0
  0
LINE
  5
8AF
330
2
100
AcDbEntity
  8
0
100
AcDbLine
 10
604.6062644580131
 20
379.49993848474
 30
0.0
 11
604.6062644580131
 21
379.49993848474
 31
0.0
1001
ACAD
1000
ASC_BOUNDS
1002
{
1070
    19
1005
0
1002
}
  0
ARC
  5
8B0
330
2
100
AcDbEntity
  8
0
100
AcDbCircle
 10
614.1062644580135
 20
401.768784470639
 30
0.0
 40
2.5
100
AcDbArc
 50
90.0
 51
180.0
  0
DIMENSION
  5
8B1
330
2
100
AcDbEntity
  8
BEM
100
AcDbDimension
  2
*D17
 10
655.1062644580134
 20
357.7384392305966
 30
0.0
 11
664.1062644580134
 21
357.7384392305966
 31
0.0
 70
   160
  1
M<>x1.5
 71
     5
 42
18.0
  3
ISO-25
100
AcDbAlignedDimension
 13
673.1062644580134
 23
359.3352753007601
 33
0.0
 14
655.1062644580134
 24
359.7656670815505
 34
0.0
100
AcDbRotatedDimension
1001
ACAD
1000
DSTYLE
1002
{
1070
   144
1040
1.0
1070
   289
1070
     0
1002
}
  0
HATCH
  5
8B2
330
2
100
AcDbEntity
  8
LINIE
 48
10.0
100
AcDbHatch
 10
0.0
 20
0.0
 30
0.0
210
0.0
220
0.0
230
1.0
  2
ANSI31
 70
     0
 71
     0
 91
        4
 92
        5
 93
        5
 72
     4
 94
        3
 73
     0
 74
     0
 95
       10
 96
        6
 40
32.20332906069053
 40
32.20332906069053
 40
32.20332906069053
 40
32.20332906069053
 40
36.07354258304438
 40
41.88446131772932
 40
47.39498654027875
 40
47.39498654027875
 40
47.39498654027875
 40
47.39498654027875
 10
685.0807337962079
 20
402.2687844706391
 10
684.8350909700642
 20
403.6157851029295
 10
684.2206285704695
 20
406.9852351852564
 10
678.6545294656798
 20
408.7048233049491
 10
674.9101941307939
 20
409.0446196281874
 10
673.1062644580141
 20
409.1416405246688
 72
     1
 10
673.1062644580134
 20
409.1416405246689
 11
673.1062644580134
 21
403.7687844706391
 72
     1
 10
673.1062644580134
 20
403.7687844706391
 11
678.1062644580134
 21
403.7687844706391
 72
     1
 10
678.1062644580134
 20
403.7687844706391
 11
678.1062644580134
 21
402.2687844706391
 72
     1
 10
678.1062644580134
 20
402.2687844706391
 11
685.0807337962079
 21
402.2687844706391
 97
        0
 92
        5
 93
        4
 72
     1
 10
672.2942644580134
 20
404.5807844706392
 11
673.1062644580133
 21
403.7687844706391
 72
     1
 10
673.1062644580133
 20
403.7687844706391
 11
673.1062644580134
 21
409.1416405246688
 72
     4
 94
        3
 73
     0
 74
     0
 95
        8
 96
        4
 40
31.37550076964246
 40
31.37550076964246
 40
31.37550076964246
 40
31.37550076964246
 40
32.20332906069053
 40
32.20332906069053
 40
32.20332906069053
 40
32.20332906069053
 10
673.1062644580141
 20
409.1416405246688
 10
672.83526596733
 20
409.15621565856
 10
672.5646864191014
 20
409.1692478281431
 10
672.2942644580133
 20
409.1812616219873
 72
     1
 10
672.2942644580134
 20
409.1812616219873
 11
672.2942644580134
 21
404.5807844706391
 97
        0
 92
        5
 93
        4
 72
     1
 10
655.1062644580134
 20
403.7687844706391
 11
655.9182644580134
 21
404.580784470639
 72
     1
 10
655.9182644580134
 20
404.5807844706391
 11
655.9182644580134
 21
409.2117202076212
 72
     4
 94
        3
 73
     0
 74
     0
 95
        8
 96
        4
 40
14.07287279079752
 40
14.07287279079752
 40
14.07287279079752
 40
14.07287279079752
 40
14.88854677267786
 40
14.88854677267786
 40
14.88854677267786
 40
14.88854677267786
 10
655.9182644580129
 20
409.2117202076211
 10
655.6481677595959
 20
409.1813951467716
 10
655.3775572040393
 20
409.1494168142962
 10
655.1062644580115
 20
409.1158961208659
 72
     1
 10
655.1062644580134
 20
409.1158961208662
 11
655.1062644580134
 21
403.7687844706391
 97
        0
 92
        5
 93
        5
 72
     1
 10
655.1062644580134
 20
403.7687844706391
 11
655.1062644580134
 21
409.1158961208662
 72
     4
 94
        3
 73
     0
 74
     0
 95
       10
 96
        6
 40
0.0
 40
0.0
 40
0.0
 40
0.0
 40
2.557235650529396
 40
7.727877917640146
 40
14.07287279079752
 40
14.07287279079752
 40
14.07287279079752
 40
14.07287279079752
 10
655.1062644580115
 20
409.1158961208659
 10
654.2557291984792
 20
409.0108047311997
 10
651.6651780000578
 20
408.6474096965989
 10
646.7498724934093
 20
407.7903726607263
 10
644.77588571776
 20
404.2303303292323
 10
643.6882397787108
 20
402.2687844706391
 72
     1
 10
643.688239778711
 20
402.2687844706391
 11
650.1062644580135
 21
402.2687844706391
 72
     1
 10
650.1062644580135
 20
402.2687844706391
 11
650.1062644580135
 21
403.7687844706391
 72
     1
 10
650.1062644580135
 20
403.7687844706391
 11
655.1062644580134
 21
403.7687844706391
 97
        0
 75
     0
 76
     1
 52
0.0
 41
20.0
 77
     0
 78
     1
 53
45.0
 43
145.2067396652065
 44
170.1391383350936
 45
-1.767766952966368
 46
1.767766952966368
 79
     0
 47
0.1339110804423528
 98
        4
 10
679.1866564598954
 20
406.2142499014543
 10
672.6227971227882
 20
407.1516289834159
 10
655.4763944513353
 20
405.8125171025593
 10
652.1274871165375
 20
405.946428673326
  0
SPLINE
  5
8B3
330
2
100
AcDbEntity
  8
LINIE
 48
10.0
100
AcDbSpline
210
0.0
220
0.0
230
1.0
 70
     8
 71
     3
 72
    14
 73
    10
 74
     8
 42
0.0000000001
 43
0.0000000001
 44
0.0000000001
 40
0.0
 40
0.0
 40
0.0
 40
0.0
 40
6.344994873157406
 40
11.51563714026816
 40
20.12640737688697
 40
28.43601387734805
 40
37.71385428324001
 40
43.52477301792495
 40
47.39498654027879
 40
47.39498654027879
 40
47.39498654027879
 40
47.39498654027879
 10
643.6882397787108
 20
402.2687844706391
 30
0.0
 10
644.7758857177599
 20
404.2303303292323
 30
0.0
 10
646.7498724934093
 20
407.7903726607265
 30
0.0
 10
653.7795275239978
 20
409.0160695584009
 30
0.0
 10
660.9417185691742
 20
409.8147549465458
 30
0.0
 10
669.8133543299819
 20
409.1858871583797
 30
0.0
 10
677.27421598128
 20
409.1312567234961
 30
0.0
 10
684.2206285704694
 20
406.9852351852564
 30
0.0
 10
684.8350909700642
 20
403.6157851029296
 30
0.0
 10
685.0807337962079
 20
402.2687844706391
 30
0.0
 11
643.6882397787108
 21
402.2687844706391
 31
0.0
 11
647.5729711126379
 21
407.2855386407773
 31
0.0
 11
652.5293557831793
 21
408.7585601789954
 31
0.0
 11
661.1025584534942
 21
409.5620276901903
 31
0.0
 11
669.407847789656
 21
409.2942045486569
 31
0.0
 11
678.6508324607658
 21
408.4907389508672
 31
0.0
 11
683.8751277962834
 21
405.946428673326
 31
0.0
 11
685.0807337962079
 21
402.2687844706391
 31
0.0
  0
LINE
  5
8B4
330
2
100
AcDbEntity
  8
0
100
AcDbLine
 10
629.1062644580135
 20
402.2687844706391
 30
0.0
 11
699.1062644580134
 21
402.2687844706391
 31
0.0
  0
LINE
  5
8B5
330
2
100
AcDbEntity
  8
0
100
AcDbLine
 10
650.1062644580135
 20
403.7687844706391
 30
0.0
 11
678.1062644580134
 21
403.7687844706391
 31
0.0
  0
LINE
  5
8B6
330
2
100
AcDbEntity
  8
0
100
AcDbLine
 10
655.9182644580134
 20
404.580784470639
 30
0.0
 11
672.2942644580134
 21
404.5807844706391
 31
0.0
  0
LINE
  5
8B7
330
2
100
AcDbEntity
  8
BEM
100
AcDbLine
 10
655.1062644580134
 20
403.7687844706391
 30
0.0
 11
655.1062644580134
 21
379.7924174460217
 31
0.0
  0
LINE
  5
8B8
330
2
100
AcDbEntity
  8
MITTE
 48
10.0
100
AcDbLine
 10
664.1062644580134
 20
414.3024429546249
 30
0.0
 11
664.1062644580134
 21
389.9050275580242
 31
0.0
  0
LINE
  5
8B9
330
2
100
AcDbEntity
  8
0
100
AcDbLine
 10
629.1062644580136
 20
402.2687844706391
 30
0.0
 11
629.1062644580135
 21
401.2687844706389
 31
0.0
  0
LINE
  5
8BA
330
2
100
AcDbEntity
  8
BEM
100
AcDbLine
 10
664.1062644580134
 20
389.9050275580242
 30
0.0
 11
664.1062644580134
 21
377.6531781266553
 31
0.0
  0
LINE
  5
8BB
330
2
100
AcDbEntity
  8
LINIE
100
AcDbLine
 10
626.6062644580134
 20
417.1433088635304
 30
0.0
 11
626.6062644580134
 21
406.2581053820563
 31
0.0
  0
ARC
  5
8BC
330
2
100
AcDbEntity
  8
0
100
AcDbCircle
 10
627.1062644580134
 20
402.7711102749931
 30
0.0
 40
2.5
100
AcDbArc
 50
36.80329727510671
 51
90.0
  0
ARC
  5
8BD
330
2
100
AcDbEntity
  8
0
100
AcDbCircle
 10
627.1062644580134
 20
420.2569834759827
 30
0.0
 40
2.5
100
AcDbArc
 50
270.0
 51
0.0
  0
LINE
  5
8BE
330
2
100
AcDbEntity
  8
0
100
AcDbLine
 10
650.1062644580135
 20
403.7687844706391
 30
0.0
 11
650.1062644580135
 21
402.2687844706391
 31
0.0
  0
LINE
  5
8BF
330
2
100
AcDbEntity
  8
LINIE
 48
10.0
100
AcDbLine
 10
655.1062644580134
 20
409.1158961208703
 30
0.0
 11
655.1062644580134
 21
403.7687844706391
 31
0.0
  0
LINE
  5
8C0
330
2
100
AcDbEntity
  8
0
100
AcDbLine
 10
655.9182644580134
 20
409.2117202076232
 30
0.0
 11
655.9182644580134
 21
404.5807844706391
 31
0.0
  0
LINE
  5
8C1
330
2
100
AcDbEntity
  8
0
100
AcDbLine
 10
655.9182644580134
 20
404.5807844706391
 30
0.0
 11
655.1062644580134
 21
403.7687844706391
 31
0.0
  0
LINE
  5
8C2
330
2
100
AcDbEntity
  8
BEM
100
AcDbLine
 10
673.1062644580134
 20
403.7687844706391
 30
0.0
 11
673.1062644580134
 21
379.7924174460217
 31
0.0
  0
LINE
  5
8C3
330
2
100
AcDbEntity
  8
0
100
AcDbLine
 10
699.1062644580134
 20
402.2687844706391
 30
0.0
 11
699.1062644580134
 21
401.0600723181169
 31
0.0
  0
ARC
  5
8C4
330
2
100
AcDbEntity
  8
0
100
AcDbCircle
 10
698.1062644580133
 20
398.768784470639
 30
0.0
 40
2.5
100
AcDbArc
 50
0.0
 51
66.42182152179305
  0
LINE
  5
8C5
330
2
100
AcDbEntity
  8
LINIE
 48
10.0
100
AcDbLine
 10
705.3857644580134
 20
399.9231891264595
 30
0.0
 11
705.3857644580134
 21
394.2687844706393
 31
0.0
  0
LINE
  5
8C6
330
2
100
AcDbEntity
  8
0
100
AcDbLine
 10
700.6062644580133
 20
398.768784470639
 30
0.0
 11
700.6062644580133
 21
396.7687844706393
 31
0.0
  0
ARC
  5
8C7
330
2
100
AcDbEntity
  8
0
100
AcDbCircle
 10
703.1062644580133
 20
396.7687844706393
 30
0.0
 40
2.5
100
AcDbArc
 50
180.0
 51
270.0
  0
LINE
  5
8C8
330
2
100
AcDbEntity
  8
LINIE
 48
10.0
100
AcDbLine
 10
673.1062644580134
 20
409.1416405246716
 30
0.0
 11
673.1062644580134
 21
403.7687844706391
 31
0.0
  0
LINE
  5
8C9
330
2
100
AcDbEntity
  8
0
100
AcDbLine
 10
672.2942644580134
 20
404.5807844706391
 30
0.0
 11
673.1062644580134
 21
403.7687844706391
 31
0.0
  0
LINE
  5
8CA
330
2
100
AcDbEntity
  8
0
100
AcDbLine
 10
672.2942644580134
 20
409.1812616219876
 30
0.0
 11
672.2942644580134
 21
404.5807844706391
 31
0.0
  0
LINE
  5
8CB
330
2
100
AcDbEntity
  8
0
100
AcDbLine
 10
678.1062644580134
 20
403.7687844706391
 30
0.0
 11
678.1062644580134
 21
402.2687844706391
 31
0.0
  0
ARC
  5
8CC
330
2
100
AcDbEntity
  8
0
100
AcDbCircle
 10
695.1062644580134
 20
401.768784470639
 30
0.0
 40
2.5
100
AcDbArc
 50
90.0
 51
168.4630409671818
  0
LEADER
  5
8D1
330
2
100
AcDbEntity
  8
BEM
100
AcDbLeader
  3
ISO-25
 73
     0
 74
     0
 75
     1
 40
15.23809523809523
 41
53.80952380952383
 76
     3
 10
718.6062644580134
 20
394.2687844706393
 30
0.0
 10
750.548742613686
 20
335.339409568267
 30
0.0
 10
757.548742613686
 20
335.339409568267
 30
0.0
340
8D2
1001
ACAD
1000
DSTYLE
1002
{
1070
   144
1040
1.0
1070
   287
1070
     0
1002
}
  0
MTEXT
  5
8D2
102
{ACAD_REACTORS
330
8D1
102
}
330
2
100
AcDbEntity
  8
BEM
100
AcDbMText
 10
761.548742613686
 20
346.9584571873147
 30
0.0
 40
10.0
 41
0.0
 71
     4
 72
     1
  1
G 3/4"
 73
     1
 44
1.0
  0
LINE
  5
8D3
330
2
100
AcDbEntity
  8
MITTE
 48
10.0
100
AcDbLine
 10
718.6062644580134
 20
413.8150259610268
 30
0.0
 11
718.6062644580134
 21
382.7687844706392
 31
0.0
  0
LINE
  5
8D4
330
2
100
AcDbEntity
  8
0
100
AcDbLine
 10
736.6062644580133
 20
416.1266488469084
 30
0.0
 11
736.6062644580136
 21
396.7687844706394
 31
0.0
  0
LINE
  5
8D5
330
2
100
AcDbEntity
  8
0
100
AcDbLine
 10
706.5477644580136
 20
395.4307844706393
 30
0.0
 11
730.6647644580136
 21
395.4307844706394
 31
0.0
  0
LINE
  5
8D6
330
2
100
AcDbEntity
  8
0
100
AcDbLine
 10
706.5477644580134
 20
400.3056107299268
 30
0.0
 11
706.5477644580134
 21
395.4307844706393
 31
0.0
  0
ARC
  5
8D7
330
2
100
AcDbEntity
  8
0
100
AcDbCircle
 10
734.1062644580135
 20
396.7687844706394
 30
0.0
 40
2.5
100
AcDbArc
 50
270.0
 51
0.0
  0
LINE
  5
8D8
330
2
100
AcDbEntity
  8
LINIE
 48
10.0
100
AcDbLine
 10
731.8267644580134
 20
400.2878457419826
 30
0.0
 11
731.8267644580134
 21
394.2687844706394
 31
0.0
  0
LINE
  5
8D9
330
2
100
AcDbEntity
  8
0
100
AcDbLine
 10
730.6647644580134
 20
400.4705570974906
 30
0.0
 11
730.6647644580134
 21
395.4307844706394
 31
0.0
  0
LINE
  5
8DA
330
2
100
AcDbEntity
  8
0
100
AcDbLine
 10
730.6647644580134
 20
395.4307844706394
 30
0.0
 11
731.8267644580134
 21
394.2687844706394
 31
0.0
  0
ARC
  5
8DB
330
2
100
AcDbEntity
  8
0
100
AcDbCircle
 10
724.6062644580133
 20
412.2687844706392
 30
0.0
 40
8.0
100
AcDbArc
 50
270.0
 51
0.0
  0
ARC
  5
8DC
330
2
100
AcDbEntity
  8
0
100
AcDbCircle
 10
726.6062644580133
 20
416.1266488469083
 30
0.0
 40
10.0
100
AcDbArc
 50
0.0
 51
34.19888562142262
  0
LINE
  5
8DD
330
2
100
AcDbEntity
  8
0
100
AcDbLine
 10
879.2885978936771
 20
356.4634373772677
 30
0.0
 11
917.2677724986533
 21
351.8177623644476
 31
0.0
  0
LINE
  5
8DE
330
2
100
AcDbEntity
  8
MITTE
 48
10.0
100
AcDbLine
 10
888.1198268139829
 20
406.5385771531337
 30
0.0
 11
894.3488673512788
 21
389.4244289320451
 31
0.0
  0
CIRCLE
  5
8DF
330
2
100
AcDbEntity
  8
0
100
AcDbCircle
 10
891.2536121649756
 20
397.9285726638653
 30
0.0
 40
5.75
  0
ARC
  5
8E0
330
2
100
AcDbEntity
  8
0
100
AcDbCircle
 10
868.8021311364705
 20
438.8670540597443
 30
0.0
 40
73.0
100
AcDbArc
 50
215.4966288260183
 51
245.0000000000007
  0
LINE
  5
8E1
330
2
100
AcDbEntity
  8
0
100
AcDbLine
 10
837.9509980293997
 20
372.7065856060688
 30
0.0
 11
862.4213082793893
 21
361.2958925390698
 31
0.0
  0
ARC
  5
8E2
330
2
100
AcDbEntity
  8
0
100
AcDbCircle
 10
886.0879309368684
 20
412.0491286131223
 30
0.0
 40
56.0
100
AcDbArc
 50
245.0000000000007
 51
263.0261308132865
  0
ARC
  5
8E3
330
2
100
AcDbEntity
  8
0
100
AcDbCircle
 10
918.7247724364798
 20
363.7289819149879
 30
0.0
 40
12.0
100
AcDbArc
 50
263.0261308132865
 51
345.3533200439307
  0
CIRCLE
  5
8E4
330
2
100
AcDbEntity
  8
0
100
AcDbCircle
 10
918.7247724364798
 20
363.7289819149879
 30
0.0
 40
3.3235
  0
LINE
  5
8E5
330
2
100
AcDbEntity
  8
MITTE
 48
10.0
100
AcDbLine
 10
921.2798980377327
 20
369.208466449646
 30
0.0
 11
915.9516768140594
 21
357.7820591614724
 31
0.0
  0
LINE
  5
8E6
330
2
100
AcDbEntity
  8
MITTE
 48
10.0
100
AcDbLine
 10
914.4316441980491
 20
365.7309004900096
 30
0.0
 11
925.1146703386481
 21
360.7493235883782
 31
0.0
  0
ARC
  5
8E7
330
2
100
AcDbEntity
  8
LINIE
 48
10.0
100
AcDbCircle
 10
918.7247724364798
 20
363.7289819149879
 30
0.0
 40
4.0
100
AcDbArc
 50
138.349298219512
 51
73.8543757642468
  0
LINE
  5
8E8
330
2
100
AcDbEntity
  8
MITTE
 48
20.0
100
AcDbLine
 10
773.4229632059829
 20
466.0562876708438
 30
0.0
 11
959.3196456794085
 21
466.0562876708438
 31
0.0
  0
ARC
  5
8E9
330
2
100
AcDbEntity
  8
MITTE
 48
15.0
100
AcDbCircle
 10
866.4571517738645
 20
466.0562876708436
 30
0.0
 40
72.5
100
AcDbArc
 50
101.5931189888038
 51
141.6167398146161
  0
LINE
  5
8EA
330
2
100
AcDbEntity
  8
MITTE
 48
10.0
100
AcDbLine
 10
600.2698486080058
 20
459.2687844706391
 30
0.0
 11
736.1290255259588
 21
459.2687844706391
 31
0.0
  0
LINE
  5
8EB
330
2
100
AcDbEntity
  8
0
100
AcDbLine
 10
608.965163401554
 20
513.2687844706391
 30
0.0
 11
723.2633758047777
 21
513.2687844706391
 31
0.0
  0
LINE
  5
8EC
330
2
100
AcDbEntity
  8
0
100
AcDbLine
 10
604.6062644580135
 20
502.2697078634214
 30
0.0
 11
627.1062644580134
 21
502.2697078634214
 31
0.0
  0
LINE
  5
8ED
330
2
100
AcDbEntity
  8
0
100
AcDbLine
 10
604.6062644580135
 20
494.3880251167375
 30
0.0
 11
627.1062644580134
 21
494.3880251167375
 31
0.0
  0
DIMENSION
  5
8EE
330
2
100
AcDbEntity
  8
BEM
100
AcDbDimension
  2
*D18
 10
562.6543569106485
 20
466.0562876708439
 30
0.0
 11
553.6543569106483
 21
493.556287670844
 31
0.0
 70
    32
 71
     5
 42
55.0
  3
ISO-25
100
AcDbAlignedDimension
 13
569.7062644580131
 23
521.0562876708439
 33
0.0
 14
569.6304341272267
 24
466.0562876708439
 34
0.0
 50
90.0
100
AcDbRotatedDimension
1001
ACAD
1000
DSTYLE
1002
{
1070
   144
1040
1.0
1070
   289
1070
     0
1002
}
  0
LINE
  5
8EF
330
2
100
AcDbEntity
  8
MITTE
 48
5.0
100
AcDbLine
 10
594.8919393119414
 20
459.2687844706391
 30
0.0
 11
612.4677944661685
 21
459.2687844706391
 31
0.0
  0
LINE
  5
8F0
330
2
100
AcDbEntity
  8
0
100
AcDbLine
 10
571.7062644580131
 20
522.056287670844
 30
0.0
 11
604.6062644580132
 21
522.0562876708438
 31
0.0
1001
ACAD
1000
ASC_BOUNDS
1002
{
1070
    19
1002
}
  0
ARC
  5
8F1
330
2
100
AcDbEntity
  8
0
100
AcDbCircle
 10
569.7062644580131
 20
523.5562876708439
 30
0.0
 40
2.5
100
AcDbArc
 50
270.0
 51
323.1301023541543
1001
ACAD
1000
ASC_BOUNDS
1002
{
1070
    19
1002
}
  0
LINE
  5
8F2
330
2
100
AcDbEntity
  8
0
100
AcDbLine
 10
604.606264458013
 20
511.4999384847401
 30
0.0
 11
604.6062644580131
 21
495.49993848474
 31
0.0
1001
ACAD
1000
ASC_BOUNDS
1002
{
1070
    19
1005
0
1005
0
1002
}
  0
LINE
  5
8F3
330
2
100
AcDbEntity
  8
LINIE
100
AcDbLine
 10
608.965163401554
 20
510.2736245847501
 30
0.0
 11
608.965163401554
 21
503.0588633151757
 31
0.0
  0
LINE
  5
8F4
330
2
100
AcDbEntity
  8
0
100
AcDbLine
 10
607.6062644580134
 20
514.268784470639
 30
0.0
 11
604.6062644580135
 21
514.268784470639
 31
0.0
  0
ARC
  5
8F5
330
2
100
AcDbEntity
  8
0
100
AcDbCircle
 10
607.5278373627728
 20
512.7389068043938
 30
0.0
 40
1.53188657639655
100
AcDbArc
 50
20.23666902886434
 51
87.06537877672955
  0
LINE
  5
8F6
330
2
100
AcDbEntity
  8
LINIE
100
AcDbLine
 10
626.6062644580134
 20
501.7062191354145
 30
0.0
 11
626.6062644580134
 21
494.9241469912595
 31
0.0
  0
ARC
  5
8F7
330
2
100
AcDbEntity
  8
0
100
AcDbCircle
 10
627.1062644580134
 20
491.8880251167376
 30
0.0
 40
2.5
100
AcDbArc
 50
0.0
 51
90.0
  0
ARC
  5
8F8
330
2
100
AcDbEntity
  8
0
100
AcDbCircle
 10
627.1062644580134
 20
504.7697078634214
 30
0.0
 40
2.5
100
AcDbArc
 50
270.0
 51
0.0
  0
LINE
  5
8F9
330
2
100
AcDbEntity
  8
0
100
AcDbLine
 10
732.6062644580134
 20
490.2687844706391
 30
0.0
 11
731.2329333895116
 21
505.9660304126204
 31
0.0
  0
ARC
  5
8FA
330
2
100
AcDbEntity
  8
0
100
AcDbCircle
 10
723.2633758047777
 20
505.2687844706391
 30
0.0
 40
8.0
100
AcDbArc
 50
4.999999999999793
 51
90.0
  0
ARC
  5
8FB
330
2
100
AcDbEntity
  8
MITTE
 48
15.0
100
AcDbCircle
 10
866.4571517738645
 20
466.0562876708436
 30
0.0
 40
72.5
100
AcDbArc
 50
190.8188316286223
 51
208.4068810111936
  0
LINE
  5
8FC
330
2
100
AcDbEntity
  8
MITTE
 48
10.0
100
AcDbLine
 10
806.7994185492931
 20
444.3426485333064
 30
0.0
 11
788.2160850661197
 21
437.5788682919886
 31
0.0
  0
CIRCLE
  5
8FD
330
2
100
AcDbEntity
  8
0
100
AcDbCircle
 10
798.3294367668862
 20
441.2598272797326
 30
0.0
 40
5.75
  0
LINE
  5
8FF
330
2
100
AcDbEntity
  8
MITTE
 48
10.0
100
AcDbLine
 10
925.9748622915742
 20
487.7189627109629
 30
0.0
 11
943.0890105126627
 21
493.9480032482591
 31
0.0
  0
CIRCLE
  5
900
330
2
100
AcDbEntity
  8
0
100
AcDbCircle
 10
934.5848667808429
 20
490.8527480619546
 30
0.0
 40
5.75
  0
ARC
  5
901
330
2
100
AcDbEntity
  8
MITTE
 48
15.0
100
AcDbCircle
 10
866.4571517738645
 20
466.0562876708436
 30
0.0
 40
72.5
100
AcDbArc
 50
11.42334422562026
 51
28.51171634009352
  0
LINE
  5
902
330
2
100
AcDbEntity
  8
MITTE
 48
10.0
100
AcDbLine
 10
844.7435126363263
 20
525.7140208954146
 30
0.0
 11
837.9797323950086
 21
544.297354378588
 31
0.0
  0
CIRCLE
  5
903
330
2
100
AcDbEntity
  8
0
100
AcDbCircle
 10
841.6606913827536
 20
534.184002677822
 30
0.0
 40
5.75
  0
MTEXT
  5
DDB
330
2
100
AcDbEntity
  8
BEM
100
AcDbMText
 10
122.0680742970985
 20
303.9494529735504
 30
0.0
 40
10.0
 41
161.8643881791417
 71
     1
 72
     5
  1
Zuluft\Pair inlet\PBrachement de l'air\PAria in entrata
 73
     1
 44
1.0
  0
MTEXT
  5
DDC
330
2
100
AcDbEntity
  8
BEM
100
AcDbMText
 10
761.6599762016819
 20
323.4230180684244
 30
0.0
 40
10.0
 41
161.8643881791417
 71
     1
 72
     5
  1
Abluft\Pexhaust air\PSortie de l'air\PAria in uscita
 73
     1
 44
1.0
  0
ENDSEC
  0
SECTION
  2
OBJECTS
  0
DICTIONARY
  5
1B
330
0
100
AcDbDictionary
281
     1
  3
ACAD_COLOR
350
B1B
  3
ACAD_GROUP
350
19
  3
ACAD_LAYOUT
350
323
  3
ACAD_MATERIAL
350
B1A
  3
ACAD_MLEADERSTYLE
350
C71
  3
ACAD_MLINESTYLE
350
1A
  3
ACAD_PLOTSETTINGS
350
324
  3
ACAD_PLOTSTYLENAME
350
321
  3
ACAD_SCALELIST
350
C4F
  3
ACAD_TABLESTYLE
350
BE8
  3
ACAD_VISUALSTYLE
350
C0E
  3
ACDB_RECOMPOSE_DATA
350
CAA
  3
ACDBVARIABLEDICTIONARY
350
2D7
  3
ACMDICTIONARY
350
2B5
  3
AMG
350
32C
  3
AMGSNAPSETTINGS
350
397
  3
ASE_INDEX_DICTIONARY
350
DD1
  0
DICTIONARY
  5
C93
330
5
100
AcDbDictionary
280
     1
281
     1
  3
ADSK_XREC_LAYER_RECONCILED
360
C94
  0
DICTIONARY
  5
C95
330
21
100
AcDbDictionary
280
     1
281
     1
  3
ADSK_XREC_LAYER_RECONCILED
360
C96
  0
DICTIONARY
  5
C97
330
3D
100
AcDbDictionary
280
     1
281
     1
  3
ADSK_XREC_LAYER_RECONCILED
360
C98
  0
DICTIONARY
  5
C99
330
62
100
AcDbDictionary
280
     1
281
     1
  3
ADSK_XREC_LAYER_RECONCILED
360
C9A
  0
DICTIONARY
  5
3
330
2
100
AcDbDictionary
280
     1
281
     1
  3
ACAD_SORTENTS
360
DDE
  0
DICTIONARY
  5
10AB
330
1007
100
AcDbDictionary
280
     1
281
     1
  3
ACAD_MTEXT_2008_RT
360
10AC
  0
DICTIONARY
  5
B1B
102
{ACAD_REACTORS
330
1B
102
}
330
1B
100
AcDbDictionary
281
     1
  0
DICTIONARY
  5
19
102
{ACAD_REACTORS
330
1B
102
}
330
1B
100
AcDbDictionary
281
     1
  0
DICTIONARY
  5
323
102
{ACAD_REACTORS
330
1B
102
}
330
1B
100
AcDbDictionary
281
     1
  3
Layout1
350
326
  3
Model
350
325
  0
DICTIONARY
  5
B1A
102
{ACAD_REACTORS
330
1B
102
}
330
1B
100
AcDbDictionary
281
     1
  3
ByBlock
350
C0C
  3
ByLayer
350
C0B
  3
Global
350
C0D
  0
DICTIONARY
  5
C71
102
{ACAD_REACTORS
330
1B
102
}
330
1B
100
AcDbDictionary
281
     1
  3
Standard
350
C72
  0
DICTIONARY
  5
1A
102
{ACAD_REACTORS
330
1B
102
}
330
1B
100
AcDbDictionary
281
     1
  3
STANDARD
350
1C
  0
DICTIONARY
  5
324
102
{ACAD_REACTORS
330
1B
102
}
330
1B
100
AcDbDictionary
281
     1
  0
ACDBDICTIONARYWDFLT
  5
321
102
{ACAD_REACTORS
330
1B
102
}
330
1B
100
AcDbDictionary
281
     1
  3
Normal
350
322
100
AcDbDictionaryWithDefault
340
322
  0
DICTIONARY
  5
C4F
102
{ACAD_REACTORS
330
1B
102
}
330
1B
100
AcDbDictionary
281
     1
  3
A0
350
C50
  3
A1
350
C51
  3
A2
350
C52
  3
A3
350
C53
  3
A4
350
C54
  3
A5
350
C55
  3
A6
350
C56
  3
A7
350
C57
  3
A8
350
C58
  3
A9
350
C59
  3
B0
350
C5A
  3
B1
350
C5B
  3
B2
350
C5C
  3
B3
350
C5D
  3
B4
350
C5E
  3
B5
350
C5F
  3
B6
350
C60
  3
B7
350
C61
  3
B8
350
C62
  3
B9
350
C63
  3
C0
350
C64
  3
C1
350
C65
  3
C2
350
C66
  3
C3
350
C67
  3
C4
350
C68
  3
C5
350
C69
  3
C6
350
C6A
  3
C7
350
C6B
  3
C8
350
C6C
  3
C9
350
C6D
  3
D0
350
C6E
  3
D1
350
C6F
  3
D2
350
C70
  0
DICTIONARY
  5
BE8
102
{ACAD_REACTORS
330
1B
102
}
330
1B
100
AcDbDictionary
281
     1
  3
Standard
350
BE9
  0
DICTIONARY
  5
C0E
102
{ACAD_REACTORS
330
1B
102
}
330
1B
100
AcDbDictionary
281
     1
  3
2dWireframe
350
C14
  3
3D Hidden
350
C16
  3
3dWireframe
350
C15
  3
Basic
350
C13
  3
Brighten
350
C1A
  3
ColorChange
350
C1E
  3
Conceptual
350
C17
  3
Dim
350
C19
  3
Facepattern
350
C1D
  3
Flat
350
C0F
  3
FlatWithEdges
350
C10
  3
Gouraud
350
C11
  3
GouraudWithEdges
350
C12
  3
Linepattern
350
C1C
  3
Realistic
350
C18
  3
Thicken
350
C1B
  0
XRECORD
  5
CAA
102
{ACAD_REACTORS
330
1B
102
}
330
1B
100
AcDbXrecord
280
     1
 90
        1
330
BE9
  0
DICTIONARY
  5
2D7
102
{ACAD_REACTORS
330
1B
102
}
330
1B
100
AcDbDictionary
281
     1
  3
CANNOSCALE
350
CAD
  3
CMLEADERSTYLE
350
CAB
  3
CTABLESTYLE
350
C09
  3
DIMASSOC
350
396
  3
INDEXCTL
350
2D8
  3
LIGHTINGUNITS
350
CAE
  3
MSLTSCALE
350
CAC
  0
DICTIONARY
  5
2B5
102
{ACAD_REACTORS
330
1B
102
}
330
1B
100
AcDbDictionary
280
     1
281
     1
  3
ACMSTDDICTIONARY
360
2B6
  3
AMDTSECTSYM_ARROWCOLOR
360
BF2
  0
DICTIONARY
  5
32C
102
{ACAD_REACTORS
330
1B
102
}
330
1B
100
AcDbDictionary
281
     1
  0
DICTIONARY
  5
397
102
{ACAD_REACTORS
330
1B
102
}
330
1B
100
AcDbDictionary
281
     1
  0
DICTIONARY
  5
DD1
102
{ACAD_REACTORS
330
1B
102
}
330
1B
100
AcDbDictionary
281
     1
  3
ASEBlockHierarchyIndexRecord
350
DD2
1001
DCO15
1040
1725355628.107
  0
XRECORD
  5
C94
102
{ACAD_REACTORS
330
C93
102
}
330
C93
100
AcDbXrecord
280
     1
290
     1
  0
XRECORD
  5
C96
102
{ACAD_REACTORS
330
C95
102
}
330
C95
100
AcDbXrecord
280
     1
290
     1
  0
XRECORD
  5
C98
102
{ACAD_REACTORS
330
C97
102
}
330
C97
100
AcDbXrecord
280
     1
290
     1
  0
XRECORD
  5
C9A
102
{ACAD_REACTORS
330
C99
102
}
330
C99
100
AcDbXrecord
280
     1
290
     1
  0
SORTENTSTABLE
  5
DDE
102
{ACAD_REACTORS
330
3
102
}
330
3
100
AcDbSortentsTable
330
2
331
8D8
  5
8D8
331
8E0
  5
8E0
331
8E8
  5
8E8
331
8F0
  5
8F0
331
8A1
  5
8A1
331
82B
  5
82B
331
862
  5
862
331
7EC
  5
7EC
331
8A9
  5
8A9
331
7F4
  5
7F4
331
833
  5
833
331
86A
  5
86A
331
872
  5
872
331
8B1
  5
8B1
331
7C5
  5
7C5
331
7FC
  5
7FC
331
87A
  5
87A
331
804
  5
804
331
78E
  5
78E
331
8B9
  5
8B9
331
8F8
  5
8F8
331
900
  5
900
331
8C1
  5
8C1
331
8C9
  5
8C9
331
8D1
  5
8D1
331
843
  5
843
331
882
  5
882
331
7CD
  5
7CD
331
80C
  5
80C
331
814
  5
814
331
84B
  5
84B
331
79E
  5
79E
331
7D5
  5
7D5
331
88A
  5
88A
331
892
  5
892
331
7DD
  5
7DD
331
81C
  5
81C
331
7A6
  5
7A6
331
853
  5
853
331
89A
  5
89A
331
7E5
  5
7E5
331
824
  5
824
331
7AE
  5
7AE
331
85B
  5
85B
331
8D9
  5
8D9
331
8E1
  5
8E1
331
8E9
  5
8E9
331
8F1
  5
8F1
331
863
  5
863
331
8A2
  5
8A2
331
7ED
  5
7ED
331
82C
  5
82C
331
834
  5
834
331
86B
  5
86B
331
7BE
  5
7BE
331
7F5
  5
7F5
331
8AA
  5
8AA
331
8B2
  5
8B2
331
873
  5
873
331
7C6
  5
7C6
331
7FD
  5
7FD
331
805
  5
805
331
78F
  5
78F
331
87B
  5
87B
331
8BA
  5
8BA
331
8F9
  5
8F9
331
8C2
  5
8C2
331
901
  5
901
331
8CA
  5
8CA
331
8D2
  5
8D2
331
883
  5
883
331
7CE
  5
7CE
331
80D
  5
80D
331
844
  5
844
331
84C
  5
84C
331
88B
  5
88B
331
7D6
  5
7D6
331
815
  5
815
331
79F
  5
79F
331
854
  5
854
331
893
  5
893
331
7A7
  5
7A7
331
7DE
  5
7DE
331
81D
  5
81D
331
825
  5
825
331
85C
  5
85C
331
7AF
  5
7AF
331
7E6
  5
7E6
331
89B
  5
89B
331
8DA
  5
8DA
331
8E2
  5
8E2
331
8EA
  5
8EA
331
8F2
  5
8F2
331
8A3
  5
8A3
331
7EE
  5
7EE
331
82D
  5
82D
331
7B7
  5
7B7
331
864
  5
864
331
8AB
  5
8AB
331
7F6
  5
7F6
331
835
  5
835
331
7BF
  5
7BF
331
86C
  5
86C
331
874
  5
874
331
7C7
  5
7C7
331
7FE
  5
7FE
331
8B3
  5
8B3
331
87C
  5
87C
331
806
  5
806
331
8BB
  5
8BB
331
8FA
  5
8FA
331
902
  5
902
331
8C3
  5
8C3
331
8CB
  5
8CB
331
790
  5
790
331
8D3
  5
8D3
331
845
  5
845
331
798
  5
798
331
7CF
  5
7CF
331
80E
  5
80E
331
816
  5
816
331
7A0
  5
7A0
331
7D7
  5
7D7
331
88C
  5
88C
331
894
  5
894
331
7DF
  5
7DF
331
81E
  5
81E
331
7A8
  5
7A8
331
855
  5
855
331
85D
  5
85D
331
89C
  5
89C
331
7E7
  5
7E7
331
826
  5
826
331
8DB
  5
8DB
331
8E3
  5
8E3
331
8EB
  5
8EB
331
8F3
  5
8F3
331
7B0
  5
7B0
331
865
  5
865
331
8A4
  5
8A4
331
7B8
  5
7B8
331
7EF
  5
7EF
331
82E
  5
82E
331
836
  5
836
331
86D
  5
86D
331
7C0
  5
7C0
331
7F7
  5
7F7
331
8AC
  5
8AC
331
8B4
  5
8B4
331
7FF
  5
7FF
331
83E
  5
83E
331
875
  5
875
331
807
  5
807
331
87D
  5
87D
331
8BC
  5
8BC
331
8FB
  5
8FB
331
8C4
  5
8C4
331
903
  5
903
331
8CC
  5
8CC
331
791
  5
791
331
8D4
  5
8D4
331
7C8
  5
7C8
331
885
  5
885
331
7D0
  5
7D0
331
80F
  5
80F
331
799
  5
799
331
846
  5
846
331
84E
  5
84E
331
88D
  5
88D
331
7A1
  5
7A1
331
7D8
  5
7D8
331
817
  5
817
331
856
  5
856
331
895
  5
895
331
7A9
  5
7A9
331
7E0
  5
7E0
331
81F
  5
81F
331
827
  5
827
331
85E
  5
85E
331
89D
  5
89D
331
8DC
  5
8DC
331
8E4
  5
8E4
331
8EC
  5
8EC
331
7B1
  5
7B1
331
8F4
  5
8F4
331
7E8
  5
7E8
331
8A5
  5
8A5
331
7F0
  5
7F0
331
82F
  5
82F
331
7B9
  5
7B9
331
866
  5
866
331
86E
  5
86E
331
8AD
  5
8AD
331
7F8
  5
7F8
331
837
  5
837
331
7C1
  5
7C1
331
876
  5
876
331
8B5
  5
8B5
331
800
  5
800
331
78A
  5
78A
331
83F
  5
83F
331
87E
  5
87E
331
8BD
  5
8BD
331
8FC
  5
8FC
331
8C5
  5
8C5
331
792
  5
792
331
8D5
  5
8D5
331
7C9
  5
7C9
331
808
  5
808
331
810
  5
810
331
847
  5
847
331
79A
  5
79A
331
7D1
  5
7D1
331
886
  5
886
331
818
  5
818
331
84F
  5
84F
331
7A2
  5
7A2
331
7D9
  5
7D9
331
88E
  5
88E
331
896
  5
896
331
7E1
  5
7E1
331
820
  5
820
331
7AA
  5
7AA
331
857
  5
857
331
85F
  5
85F
331
89E
  5
89E
331
8DD
  5
8DD
331
8E5
  5
8E5
331
8ED
  5
8ED
331
7B2
  5
7B2
331
8F5
  5
8F5
331
7E9
  5
7E9
331
828
  5
828
331
867
  5
867
331
8A6
  5
8A6
331
7BA
  5
7BA
331
7F1
  5
7F1
331
830
  5
830
331
838
  5
838
331
86F
  5
86F
331
7C2
  5
7C2
331
7F9
  5
7F9
331
8AE
  5
8AE
331
8B6
  5
8B6
331
801
  5
801
331
78B
  5
78B
331
877
  5
877
331
87F
  5
87F
331
DDB
  5
DDC
331
8BE
  5
8BE
331
8FD
  5
8FD
331
8C6
  5
8C6
331
809
  5
809
331
8D6
  5
8D6
331
7CA
  5
7CA
331
887
  5
887
331
7D2
  5
7D2
331
811
  5
811
331
79B
  5
79B
331
848
  5
848
331
88F
  5
88F
331
7A3
  5
7A3
331
7DA
  5
7DA
331
819
  5
819
331
821
  5
821
331
858
  5
858
331
7AB
  5
7AB
331
7E2
  5
7E2
331
897
  5
897
331
89F
  5
89F
331
8DE
  5
8DE
331
8E6
  5
8E6
331
8EE
  5
8EE
331
829
  5
829
331
860
  5
860
331
7B3
  5
7B3
331
8F6
  5
8F6
331
7EA
  5
7EA
331
8A7
  5
8A7
331
7F2
  5
7F2
331
831
  5
831
331
868
  5
868
331
870
  5
870
331
8AF
  5
8AF
331
7C3
  5
7C3
331
839
  5
839
331
878
  5
878
331
802
  5
802
331
8B7
  5
8B7
331
78C
  5
78C
331
DDC
  5
DDD
331
8BF
  5
8BF
331
8C7
  5
8C7
331
841
  5
841
331
880
  5
880
331
8D7
  5
8D7
331
7CB
  5
7CB
331
812
  5
812
331
849
  5
849
331
79C
  5
79C
331
7D3
  5
7D3
331
888
  5
888
331
81A
  5
81A
331
851
  5
851
331
7A4
  5
7A4
331
7DB
  5
7DB
331
898
  5
898
331
7E3
  5
7E3
331
822
  5
822
331
7AC
  5
7AC
331
859
  5
859
331
8DF
  5
8DF
331
8E7
  5
8E7
331
8EF
  5
8EF
331
861
  5
861
331
8A0
  5
8A0
331
7B4
  5
7B4
331
8F7
  5
8F7
331
7EB
  5
7EB
331
82A
  5
82A
331
832
  5
832
331
869
  5
869
331
7F3
  5
7F3
331
8A8
  5
8A8
331
83A
  5
83A
331
871
  5
871
331
7C4
  5
7C4
331
7FB
  5
7FB
331
8B0
  5
8B0
331
803
  5
803
331
879
  5
879
331
8B8
  5
8B8
331
8C0
  5
8C0
331
8FF
  5
8FF
331
8C8
  5
8C8
331
881
  5
881
331
7CC
  5
7CC
331
795
  5
795
331
842
  5
842
331
889
  5
889
331
7D4
  5
7D4
331
813
  5
813
331
79D
  5
79D
331
84A
  5
84A
331
852
  5
852
331
891
  5
891
331
7A5
  5
7A5
331
7DC
  5
7DC
331
81B
  5
81B
331
823
  5
823
331
85A
  5
85A
331
7AD
  5
7AD
331
7E4
  5
7E4
331
899
  5
899
  0
XRECORD
  5
10AC
102
{ACAD_REACTORS
330
10AB
102
}
330
10AB
100
AcDbXrecord
280
     1
 40
5795.0
  1
\A1;\U+2205145
  0
LAYOUT
  5
326
102
{ACAD_REACTORS
330
323
102
}
330
323
100
AcDbPlotSettings
  1

  2
Kein
  4

  6

 40
0.0
 41
0.0
 42
0.0
 43
0.0
 44
0.0
 45
0.0
 46
0.0
 47
0.0
 48
0.0
 49
0.0
140
0.0
141
0.0
142
1.0
143
1.0
 70
   688
 72
     0
 73
     0
 74
     5
  7
Test.ctb
 75
    16
147
1.0
 76
     0
 77
     2
 78
   300
148
0.0
149
0.0
100
AcDbLayout
  1
Layout1
 70
     0
 71
     1
 10
0.0
 20
0.0
 11
420.0
 21
297.0
 12
0.0
 22
0.0
 32
0.0
 14
1.000000000000000E+20
 24
1.000000000000000E+20
 34
1.000000000000000E+20
 15
-1.000000000000000E+20
 25
-1.000000000000000E+20
 35
-1.000000000000000E+20
146
0.0
 13
0.0
 23
0.0
 33
0.0
 16
1.0
 26
0.0
 36
0.0
 17
0.0
 27
1.0
 37
0.0
 76
     0
330
8
  0
LAYOUT
  5
325
102
{ACAD_REACTORS
330
323
102
}
330
323
100
AcDbPlotSettings
  1

  2
Konstruktion
  4
A4
  6

 40
7.143749713897705
 41
7.186082363128662
 42
7.059066772460937
 43
5.027069091796875
 44
209.9733276367187
 45
296.9683227539062
 46
23.06738907803515
 47
0.0
 48
0.0
 49
0.0
140
0.0
141
0.0
142
1.0
143
3.601236560291725
 70
  3764
 72
     1
 73
     1
 74
     1
  7
Zeich.ctb
 75
     0
147
0.2776823969372879
 76
     0
 77
     2
 78
   300
148
-17.5117517326862
149
-75.08278047326348
100
AcDbLayout
  1
Model
 70
     1
 71
     0
 10
0.0
 20
0.0
 11
12.0
 21
9.0
 12
0.0
 22
0.0
 32
0.0
 14
0.0
 24
0.0
 34
0.0
 15
0.0
 25
0.0
 35
0.0
146
0.0
 13
0.0
 23
0.0
 33
0.0
 16
1.0
 26
0.0
 36
0.0
 17
0.0
 27
1.0
 37
0.0
 76
     0
330
2
331
C08
1001
ACAD_PSEXT
1000
Konstruktion
1000
Kyocera FS-1030D
1000
IP_192.168.10.181
1000

1070
     0
  0
MATERIAL
  5
C0C
102
{ACAD_XDICTIONARY
360
10A7
102
}
102
{ACAD_REACTORS
330
B1A
102
}
330
B1A
100
AcDbMaterial
  1
ByBlock
 73
     1
 78
     1
172
     1
176
     1
270
     1
274
     1
  0
MATERIAL
  5
C0B
102
{ACAD_XDICTIONARY
360
10A5
102
}
102
{ACAD_REACTORS
330
B1A
102
}
330
B1A
100
AcDbMaterial
  1
ByLayer
 73
     1
 78
     1
172
     1
176
     1
270
     1
274
     1
  0
MATERIAL
  5
C0D
102
{ACAD_XDICTIONARY
360
10A9
102
}
102
{ACAD_REACTORS
330
B1A
102
}
330
B1A
100
AcDbMaterial
  1
Global
 73
     1
 78
     1
172
     1
176
     1
270
     1
274
     1
  0
MLEADERSTYLE
  5
C72
102
{ACAD_REACTORS
330
C71
102
}
330
C71
100
AcDbMLeaderStyle
170
     2
171
     1
172
     0
 90
        2
 40
0.0
 41
0.0
173
     1
 91
-1056964608
340
F
 92
       -2
290
     1
 42
0.09
291
     1
 43
0.36
  3
Standard
 44
0.18
300

342
D
174
     1
178
     6
175
     1
176
     0
 93
-1056964608
 45
0.18
292
     0
297
     0
 46
0.18
 94
-1056964608
 47
1.0
 49
1.0
140
1.0
293
     1
141
0.0
294
     1
177
     0
142
1.0
295
     0
296
     0
143
0.125
1001
ACAD_MLEADERVER
1070
     2
  0
MLINESTYLE
  5
1C
102
{ACAD_REACTORS
330
1A
102
}
330
1A
100
AcDbMlineStyle
  2
STANDARD
 70
     0
  3

 62
     0
 51
90.0
 52
90.0
 71
     2
 49
0.5
 62
   256
  6
BYLAYER
 49
-0.5
 62
   256
  6
BYLAYER
  0
ACDBPLACEHOLDER
  5
322
102
{ACAD_REACTORS
330
321
102
}
330
321
  0
SCALE
  5
C50
102
{ACAD_REACTORS
330
C4F
102
}
330
C4F
100
AcDbScale
 70
     0
300
1:1
140
1.0
141
1.0
290
     1
  0
SCALE
  5
C51
102
{ACAD_REACTORS
330
C4F
102
}
330
C4F
100
AcDbScale
 70
     0
300
1:2
140
1.0
141
2.0
290
     0
  0
SCALE
  5
C52
102
{ACAD_REACTORS
330
C4F
102
}
330
C4F
100
AcDbScale
 70
     0
300
1:4
140
1.0
141
4.0
290
     0
  0
SCALE
  5
C53
102
{ACAD_REACTORS
330
C4F
102
}
330
C4F
100
AcDbScale
 70
     0
300
1:5
140
1.0
141
5.0
290
     0
  0
SCALE
  5
C54
102
{ACAD_REACTORS
330
C4F
102
}
330
C4F
100
AcDbScale
 70
     0
300
1:8
140
1.0
141
8.0
290
     0
  0
SCALE
  5
C55
102
{ACAD_REACTORS
330
C4F
102
}
330
C4F
100
AcDbScale
 70
     0
300
1:10
140
1.0
141
10.0
290
     0
  0
SCALE
  5
C56
102
{ACAD_REACTORS
330
C4F
102
}
330
C4F
100
AcDbScale
 70
     0
300
1:16
140
1.0
141
16.0
290
     0
  0
SCALE
  5
C57
102
{ACAD_REACTORS
330
C4F
102
}
330
C4F
100
AcDbScale
 70
     0
300
1:20
140
1.0
141
20.0
290
     0
  0
SCALE
  5
C58
102
{ACAD_REACTORS
330
C4F
102
}
330
C4F
100
AcDbScale
 70
     0
300
1:30
140
1.0
141
30.0
290
     0
  0
SCALE
  5
C59
102
{ACAD_REACTORS
330
C4F
102
}
330
C4F
100
AcDbScale
 70
     0
300
1:40
140
1.0
141
40.0
290
     0
  0
SCALE
  5
C5A
102
{ACAD_REACTORS
330
C4F
102
}
330
C4F
100
AcDbScale
 70
     0
300
1:50
140
1.0
141
50.0
290
     0
  0
SCALE
  5
C5B
102
{ACAD_REACTORS
330
C4F
102
}
330
C4F
100
AcDbScale
 70
     0
300
1:100
140
1.0
141
100.0
290
     0
  0
SCALE
  5
C5C
102
{ACAD_REACTORS
330
C4F
102
}
330
C4F
100
AcDbScale
 70
     0
300
2:1
140
2.0
141
1.0
290
     0
  0
SCALE
  5
C5D
102
{ACAD_REACTORS
330
C4F
102
}
330
C4F
100
AcDbScale
 70
     0
300
4:1
140
4.0
141
1.0
290
     0
  0
SCALE
  5
C5E
102
{ACAD_REACTORS
330
C4F
102
}
330
C4F
100
AcDbScale
 70
     0
300
8:1
140
8.0
141
1.0
290
     0
  0
SCALE
  5
C5F
102
{ACAD_REACTORS
330
C4F
102
}
330
C4F
100
AcDbScale
 70
     0
300
10:1
140
10.0
141
1.0
290
     0
  0
SCALE
  5
C60
102
{ACAD_REACTORS
330
C4F
102
}
330
C4F
100
AcDbScale
 70
     0
300
100:1
140
100.0
141
1.0
290
     0
  0
SCALE
  5
C61
102
{ACAD_REACTORS
330
C4F
102
}
330
C4F
100
AcDbScale
 70
     0
300
1/128" = 1'-0"
140
0.0078125
141
12.0
290
     0
  0
SCALE
  5
C62
102
{ACAD_REACTORS
330
C4F
102
}
330
C4F
100
AcDbScale
 70
     0
300
1/64" = 1'-0"
140
0.015625
141
12.0
290
     0
  0
SCALE
  5
C63
102
{ACAD_REACTORS
330
C4F
102
}
330
C4F
100
AcDbScale
 70
     0
300
1/32" = 1'-0"
140
0.03125
141
12.0
290
     0
  0
SCALE
  5
C64
102
{ACAD_REACTORS
330
C4F
102
}
330
C4F
100
AcDbScale
 70
     0
300
1/16" = 1'-0"
140
0.0625
141
12.0
290
     0
  0
SCALE
  5
C65
102
{ACAD_REACTORS
330
C4F
102
}
330
C4F
100
AcDbScale
 70
     0
300
3/32" = 1'-0"
140
0.09375
141
12.0
290
     0
  0
SCALE
  5
C66
102
{ACAD_REACTORS
330
C4F
102
}
330
C4F
100
AcDbScale
 70
     0
300
1/8" = 1'-0"
140
0.125
141
12.0
290
     0
  0
SCALE
  5
C67
102
{ACAD_REACTORS
330
C4F
102
}
330
C4F
100
AcDbScale
 70
     0
300
3/16" = 1'-0"
140
0.1875
141
12.0
290
     0
  0
SCALE
  5
C68
102
{ACAD_REACTORS
330
C4F
102
}
330
C4F
100
AcDbScale
 70
     0
300
1/4" = 1'-0"
140
0.25
141
12.0
290
     0
  0
SCALE
  5
C69
102
{ACAD_REACTORS
330
C4F
102
}
330
C4F
100
AcDbScale
 70
     0
300
3/8" = 1'-0"
140
0.375
141
12.0
290
     0
  0
SCALE
  5
C6A
102
{ACAD_REACTORS
330
C4F
102
}
330
C4F
100
AcDbScale
 70
     0
300
1/2" = 1'-0"
140
0.5
141
12.0
290
     0
  0
SCALE
  5
C6B
102
{ACAD_REACTORS
330
C4F
102
}
330
C4F
100
AcDbScale
 70
     0
300
3/4" = 1'-0"
140
0.75
141
12.0
290
     0
  0
SCALE
  5
C6C
102
{ACAD_REACTORS
330
C4F
102
}
330
C4F
100
AcDbScale
 70
     0
300
1" = 1'-0"
140
1.0
141
12.0
290
     0
  0
SCALE
  5
C6D
102
{ACAD_REACTORS
330
C4F
102
}
330
C4F
100
AcDbScale
 70
     0
300
1-1/2" = 1'-0"
140
1.5
141
12.0
290
     0
  0
SCALE
  5
C6E
102
{ACAD_REACTORS
330
C4F
102
}
330
C4F
100
AcDbScale
 70
     0
300
3" = 1'-0"
140
3.0
141
12.0
290
     0
  0
SCALE
  5
C6F
102
{ACAD_REACTORS
330
C4F
102
}
330
C4F
100
AcDbScale
 70
     0
300
6" = 1'-0"
140
6.0
141
12.0
290
     0
  0
SCALE
  5
C70
102
{ACAD_REACTORS
330
C4F
102
}
330
C4F
100
AcDbScale
 70
     0
300
1'-0" = 1'-0"
140
12.0
141
12.0
290
     0
  0
TABLESTYLE
  5
BE9
102
{ACAD_XDICTIONARY
360
CA8
102
}
102
{ACAD_REACTORS
330
BE8
102
}
330
BE8
100
AcDbTableStyle
  3
Standard
 70
     0
 71
     0
 40
0.06
 41
0.06
280
     0
281
     0
  7
STANDARD
140
0.18
170
     2
 62
     0
 63
     7
283
     0
274
    -2
284
     1
 64
     0
275
    -2
285
     1
 65
     0
276
    -2
286
     1
 66
     0
277
    -2
287
     1
 67
     0
278
    -2
288
     1
 68
     0
279
    -2
289
     1
 69
     0
  7
STANDARD
140
0.25
170
     5
 62
     0
 63
     7
283
     0
274
    -2
284
     1
 64
     0
275
    -2
285
     1
 65
     0
276
    -2
286
     1
 66
     0
277
    -2
287
     1
 67
     0
278
    -2
288
     1
 68
     0
279
    -2
289
     1
 69
     0
  7
STANDARD
140
0.18
170
     5
 62
     0
 63
     7
283
     0
274
    -2
284
     1
 64
     0
275
    -2
285
     1
 65
     0
276
    -2
286
     1
 66
     0
277
    -2
287
     1
 67
     0
278
    -2
288
     1
 68
     0
279
    -2
289
     1
 69
     0
  0
VISUALSTYLE
  5
C14
102
{ACAD_REACTORS
330
C0E
102
}
330
C0E
100
AcDbVisualStyle
  2
2dWireframe
 70
     4
 71
     0
 72
     2
 73
     0
 90
        0
 40
-0.6
 41
-30.0
 62
     5
 63
     7
421
 16777215
 74
     1
 91
        4
 64
     7
 65
   257
 75
     1
175
     1
 42
1.0
 92
        0
 66
   257
 43
1.0
 76
     1
 77
     6
 78
     2
 67
     7
 79
     5
170
     0
171
     0
290
     0
174
     0
 93
        1
 44
0.0
173
     0
291
     0
 45
0.0
1001
ACAD
1000
AcDbSavedByObjectVersion
1070
     0
  0
VISUALSTYLE
  5
C16
102
{ACAD_REACTORS
330
C0E
102
}
330
C0E
100
AcDbVisualStyle
  2
3D Hidden
 70
     6
 71
     1
 72
     2
 73
     2
 90
        0
 40
-0.6
 41
-30.0
 62
     5
 63
     7
421
 16777215
 74
     2
 91
        2
 64
     7
 65
   257
 75
     2
175
     1
 42
40.0
 92
        0
 66
   257
 43
1.0
 76
     1
 77
     6
 78
     2
 67
     7
 79
     3
170
     0
171
     0
290
     0
174
     0
 93
        1
 44
0.0
173
     0
291
     0
 45
0.0
1001
ACAD
1000
AcDbSavedByObjectVersion
1070
     0
  0
VISUALSTYLE
  5
C15
102
{ACAD_REACTORS
330
C0E
102
}
330
C0E
100
AcDbVisualStyle
  2
3dWireframe
 70
     5
 71
     0
 72
     2
 73
     0
 90
        0
 40
-0.6
 41
-30.0
 62
     5
 63
     7
421
 16777215
 74
     1
 91
        4
 64
     7
 65
   257
 75
     1
175
     1
 42
1.0
 92
        0
 66
   257
 43
1.0
 76
     1
 77
     6
 78
     2
 67
     7
 79
     5
170
     0
171
     0
290
     0
174
     0
 93
        1
 44
0.0
173
     0
291
     0
 45
0.0
1001
ACAD
1000
AcDbSavedByObjectVersion
1070
     0
  0
VISUALSTYLE
  5
C13
102
{ACAD_REACTORS
330
C0E
102
}
330
C0E
100
AcDbVisualStyle
  2
Basic
 70
     7
 71
     1
 72
     0
 73
     1
 90
        0
 40
-0.6
 41
-30.0
 62
     5
 63
     7
421
 16777215
 74
     0
 91
        4
 64
     7
 65
   257
 75
     1
175
     1
 42
1.0
 92
        8
 66
     7
 43
1.0
 76
     1
 77
     6
 78
     2
 67
     7
 79
     5
170
     0
171
     0
290
     0
174
     0
 93
        1
 44
0.0
173
     0
291
     1
 45
0.0
1001
ACAD
1000
AcDbSavedByObjectVersion
1070
     0
  0
VISUALSTYLE
  5
C1A
102
{ACAD_REACTORS
330
C0E
102
}
330
C0E
100
AcDbVisualStyle
  2
Brighten
 70
    12
 71
     2
 72
     2
 73
     0
 90
        0
 40
-0.6
 41
-30.0
 62
     5
 63
     7
421
 16777215
 74
     1
 91
        4
 64
     7
 65
   257
 75
     1
175
     1
 42
1.0
 92
        8
 66
     7
 43
1.0
 76
     1
 77
     6
 78
     2
 67
     7
 79
     5
170
     0
171
     0
290
     0
174
     0
 93
        1
 44
50.0
173
     0
291
     1
 45
0.0
1001
ACAD
1000
AcDbSavedByObjectVersion
1070
     0
  0
VISUALSTYLE
  5
C1E
102
{ACAD_REACTORS
330
C0E
102
}
330
C0E
100
AcDbVisualStyle
  2
ColorChange
 70
    16
 71
     2
 72
     2
 73
     3
 90
        0
 40
-0.6
 41
-30.0
 62
     5
 63
     8
421
  8421504
 74
     1
 91
        4
 64
     7
 65
   257
 75
     1
175
     1
 42
1.0
 92
        8
 66
     8
424
  8421504
 43
1.0
 76
     1
 77
     6
 78
     2
 67
     7
 79
     5
170
     0
171
     0
290
     0
174
     0
 93
        1
 44
0.0
173
     0
291
     1
 45
0.0
1001
ACAD
1000
AcDbSavedByObjectVersion
1070
     0
  0
VISUALSTYLE
  5
C17
102
{ACAD_REACTORS
330
C0E
102
}
330
C0E
100
AcDbVisualStyle
  2
Conceptual
 70
     9
 71
     3
 72
     2
 73
     0
 90
        0
 40
-0.6
 41
-30.0
 62
     5
 63
     7
421
 16777215
 74
     2
 91
        2
 64
     7
 65
   257
 75
     1
175
     1
 42
40.0
 92
        8
 66
     7
 43
1.0
 76
     1
 77
     6
 78
     2
 67
     7
 79
     3
170
     0
171
     0
290
     0
174
     0
 93
        1
 44
0.0
173
     0
291
     0
 45
0.0
1001
ACAD
1000
AcDbSavedByObjectVersion
1070
     0
  0
VISUALSTYLE
  5
C19
102
{ACAD_REACTORS
330
C0E
102
}
330
C0E
100
AcDbVisualStyle
  2
Dim
 70
    11
 71
     2
 72
     2
 73
     0
 90
        0
 40
-0.6
 41
-30.0
 62
     5
 63
     7
421
 16777215
 74
     1
 91
        4
 64
     7
 65
   257
 75
     1
175
     1
 42
1.0
 92
        8
 66
     7
 43
1.0
 76
     1
 77
     6
 78
     2
 67
     7
 79
     5
170
     0
171
     0
290
     0
174
     0
 93
        1
 44
-50.0
173
     0
291
     1
 45
0.0
1001
ACAD
1000
AcDbSavedByObjectVersion
1070
     0
  0
VISUALSTYLE
  5
C1D
102
{ACAD_REACTORS
330
C0E
102
}
330
C0E
100
AcDbVisualStyle
  2
Facepattern
 70
    15
 71
     2
 72
     2
 73
     0
 90
        0
 40
-0.6
 41
-30.0
 62
     5
 63
     7
421
 16777215
 74
     1
 91
        4
 64
     7
 65
   257
 75
     1
175
     1
 42
1.0
 92
        8
 66
     7
 43
1.0
 76
     1
 77
     6
 78
     2
 67
     7
 79
     5
170
     0
171
     0
290
     0
174
     0
 93
        1
 44
0.0
173
     0
291
     1
 45
0.0
1001
ACAD
1000
AcDbSavedByObjectVersion
1070
     0
  0
VISUALSTYLE
  5
C0F
102
{ACAD_REACTORS
330
C0E
102
}
330
C0E
100
AcDbVisualStyle
  2
Flat
 70
     0
 71
     2
 72
     1
 73
     1
 90
        2
 40
-0.6
 41
30.0
 62
     5
 63
     7
421
 16777215
 74
     0
 91
        4
 64
     7
 65
   257
 75
     1
175
     1
 42
1.0
 92
        8
 66
     7
 43
1.0
 76
     1
 77
     6
 78
     2
 67
     7
 79
     5
170
     0
171
     0
290
     0
174
     0
 93
       13
 44
0.0
173
     0
291
     1
 45
0.0
1001
ACAD
1000
AcDbSavedByObjectVersion
1070
     0
  0
VISUALSTYLE
  5
C10
102
{ACAD_REACTORS
330
C0E
102
}
330
C0E
100
AcDbVisualStyle
  2
FlatWithEdges
 70
     1
 71
     2
 72
     1
 73
     1
 90
        2
 40
-0.6
 41
30.0
 62
     5
 63
     7
421
 16777215
 74
     1
 91
        4
 64
     7
 65
   257
 75
     1
175
     1
 42
1.0
 92
        0
 66
   257
 43
1.0
 76
     1
 77
     6
 78
     2
 67
     7
 79
     5
170
     0
171
     0
290
     0
174
     0
 93
       13
 44
0.0
173
     0
291
     1
 45
0.0
1001
ACAD
1000
AcDbSavedByObjectVersion
1070
     0
  0
VISUALSTYLE
  5
C11
102
{ACAD_REACTORS
330
C0E
102
}
330
C0E
100
AcDbVisualStyle
  2
Gouraud
 70
     2
 71
     2
 72
     2
 73
     1
 90
        2
 40
-0.6
 41
30.0
 62
     5
 63
     7
421
 16777215
 74
     0
 91
        4
 64
     7
 65
   257
 75
     1
175
     1
 42
1.0
 92
        0
 66
     7
 43
1.0
 76
     1
 77
     6
 78
     2
 67
     7
 79
     5
170
     0
171
     0
290
     0
174
     0
 93
       13
 44
0.0
173
     0
291
     1
 45
0.0
1001
ACAD
1000
AcDbSavedByObjectVersion
1070
     0
  0
VISUALSTYLE
  5
C12
102
{ACAD_REACTORS
330
C0E
102
}
330
C0E
100
AcDbVisualStyle
  2
GouraudWithEdges
 70
     3
 71
     2
 72
     2
 73
     1
 90
        2
 40
-0.6
 41
30.0
 62
     5
 63
     7
421
 16777215
 74
     1
 91
        4
 64
     7
 65
   257
 75
     1
175
     1
 42
1.0
 92
        0
 66
   257
 43
1.0
 76
     1
 77
     6
 78
     2
 67
     7
 79
     5
170
     0
171
     0
290
     0
174
     0
 93
       13
 44
0.0
173
     0
291
     1
 45
0.0
1001
ACAD
1000
AcDbSavedByObjectVersion
1070
     0
  0
VISUALSTYLE
  5
C1C
102
{ACAD_REACTORS
330
C0E
102
}
330
C0E
100
AcDbVisualStyle
  2
Linepattern
 70
    14
 71
     2
 72
     2
 73
     0
 90
        0
 40
-0.6
 41
-30.0
 62
     5
 63
     7
421
 16777215
 74
     1
 91
        4
 64
     7
 65
   257
 75
     7
175
     7
 42
1.0
 92
        8
 66
     7
 43
1.0
 76
     1
 77
     6
 78
     2
 67
     7
 79
     5
170
     0
171
     0
290
     0
174
     0
 93
        1
 44
0.0
173
     0
291
     1
 45
0.0
1001
ACAD
1000
AcDbSavedByObjectVersion
1070
     0
  0
VISUALSTYLE
  5
C18
102
{ACAD_REACTORS
330
C0E
102
}
330
C0E
100
AcDbVisualStyle
  2
Realistic
 70
     8
 71
     2
 72
     2
 73
     0
 90
        0
 40
-0.6
 41
-30.0
 62
     5
 63
     7
421
 16777215
 74
     1
 91
        0
 64
     7
 65
   257
 75
     1
175
     1
 42
1.0
 92
        8
 66
     8
424
  7895160
 43
1.0
 76
     1
 77
     6
 78
     2
 67
     7
 79
     5
170
     0
171
     0
290
     0
174
     0
 93
       13
 44
0.0
173
     0
291
     0
 45
0.0
1001
ACAD
1000
AcDbSavedByObjectVersion
1070
     0
  0
VISUALSTYLE
  5
C1B
102
{ACAD_REACTORS
330
C0E
102
}
330
C0E
100
AcDbVisualStyle
  2
Thicken
 70
    13
 71
     2
 72
     2
 73
     0
 90
        0
 40
-0.6
 41
-30.0
 62
     5
 63
     7
421
 16777215
 74
     1
 91
        4
 64
     7
 65
   257
 75
     1
175
     1
 42
1.0
 92
       12
 66
     7
 43
1.0
 76
     1
 77
     6
 78
     2
 67
     7
 79
     5
170
     0
171
     0
290
     0
174
     0
 93
        1
 44
0.0
173
     0
291
     1
 45
0.0
1001
ACAD
1000
AcDbSavedByObjectVersion
1070
     0
  0
DICTIONARYVAR
  5
CAD
102
{ACAD_REACTORS
330
2D7
102
}
330
2D7
100
DictionaryVariables
280
     0
  1
1:1
  0
DICTIONARYVAR
  5
CAB
102
{ACAD_REACTORS
330
2D7
102
}
330
2D7
100
DictionaryVariables
280
     0
  1
STANDARD
  0
DICTIONARYVAR
  5
C09
102
{ACAD_REACTORS
330
2D7
102
}
330
2D7
100
DictionaryVariables
280
     0
  1
STANDARD
  0
DICTIONARYVAR
  5
396
102
{ACAD_REACTORS
330
2D7
102
}
330
2D7
100
DictionaryVariables
280
     0
  1
1
  0
DICTIONARYVAR
  5
2D8
102
{ACAD_REACTORS
330
2D7
102
}
330
2D7
100
DictionaryVariables
280
     0
  1
1
  0
DICTIONARYVAR
  5
CAE
102
{ACAD_REACTORS
330
2D7
102
}
330
2D7
100
DictionaryVariables
280
     0
  1
0
  0
DICTIONARYVAR
  5
CAC
102
{ACAD_REACTORS
330
2D7
102
}
330
2D7
100
DictionaryVariables
280
     0
  1
0
  0
DICTIONARY
  5
2B6
102
{ACAD_REACTORS
330
2B5
102
}
330
2B5
100
AcDbDictionary
281
     1
  0
XRECORD
  5
BF2
102
{ACAD_REACTORS
330
2B5
102
}
330
2B5
100
AcDbXrecord
280
     1
 90
-1023410169
  0
XRECORD
  5
DD2
102
{ACAD_REACTORS
330
DD1
102
}
330
DD1
100
AcDbXrecord
280
     1
330
0
  0
DICTIONARY
  5
10A7
330
C0C
100
AcDbDictionary
280
     1
281
     1
  3
ACAD_XREC_ROUNDTRIP
360
10A8
  0
DICTIONARY
  5
10A5
330
C0B
100
AcDbDictionary
280
     1
281
     1
  3
ACAD_XREC_ROUNDTRIP
360
10A6
  0
DICTIONARY
  5
10A9
330
C0D
100
AcDbDictionary
280
     1
281
     1
  3
ACAD_XREC_ROUNDTRIP
360
10AA
  0
DICTIONARY
  5
CA8
330
BE9
100
AcDbDictionary
280
     1
281
     1
  3
ACAD_ROUNDTRIP_2008_TABLESTYLE_CELLSTYLEMAP
360
10A3
  3
ACAD_XREC_ROUNDTRIP
360
10A4
  0
XRECORD
  5
10A8
102
{ACAD_REACTORS
330
10A7
102
}
330
10A7
100
AcDbXrecord
280
     1
102
MATERIAL
148
0.0
149
0.0
149
0.0
 93
        0
 94
       63
282
     0
 72
     1
 77
     1
171
     1
175
     1
179
     1
273
     0
  0
XRECORD
  5
10A6
102
{ACAD_REACTORS
330
10A5
102
}
330
10A5
100
AcDbXrecord
280
     1
102
MATERIAL
148
0.0
149
0.0
149
0.0
 93
        0
 94
       63
282
     0
 72
     1
 77
     1
171
     1
175
     1
179
     1
273
     0
  0
XRECORD
  5
10AA
102
{ACAD_REACTORS
330
10A9
102
}
330
10A9
100
AcDbXrecord
280
     1
102
MATERIAL
148
0.0
149
0.0
149
0.0
 93
        0
 94
       63
282
     0
 72
     1
 77
     1
171
     1
175
     1
179
     1
273
     0
  0
CELLSTYLEMAP
  5
10A3
102
{ACAD_REACTORS
330
CA8
102
}
330
CA8
100
AcDbCellStyleMap
 90
        3
300
CELLSTYLE
  1
TABLEFORMAT_BEGIN
 90
        5
170
     1
 91
        0
 92
    32768
 62
   257
 93
        1
300
CONTENTFORMAT
  1
CONTENTFORMAT_BEGIN
 90
        0
 91
        0
 92
        4
 93
        0
300

 40
0.0
140
1.0
 94
        5
 62
     0
340
D
144
0.25
309
CONTENTFORMAT_END
171
     0
 94
        6
 95
        1
302
GRIDFORMAT
  1
GRIDFORMAT_BEGIN
 90
        0
 91
        1
 62
     0
 92
       -2
340
0
 93
        0
 40
0.045
309
GRIDFORMAT_END
 95
        2
302
GRIDFORMAT
  1
GRIDFORMAT_BEGIN
 90
        0
 91
        1
 62
     0
 92
       -2
340
0
 93
        0
 40
0.045
309
GRIDFORMAT_END
 95
        4
302
GRIDFORMAT
  1
GRIDFORMAT_BEGIN
 90
        0
 91
        1
 62
     0
 92
       -2
340
0
 93
        0
 40
0.045
309
GRIDFORMAT_END
 95
        8
302
GRIDFORMAT
  1
GRIDFORMAT_BEGIN
 90
        0
 91
        1
 62
     0
 92
       -2
340
0
 93
        0
 40
0.045
309
GRIDFORMAT_END
 95
       16
302
GRIDFORMAT
  1
GRIDFORMAT_BEGIN
 90
        0
 91
        1
 62
     0
 92
       -2
340
0
 93
        0
 40
0.045
309
GRIDFORMAT_END
 95
       32
302
GRIDFORMAT
  1
GRIDFORMAT_BEGIN
 90
        0
 91
        1
 62
     0
 92
       -2
340
0
 93
        0
 40
0.045
309
GRIDFORMAT_END
309
TABLEFORMAT_END
  1
CELLSTYLE_BEGIN
 90
        1
 91
        1
300
_TITLE
309
CELLSTYLE_END
300
CELLSTYLE
  1
TABLEFORMAT_BEGIN
 90
        5
170
     1
 91
        0
 92
        0
 62
   257
 93
        1
300
CONTENTFORMAT
  1
CONTENTFORMAT_BEGIN
 90
        0
 91
        0
 92
        4
 93
        0
300

 40
0.0
140
1.0
 94
        5
 62
     0
340
D
144
0.18
309
CONTENTFORMAT_END
171
     0
 94
        6
 95
        1
302
GRIDFORMAT
  1
GRIDFORMAT_BEGIN
 90
        0
 91
        1
 62
     0
 92
       -2
340
0
 93
        0
 40
0.045
309
GRIDFORMAT_END
 95
        2
302
GRIDFORMAT
  1
GRIDFORMAT_BEGIN
 90
        0
 91
        1
 62
     0
 92
       -2
340
0
 93
        0
 40
0.045
309
GRIDFORMAT_END
 95
        4
302
GRIDFORMAT
  1
GRIDFORMAT_BEGIN
 90
        0
 91
        1
 62
     0
 92
       -2
340
0
 93
        0
 40
0.045
309
GRIDFORMAT_END
 95
        8
302
GRIDFORMAT
  1
GRIDFORMAT_BEGIN
 90
        0
 91
        1
 62
     0
 92
       -2
340
0
 93
        0
 40
0.045
309
GRIDFORMAT_END
 95
       16
302
GRIDFORMAT
  1
GRIDFORMAT_BEGIN
 90
        0
 91
        1
 62
     0
 92
       -2
340
0
 93
        0
 40
0.045
309
GRIDFORMAT_END
 95
       32
302
GRIDFORMAT
  1
GRIDFORMAT_BEGIN
 90
        0
 91
        1
 62
     0
 92
       -2
340
0
 93
        0
 40
0.045
309
GRIDFORMAT_END
309
TABLEFORMAT_END
  1
CELLSTYLE_BEGIN
 90
        2
 91
        1
300
_HEADER
309
CELLSTYLE_END
300
CELLSTYLE
  1
TABLEFORMAT_BEGIN
 90
        5
170
     1
 91
        0
 92
        0
 62
   257
 93
        1
300
CONTENTFORMAT
  1
CONTENTFORMAT_BEGIN
 90
        0
 91
        0
 92
        4
 93
        0
300

 40
0.0
140
1.0
 94
        2
 62
     0
340
D
144
0.18
309
CONTENTFORMAT_END
171
     0
 94
        6
 95
        1
302
GRIDFORMAT
  1
GRIDFORMAT_BEGIN
 90
        0
 91
        1
 62
     0
 92
       -2
340
0
 93
        0
 40
0.045
309
GRIDFORMAT_END
 95
        2
302
GRIDFORMAT
  1
GRIDFORMAT_BEGIN
 90
        0
 91
        1
 62
     0
 92
       -2
340
0
 93
        0
 40
0.045
309
GRIDFORMAT_END
 95
        4
302
GRIDFORMAT
  1
GRIDFORMAT_BEGIN
 90
        0
 91
        1
 62
     0
 92
       -2
340
0
 93
        0
 40
0.045
309
GRIDFORMAT_END
 95
        8
302
GRIDFORMAT
  1
GRIDFORMAT_BEGIN
 90
        0
 91
        1
 62
     0
 92
       -2
340
0
 93
        0
 40
0.045
309
GRIDFORMAT_END
 95
       16
302
GRIDFORMAT
  1
GRIDFORMAT_BEGIN
 90
        0
 91
        1
 62
     0
 92
       -2
340
0
 93
        0
 40
0.045
309
GRIDFORMAT_END
 95
       32
302
GRIDFORMAT
  1
GRIDFORMAT_BEGIN
 90
        0
 91
        1
 62
     0
 92
       -2
340
0
 93
        0
 40
0.045
309
GRIDFORMAT_END
309
TABLEFORMAT_END
  1
CELLSTYLE_BEGIN
 90
        3
 91
        2
300
_DATA
309
CELLSTYLE_END
  0
XRECORD
  5
10A4
102
{ACAD_REACTORS
330
CA8
102
}
330
CA8
100
AcDbXrecord
280
     1
102
ACAD_ROUNDTRIP_PRE2007_TABLESTYLE
 90
        4
 91
        0
  1

 92
        4
 93
        0
  2

 94
        4
 95
        0
  3

  0
ENDSEC
  0
EOF
