  0
SECTION
  2
HEADER
  9
$ACADVER
  1
AC1018
  9
$ACADMAINTVER
 70
   104
  9
$DWGCODEPAGE
  3
ANSI_1252
  9
$LASTSAVEDBY
  1
ibasyouni
  9
$INSBASE
 10
0.0
 20
0.0
 30
0.0
  9
$EXTMIN
 10
39.99786637723218
 20
67.97790680776575
 30
-0.0015258207003583
  9
$EXTMAX
 10
1068.310549399245
 20
529.7946943375221
 30
0.0000000349246037
  9
$LIMMIN
 10
0.0
 20
0.0
  9
$LIMMAX
 10
1100.0
 20
625.0
  9
$ORTHOMODE
 70
     1
  9
$REGENMODE
 70
     1
  9
$FILLMODE
 70
     1
  9
$QTEXTMODE
 70
     0
  9
$MIRRTEXT
 70
     1
  9
$LTSCALE
 40
1.0
  9
$ATTMODE
 70
     1
  9
$TEXTSIZE
 40
10.0
  9
$TRACEWID
 40
1.0
  9
$TEXTSTYLE
  7
STANDARD
  9
$CLAYER
  8
0
  9
$CELTYPE
  6
BYLAYER
  9
$CECOLOR
 62
   256
  9
$CELTSCALE
 40
10.0
  9
$DISPSILH
 70
     0
  9
$DIMSCALE
 40
1.0
  9
$DIMASZ
 40
7.0
  9
$DIMEXO
 40
0.0
  9
$DIMDLI
 40
7.0
  9
$DIMRND
 40
0.0
  9
$DIMDLE
 40
0.0
  9
$DIMEXE
 40
1.25
  9
$DIMTP
 40
0.0
  9
$DIMTM
 40
0.0
  9
$DIMTXT
 40
10.0
  9
$DIMCEN
 40
0.0
  9
$DIMTSZ
 40
0.0
  9
$DIMTOL
 70
     0
  9
$DIMLIM
 70
     0
  9
$DIMTIH
 70
     0
  9
$DIMTOH
 70
     0
  9
$DIMSE1
 70
     0
  9
$DIMSE2
 70
     0
  9
$DIMTAD
 70
     1
  9
$DIMZIN
 70
     8
  9
$DIMBLK
  1

  9
$DIMASO
 70
     1
  9
$DIMSHO
 70
     1
  9
$DIMPOST
  1

  9
$DIMAPOST
  1

  9
$DIMALT
 70
     0
  9
$DIMALTD
 70
     2
  9
$DIMALTF
 40
25.4
  9
$DIMLFAC
 40
1.0
  9
$DIMTOFL
 70
     1
  9
$DIMTVP
 40
0.0
  9
$DIMTIX
 70
     0
  9
$DIMSOXD
 70
     0
  9
$DIMSAH
 70
     0
  9
$DIMBLK1
  1

  9
$DIMBLK2
  1

  9
$DIMSTYLE
  2
ISO-25
  9
$DIMCLRD
 70
   256
  9
$DIMCLRE
 70
   256
  9
$DIMCLRT
 70
   256
  9
$DIMTFAC
 40
1.0
  9
$DIMGAP
 40
4.0
  9
$DIMJUST
 70
     0
  9
$DIMSD1
 70
     0
  9
$DIMSD2
 70
     0
  9
$DIMTOLJ
 70
     1
  9
$DIMTZIN
 70
     8
  9
$DIMALTZ
 70
     0
  9
$DIMALTTZ
 70
     0
  9
$DIMUPT
 70
     1
  9
$DIMDEC
 70
     4
  9
$DIMTDEC
 70
     4
  9
$DIMALTU
 70
     2
  9
$DIMALTTD
 70
     2
  9
$DIMTXSTY
  7
STANDARD
  9
$DIMAUNIT
 70
     0
  9
$DIMADEC
 70
     0
  9
$DIMALTRND
 40
0.0
  9
$DIMAZIN
 70
     0
  9
$DIMDSEP
 70
    46
  9
$DIMATFIT
 70
     0
  9
$DIMFRAC
 70
     0
  9
$DIMLDRBLK
  1

  9
$DIMLUNIT
 70
     2
  9
$DIMLWD
 70
    -2
  9
$DIMLWE
 70
    -2
  9
$DIMTMOVE
 70
     0
  9
$LUNITS
 70
     2
  9
$LUPREC
 70
     4
  9
$SKETCHINC
 40
1.0
  9
$FILLETRAD
 40
2.5
  9
$AUNITS
 70
     0
  9
$AUPREC
 70
     0
  9
$MENU
  1
.
  9
$ELEVATION
 40
0.0
  9
$PELEVATION
 40
0.0
  9
$THICKNESS
 40
0.0
  9
$LIMCHECK
 70
     0
  9
$CHAMFERA
 40
2.0
  9
$CHAMFERB
 40
2.0
  9
$CHAMFERC
 40
0.0
  9
$CHAMFERD
 40
0.0
  9
$SKPOLY
 70
     0
  9
$TDCREATE
 40
2450848.753473218
  9
$TDUCREATE
 40
2450848.670139884
  9
$TDUPDATE
 40
2455818.475787604
  9
$TDUUPDATE
 40
2455818.392454271
  9
$TDINDWG
 40
1.8639316319
  9
$TDUSRTIMER
 40
1.8639316319
  9
$USRTIMER
 70
     1
  9
$ANGBASE
 50
0.0
  9
$ANGDIR
 70
     0
  9
$PDMODE
 70
     0
  9
$PDSIZE
 40
0.0
  9
$PLINEWID
 40
0.5
  9
$SPLFRAME
 70
     0
  9
$SPLINETYPE
 70
     6
  9
$SPLINESEGS
 70
     8
  9
$HANDSEED
  5
6A6
  9
$SURFTAB1
 70
     6
  9
$SURFTAB2
 70
     6
  9
$SURFTYPE
 70
     6
  9
$SURFU
 70
     6
  9
$SURFV
 70
     6
  9
$UCSBASE
  2

  9
$UCSNAME
  2

  9
$UCSORG
 10
0.0
 20
0.0
 30
0.0
  9
$UCSXDIR
 10
1.0
 20
0.0
 30
0.0
  9
$UCSYDIR
 10
0.0
 20
1.0
 30
0.0
  9
$UCSORTHOREF
  2

  9
$UCSORTHOVIEW
 70
     0
  9
$UCSORGTOP
 10
0.0
 20
0.0
 30
0.0
  9
$UCSORGBOTTOM
 10
0.0
 20
0.0
 30
0.0
  9
$UCSORGLEFT
 10
0.0
 20
0.0
 30
0.0
  9
$UCSORGRIGHT
 10
0.0
 20
0.0
 30
0.0
  9
$UCSORGFRONT
 10
0.0
 20
0.0
 30
0.0
  9
$UCSORGBACK
 10
0.0
 20
0.0
 30
0.0
  9
$PUCSBASE
  2

  9
$PUCSNAME
  2

  9
$PUCSORG
 10
0.0
 20
0.0
 30
0.0
  9
$PUCSXDIR
 10
1.0
 20
0.0
 30
0.0
  9
$PUCSYDIR
 10
0.0
 20
1.0
 30
0.0
  9
$PUCSORTHOREF
  2

  9
$PUCSORTHOVIEW
 70
     0
  9
$PUCSORGTOP
 10
0.0
 20
0.0
 30
0.0
  9
$PUCSORGBOTTOM
 10
0.0
 20
0.0
 30
0.0
  9
$PUCSORGLEFT
 10
0.0
 20
0.0
 30
0.0
  9
$PUCSORGRIGHT
 10
0.0
 20
0.0
 30
0.0
  9
$PUCSORGFRONT
 10
0.0
 20
0.0
 30
0.0
  9
$PUCSORGBACK
 10
0.0
 20
0.0
 30
0.0
  9
$USERI1
 70
     0
  9
$USERI2
 70
     0
  9
$USERI3
 70
     0
  9
$USERI4
 70
     0
  9
$USERI5
 70
     0
  9
$USERR1
 40
0.0
  9
$USERR2
 40
0.0
  9
$USERR3
 40
0.0
  9
$USERR4
 40
0.0
  9
$USERR5
 40
0.0
  9
$WORLDVIEW
 70
     1
  9
$SHADEDGE
 70
     3
  9
$SHADEDIF
 70
    70
  9
$TILEMODE
 70
     1
  9
$MAXACTVP
 70
    16
  9
$PINSBASE
 10
0.0
 20
0.0
 30
0.0
  9
$PLIMCHECK
 70
     0
  9
$PEXTMIN
 10
1.000000000000000E+20
 20
1.000000000000000E+20
 30
1.000000000000000E+20
  9
$PEXTMAX
 10
-1.000000000000000E+20
 20
-1.000000000000000E+20
 30
-1.000000000000000E+20
  9
$PLIMMIN
 10
0.0
 20
0.0
  9
$PLIMMAX
 10
420.0
 20
297.0
  9
$UNITMODE
 70
     0
  9
$VISRETAIN
 70
     0
  9
$PLINEGEN
 70
     0
  9
$PSLTSCALE
 70
     0
  9
$TREEDEPTH
 70
  3020
  9
$CMLSTYLE
  2
STANDARD
  9
$CMLJUST
 70
     0
  9
$CMLSCALE
 40
1.0
  9
$PROXYGRAPHICS
 70
     1
  9
$MEASUREMENT
 70
     0
  9
$CELWEIGHT
370
    -1
  9
$ENDCAPS
280
     0
  9
$JOINSTYLE
280
     0
  9
$LWDISPLAY
290
     0
  9
$INSUNITS
 70
     0
  9
$HYPERLINKBASE
  1

  9
$STYLESHEET
  1
Zeich.ctb
  9
$XEDIT
290
     1
  9
$CEPSNTYPE
380
     0
  9
$PSTYLEMODE
290
     1
  9
$FINGERPRINTGUID
  2
{FC6D46A4-3738-41EF-A19C-B06D609E32E5}
  9
$VERSIONGUID
  2
{59068C2D-2245-4FCE-AED1-EDBDACCC0AE0}
  9
$EXTNAMES
290
     1
  9
$PSVPSCALE
 40
0.0
  9
$OLESTARTUP
290
     0
  9
$SORTENTS
280
   127
  9
$INDEXCTL
280
     0
  9
$HIDETEXT
280
     0
  9
$XCLIPFRAME
290
     0
  9
$HALOGAP
280
     0
  9
$OBSCOLOR
 70
   257
  9
$OBSLTYPE
280
     0
  9
$INTERSECTIONDISPLAY
280
     0
  9
$INTERSECTIONCOLOR
 70
   257
  9
$DIMASSOC
280
     1
  9
$PROJECTNAME
  1

  0
ENDSEC
  0
SECTION
  2
CLASSES
  0
CLASS
  1
IDBUFFER
  2
AcDbIdBuffer
  3
ObjectDBX Classes
 90
        0
 91
        0
280
     0
281
     0
  0
CLASS
  1
DICTIONARYVAR
  2
AcDbDictionaryVar
  3
ObjectDBX Classes
 90
        0
 91
        6
280
     0
281
     0
  0
CLASS
  1
ACMESTATEMGR
  2
AcMeStateMgr
  3
AcMeServices
 90
     1024
 91
        1
280
     0
281
     0
  0
CLASS
  1
ACMESCOPE
  2
AcMeScope
  3
AcMeServices
 90
     1024
 91
        1
280
     0
281
     0
  0
CLASS
  1
ACMECOMMANDHISTORY
  2
AcMeCommandHistory
  3
AcMeServices
 90
     1024
 91
        1
280
     0
281
     0
  0
CLASS
  1
ACRFINSADJUSTERMGR
  2
AcRfInsAdjusterMgr
  3
AcMeServices
 90
     1024
 91
        1
280
     0
281
     0
  0
CLASS
  1
ACMEDRAWINGMAN
  2
AcMeDrawingMan
  3
AcMeServices
 90
     1024
 91
        1
280
     0
281
     0
  0
CLASS
  1
AMATTR
  2
AcMeAttribute
  3
AcMeServices
 90
     1024
 91
        0
280
     0
281
     0
  0
CLASS
  1
ACMEBOMCOLUMN
  2
AcMeBOMColumn
  3
AcMeServices
 90
     1024
 91
        0
280
     0
281
     0
  0
CLASS
  1
ACMEBOMCONF
  2
AcMeBOMConf
  3
AcMeServices
 90
     1024
 91
        0
280
     0
281
     0
  0
CLASS
  1
ACMEBOMTABLE
  2
AcMeBOMTable
  3
AcMeServices
 90
     1024
 91
        0
280
     0
281
     0
  0
CLASS
  1
ACMEBOMENTRY
  2
AcMeBOMEntry
  3
AcMeServices
 90
     1024
 91
        0
280
     0
281
     0
  0
CLASS
  1
ACMEVIEW
  2
AcMeView
  3
AcMeServices
 90
     1024
 91
        0
280
     0
281
     0
  0
CLASS
  1
LAYER_INDEX
  2
AcDbLayerIndex
  3
ObjectDBX Classes
 90
        0
 91
        0
280
     0
281
     0
  0
CLASS
  1
ACIMSYSVARMAN
  2
AcImSysVarManager
  3
AcMeServices
 90
     1024
 91
        5
280
     0
281
     0
  0
CLASS
  1
ACIMINTSYSVAR
  2
AcImIntSysVar
  3
AcMeServices
 90
     1024
 91
       27
280
     0
281
     0
  0
CLASS
  1
ACIMSTRSYSVAR
  2
AcImStrSysVar
  3
AcMeServices
 90
     1024
 91
        5
280
     0
281
     0
  0
CLASS
  1
ACMSTANDARDJIS
  2
AcmStandardJIS
  3
"Amdt_StdImp|Product Description: AutoCAD Mechanical|Company: Autodesk, Inc."
 90
     1024
 91
        1
280
     0
281
     0
  0
CLASS
  1
ACMSTANDARDANSI
  2
AcmStandardANSI
  3
"Amdt_StdImp|Product Description: AutoCAD Mechanical|Company: Autodesk, Inc."
 90
     1024
 91
        1
280
     0
281
     0
  0
CLASS
  1
ACMSTANDARDBSI
  2
AcmStandardBSI
  3
"Amdt_StdImp|Product Description: AutoCAD Mechanical|Company: Autodesk, Inc."
 90
     1024
 91
        1
280
     0
281
     0
  0
CLASS
  1
ACMSTANDARDDIN
  2
AcmStandardDIN
  3
"Amdt_StdImp|Product Description: AutoCAD Mechanical|Company: Autodesk, Inc."
 90
     1024
 91
        1
280
     0
281
     0
  0
CLASS
  1
ACMSTANDARDISO
  2
AcmStandardISO
  3
"Amdt_StdImp|Product Description: AutoCAD Mechanical|Company: Autodesk, Inc."
 90
     1024
 91
        1
280
     0
281
     0
  0
CLASS
  1
ACDBDICTIONARYWDFLT
  2
AcDbDictionaryWithDefault
  3
ObjectDBX Classes
 90
        0
 91
        1
280
     0
281
     0
  0
CLASS
  1
TABLESTYLE
  2
AcDbTableStyle
  3
ObjectDBX Classes
 90
     4095
 91
        1
280
     0
281
     0
  0
CLASS
  1
ACME_DOCUMENT
  2
AcMeDbDoc
  3
AcMeServices
 90
     1024
 91
        2
280
     0
281
     0
  0
CLASS
  1
AMGSETTINGSOBJ
  2
AmgSettingsObj
  3
"AcadM|Product Description: AutoCAD Mechanical|Company: Autodesk, Inc."
 90
     1024
 91
        2
280
     0
281
     0
  0
CLASS
  1
ACDBENTITYCACHE
  2
AcMeEntityCache
  3
AcMeServices
 90
     1024
 91
        1
280
     0
281
     0
  0
CLASS
  1
GSMANAGER
  2
AcMeGSManager
  3
AcMeServices
 90
     1024
 91
        1
280
     0
281
     0
  0
CLASS
  1
AMDTINTERNALREACTOR
  2
AmdtInternalReactor
  3
AcMeServices
 90
     1024
 91
        2
280
     0
281
     0
  0
CLASS
  1
ACGREFMASTER
  2
AcGrefMaster
  3
AcAttribServices
 90
     1024
 91
        1
280
     0
281
     0
  0
CLASS
  1
AM_DRAWING_MGR
  2
AcDmDwgMgr
  3
AcMechDwgViewMgmt
 90
     1024
 91
        1
280
     0
281
     0
  0
CLASS
  1
AM_DWG_DOCUMENT
  2
AcDmDwgDocument
  3
AcMechDwgViewMgmt
 90
     1024
 91
        1
280
     0
281
     0
  0
CLASS
  1
AM_DWG_SHEET
  2
AcDmSheet
  3
AcMechDwgViewMgmt
 90
     1024
 91
        1
280
     0
281
     0
  0
CLASS
  1
AM_VIEWDIMPARMAP
  2
AcDmViewDimParMap
  3
AcMechDwgViewMgmt
 90
     1024
 91
        1
280
     0
281
     0
  0
CLASS
  1
ACIMREALSYSVAR
  2
AcImRealSysVar
  3
AcMeServices
 90
     1024
 91
        1
280
     0
281
     0
  0
CLASS
  1
AM_DWGMGR_NAME
  2
AcDmDwgMgrName
  3
AcMechDwgViewMgmt
 90
     1024
 91
        1
280
     0
281
     0
  0
CLASS
  1
ACME_DATABASE
  2
AcMeDbDatabase
  3
AcMeServices
 90
     1024
 91
        3
280
     0
281
     0
  0
CLASS
  1
ACGREFACADMASTER
  2
AcGrefacadMaster
  3
AcGrefServices
 90
     1024
 91
        1
280
     0
281
     0
  0
CLASS
  1
AMDTMENUSTATEMGR
  2
AmdtMenuStateMgr
  3
McadcomServices
 90
     1024
 91
        1
280
     0
281
     0
  0
CLASS
  1
AMDTMCOMMENUSTATE
  2
AmdtMcomMenuState
  3
McadcomServices
 90
     1024
 91
        1
280
     0
281
     0
  0
CLASS
  1
AMIMASTER
  2
AmiMaster
  3
AmiServices
 90
     1024
 91
        1
280
     0
281
     0
  0
CLASS
  1
MAPIAMMOUDLE
  2
MApiAmModule
  3
MApiAmServices
 90
     1024
 91
        1
280
     0
281
     0
  0
CLASS
  1
AMDTADMENUSTATE
  2
AmdtAdMenuState
  3
DesignerServices
 90
     1024
 91
        1
280
     0
281
     0
  0
CLASS
  1
ADAPPL
  2
AcAdAppl
  3
DesignerServices
 90
     1024
 91
        1
280
     0
281
     0
  0
CLASS
  1
DEPMGR
  2
AcAdDepMgr
  3
DesignerServices
 90
     1024
 91
        1
280
     0
281
     0
  0
CLASS
  1
PARAMMGR
  2
AcAdParamMgr
  3
DesignerServices
 90
     1024
 91
        1
280
     0
281
     0
  0
CLASS
  1
PARAMSCOPE
  2
AcAdParamScope
  3
DesignerServices
 90
     1024
 91
        1
280
     0
281
     0
  0
CLASS
  1
NAMEDAPPL
  2
AcAdNamedAppl
  3
DesignerServices
 90
     1024
 91
        1
280
     0
281
     0
  0
CLASS
  1
AMDTDMMENUSTATE
  2
AmdtDmMenuState
  3
AcMechDwgViewMgmt
 90
     1024
 91
        1
280
     0
281
     0
  0
CLASS
  1
AMDTAMMENUSTATE
  2
AmdtAmMenuState
  3
DesignerAssemblies
 90
     1024
 91
        1
280
     0
281
     0
  0
CLASS
  1
ACAMPROJECT
  2
AcAmProject
  3
DesignerAssemblies
 90
     1024
 91
        1
280
     0
281
     0
  0
CLASS
  1
ACAMGRCOMPDEF
  2
AcAmGrCompDef
  3
DesignerAssemblies
 90
     1024
 91
        1
280
     0
281
     0
  0
CLASS
  1
ACCMCONTEXT
  2
AcCmContext
  3
DesignerAssemblies
 90
     1024
 91
        1
280
     0
281
     0
  0
CLASS
  1
ACAMCOMPDEF
  2
AcAmCompDef
  3
DesignerAssemblies
 90
     1024
 91
        1
280
     0
281
     0
  0
CLASS
  1
ACAMCOMPDEFMGR
  2
AcAmCompDefMgr
  3
DesignerAssemblies
 90
     1024
 91
        1
280
     0
281
     0
  0
CLASS
  1
AMCONTEXTMGR
  2
AcAmContextMgr
  3
DesignerAssemblies
 90
     1024
 91
        1
280
     0
281
     0
  0
CLASS
  1
ACAMCONTEXTMODELER
  2
AcAmContextModeler
  3
DesignerAssemblies
 90
     1024
 91
        1
280
     0
281
     0
  0
CLASS
  1
ACMDATADICTIONARY
  2
AcmDataDictionary
  3
"AcmSymBB|Product Description: AutoCAD Mechanical|Company: Autodesk, Inc."
 90
     1024
 91
        1
280
     0
281
     0
  0
CLASS
  1
ACMSURFSTANDARDJIS
  2
AcmSurfTextStdJIS
  3
"Amdt_StdImp|Product Description: AutoCAD Mechanical|Company: Autodesk, Inc."
 90
     1024
 91
        1
280
     0
281
     0
  0
CLASS
  1
ACMFCFSTANDARDJIS98
  2
AcmFCFStdJIS98
  3
"Amdt_StdImp|Product Description: AutoCAD Mechanical|Company: Autodesk, Inc."
 90
     1024
 91
        1
280
     0
281
     0
  0
CLASS
  1
ACMWELDSTANDARDJIS
  2
AcmWeldingStdJIS
  3
"Amdt_StdImp|Product Description: AutoCAD Mechanical|Company: Autodesk, Inc."
 90
     1024
 91
        1
280
     0
281
     0
  0
CLASS
  1
ACMIDSTANDARDJIS
  2
AcmIdStdJIS
  3
"Amdt_StdImp|Product Description: AutoCAD Mechanical|Company: Autodesk, Inc."
 90
     1024
 91
        1
280
     0
281
     0
  0
CLASS
  1
ACMDATUMSTANDARDJIS
  2
AcmDatumStdJIS
  3
"Amdt_StdImp|Product Description: AutoCAD Mechanical|Company: Autodesk, Inc."
 90
     1024
 91
        1
280
     0
281
     0
  0
CLASS
  1
ACMBOMSTANDARDJIS
  2
AcmBOMStdJIS
  3
"Amdt_StdImp|Product Description: AutoCAD Mechanical|Company: Autodesk, Inc."
 90
     1024
 91
        1
280
     0
281
     0
  0
CLASS
  1
AMGOBJPROPCFG
  2
AmgObjPropCfg
  3
"AmgLay|Product Description: AutoCAD Mechanical|Company: Autodesk, Inc."
 90
     1025
 91
        1
280
     0
281
     0
  0
CLASS
  1
ACMDETAILSTANDARDJIS
  2
AmdtDetailSymStdJIS
  3
"Amdt_StdImp|Product Description: AutoCAD Mechanical|Company: Autodesk, Inc."
 90
     1024
 91
        1
280
     0
281
     0
  0
CLASS
  1
ACMSECTIONSTANDARDJIS
  2
AmdtSectionSymStdJIS
  3
"Amdt_StdImp|Product Description: AutoCAD Mechanical|Company: Autodesk, Inc."
 90
     1024
 91
        1
280
     0
281
     0
  0
CLASS
  1
ACMCENTERLINESTANDARDJIS
  2
AmdtCenterLineStdJIS
  3
"Amdt_StdImp|Product Description: AutoCAD Mechanical|Company: Autodesk, Inc."
 90
     1024
 91
        1
280
     0
281
     0
  0
CLASS
  1
ACMTHREADLINESTANDARDJIS
  2
AmdtThreadLineStdJIS
  3
"Amdt_StdImp|Product Description: AutoCAD Mechanical|Company: Autodesk, Inc."
 90
     1024
 91
        1
280
     0
281
     0
  0
CLASS
  1
ACMNOTESTANDARDJIS
  2
AmdtNoteStdJIS
  3
"Amdt_StdImp|Product Description: AutoCAD Mechanical|Company: Autodesk, Inc."
 90
     1024
 91
        1
280
     0
281
     0
  0
CLASS
  1
AMDTNOTETEMPLATEDB
  2
AmdtNoteTemplateDB
  3
AcmSymBB|Product Description: AutoCAD Mechanical|Company: Autodesk, Inc.
 90
     1024
 91
       25
280
     0
281
     0
  0
CLASS
  1
ACAMGTITLESTD
  2
AcAmgTitleStd
  3
"AmgTitle|Product Description: AutoCAD Mechanical|Company: Autodesk, Inc."
 90
     4095
 91
        5
280
     0
281
     0
  0
CLASS
  1
ACMSURFSTANDARDANSI
  2
AcmSurfTextStdANSI
  3
"Amdt_StdImp|Product Description: AutoCAD Mechanical|Company: Autodesk, Inc."
 90
     1024
 91
        1
280
     0
281
     0
  0
CLASS
  1
ACMFCFSTANDARDANSI
  2
AcmFCFStdANSI
  3
"Amdt_StdImp|Product Description: AutoCAD Mechanical|Company: Autodesk, Inc."
 90
     1024
 91
        1
280
     0
281
     0
  0
CLASS
  1
ACMWELDSTANDARDANSI
  2
AcmWeldingStdANSI
  3
"Amdt_StdImp|Product Description: AutoCAD Mechanical|Company: Autodesk, Inc."
 90
     1024
 91
        1
280
     0
281
     0
  0
CLASS
  1
ACMIDSTANDARDANSI
  2
AcmIdStdANSI
  3
"Amdt_StdImp|Product Description: AutoCAD Mechanical|Company: Autodesk, Inc."
 90
     1024
 91
        1
280
     0
281
     0
  0
CLASS
  1
ACMDATUMSTANDARDANSI
  2
AcmDatumStdANSI
  3
"Amdt_StdImp|Product Description: AutoCAD Mechanical|Company: Autodesk, Inc."
 90
     1024
 91
        1
280
     0
281
     0
  0
CLASS
  1
ACMBOMSTANDARDANSI
  2
AcmBOMStdANSI
  3
"Amdt_StdImp|Product Description: AutoCAD Mechanical|Company: Autodesk, Inc."
 90
     1024
 91
        1
280
     0
281
     0
  0
CLASS
  1
ACMDETAILSTANDARDANSI
  2
AmdtDetailSymStdANSI
  3
"Amdt_StdImp|Product Description: AutoCAD Mechanical|Company: Autodesk, Inc."
 90
     1024
 91
        1
280
     0
281
     0
  0
CLASS
  1
ACMSECTIONSTANDARDANSI
  2
AmdtSectionSymStdANSI
  3
"Amdt_StdImp|Product Description: AutoCAD Mechanical|Company: Autodesk, Inc."
 90
     1024
 91
        1
280
     0
281
     0
  0
CLASS
  1
ACMCENTERLINESTANDARDANSI
  2
AmdtCenterLineStdANSI
  3
"Amdt_StdImp|Product Description: AutoCAD Mechanical|Company: Autodesk, Inc."
 90
     1024
 91
        1
280
     0
281
     0
  0
CLASS
  1
ACMTHREADLINESTANDARDANSI
  2
AmdtThreadLineStdANSI
  3
"Amdt_StdImp|Product Description: AutoCAD Mechanical|Company: Autodesk, Inc."
 90
     1024
 91
        1
280
     0
281
     0
  0
CLASS
  1
ACMNOTESTANDARDANSI
  2
AmdtNoteStdANSI
  3
"Amdt_StdImp|Product Description: AutoCAD Mechanical|Company: Autodesk, Inc."
 90
     1024
 91
        1
280
     0
281
     0
  0
CLASS
  1
ACMSURFSTANDARDBSI
  2
AcmSurfTextStdBSI
  3
"Amdt_StdImp|Product Description: AutoCAD Mechanical|Company: Autodesk, Inc."
 90
     1024
 91
        1
280
     0
281
     0
  0
CLASS
  1
ACMFCFSTANDARDBSI
  2
AcmFCFStdBSI
  3
"Amdt_StdImp|Product Description: AutoCAD Mechanical|Company: Autodesk, Inc."
 90
     1024
 91
        1
280
     0
281
     0
  0
CLASS
  1
ACMWELDSTANDARDBSI
  2
AcmWeldingStdBSI
  3
"Amdt_StdImp|Product Description: AutoCAD Mechanical|Company: Autodesk, Inc."
 90
     1024
 91
        1
280
     0
281
     0
  0
CLASS
  1
ACMIDSTANDARDBSI
  2
AcmIdStdBSI
  3
"Amdt_StdImp|Product Description: AutoCAD Mechanical|Company: Autodesk, Inc."
 90
     1024
 91
        1
280
     0
281
     0
  0
CLASS
  1
ACMDATUMSTANDARDBSI
  2
AcmDatumStdBSI
  3
"Amdt_StdImp|Product Description: AutoCAD Mechanical|Company: Autodesk, Inc."
 90
     1024
 91
        1
280
     0
281
     0
  0
CLASS
  1
ACMBOMSTANDARDBSI
  2
AcmBOMStdBSI
  3
"Amdt_StdImp|Product Description: AutoCAD Mechanical|Company: Autodesk, Inc."
 90
     1024
 91
        1
280
     0
281
     0
  0
CLASS
  1
ACMDETAILSTANDARDBSI
  2
AmdtDetailSymStdBSI
  3
"Amdt_StdImp|Product Description: AutoCAD Mechanical|Company: Autodesk, Inc."
 90
     1024
 91
        1
280
     0
281
     0
  0
CLASS
  1
ACMSECTIONSTANDARDBSI
  2
AmdtSectionSymStdBSI
  3
"Amdt_StdImp|Product Description: AutoCAD Mechanical|Company: Autodesk, Inc."
 90
     1024
 91
        1
280
     0
281
     0
  0
CLASS
  1
ACMCENTERLINESTANDARDBSI
  2
AmdtCenterLineStdBSI
  3
"Amdt_StdImp|Product Description: AutoCAD Mechanical|Company: Autodesk, Inc."
 90
     1024
 91
        1
280
     0
281
     0
  0
CLASS
  1
ACMTHREADLINESTANDARDBSI
  2
AmdtThreadLineStdBSI
  3
"Amdt_StdImp|Product Description: AutoCAD Mechanical|Company: Autodesk, Inc."
 90
     1024
 91
        1
280
     0
281
     0
  0
CLASS
  1
ACMNOTESTANDARDBSI
  2
AmdtNoteStdBSI
  3
"Amdt_StdImp|Product Description: AutoCAD Mechanical|Company: Autodesk, Inc."
 90
     1024
 91
        1
280
     0
281
     0
  0
CLASS
  1
AMDTEDGESTANDARDDIN13715
  2
AmdtEdgeStdDIN13715
  3
"Amdt_StdImp|Product Description: AutoCAD Mechanical|Company: Autodesk, Inc."
 90
     1024
 91
        1
280
     0
281
     0
  0
CLASS
  1
ACMSURFSTANDARDDIN
  2
AcmSurfTextStdDIN
  3
"Amdt_StdImp|Product Description: AutoCAD Mechanical|Company: Autodesk, Inc."
 90
     1024
 91
        1
280
     0
281
     0
  0
CLASS
  1
ACMFCFSTANDARDDIN
  2
AcmFCFStdDIN
  3
"Amdt_StdImp|Product Description: AutoCAD Mechanical|Company: Autodesk, Inc."
 90
     1024
 91
        1
280
     0
281
     0
  0
CLASS
  1
ACMWELDSTANDARDDIN
  2
AcmWeldingStdDIN
  3
"Amdt_StdImp|Product Description: AutoCAD Mechanical|Company: Autodesk, Inc."
 90
     1024
 91
        1
280
     0
281
     0
  0
CLASS
  1
ACMIDSTANDARDDIN
  2
AcmIdStdDIN
  3
"Amdt_StdImp|Product Description: AutoCAD Mechanical|Company: Autodesk, Inc."
 90
     1024
 91
        1
280
     0
281
     0
  0
CLASS
  1
ACMDATUMSTANDARDDIN
  2
AcmDatumStdDIN
  3
"Amdt_StdImp|Product Description: AutoCAD Mechanical|Company: Autodesk, Inc."
 90
     1024
 91
        1
280
     0
281
     0
  0
CLASS
  1
ACMBOMSTANDARDDIN
  2
AcmBOMStdDIN
  3
"Amdt_StdImp|Product Description: AutoCAD Mechanical|Company: Autodesk, Inc."
 90
     1024
 91
        1
280
     0
281
     0
  0
CLASS
  1
ACMDETAILSTANDARDDIN
  2
AmdtDetailSymStdDIN
  3
"Amdt_StdImp|Product Description: AutoCAD Mechanical|Company: Autodesk, Inc."
 90
     1024
 91
        1
280
     0
281
     0
  0
CLASS
  1
ACMSECTIONSTANDARDDIN
  2
AmdtSectionSymStdDIN
  3
"Amdt_StdImp|Product Description: AutoCAD Mechanical|Company: Autodesk, Inc."
 90
     1024
 91
        1
280
     0
281
     0
  0
CLASS
  1
ACMCENTERLINESTANDARDDIN
  2
AmdtCenterLineStdDIN
  3
"Amdt_StdImp|Product Description: AutoCAD Mechanical|Company: Autodesk, Inc."
 90
     1024
 91
        1
280
     0
281
     0
  0
CLASS
  1
ACMTHREADLINESTANDARDDIN
  2
AmdtThreadLineStdDIN
  3
"Amdt_StdImp|Product Description: AutoCAD Mechanical|Company: Autodesk, Inc."
 90
     1024
 91
        1
280
     0
281
     0
  0
CLASS
  1
ACMNOTESTANDARDDIN
  2
AmdtNoteStdDIN
  3
"Amdt_StdImp|Product Description: AutoCAD Mechanical|Company: Autodesk, Inc."
 90
     1024
 91
        1
280
     0
281
     0
  0
CLASS
  1
AMDTEDGESTANDARDISO13715
  2
AmdtEdgeStdISO13715
  3
"Amdt_StdImp|Product Description: AutoCAD Mechanical|Company: Autodesk, Inc."
 90
     1024
 91
        1
280
     0
281
     0
  0
CLASS
  1
ACMSURFSTANDARDISO
  2
AcmSurfTextStdISO
  3
"Amdt_StdImp|Product Description: AutoCAD Mechanical|Company: Autodesk, Inc."
 90
     1024
 91
        1
280
     0
281
     0
  0
CLASS
  1
ACMFCFSTANDARDISO
  2
AcmFCFStdISO
  3
"Amdt_StdImp|Product Description: AutoCAD Mechanical|Company: Autodesk, Inc."
 90
     1024
 91
        1
280
     0
281
     0
  0
CLASS
  1
ACMWELDSTANDARDISO
  2
AcmWeldingStdISO
  3
"Amdt_StdImp|Product Description: AutoCAD Mechanical|Company: Autodesk, Inc."
 90
     1024
 91
        1
280
     0
281
     0
  0
CLASS
  1
ACMIDSTANDARDISO
  2
AcmIdStdISO
  3
"Amdt_StdImp|Product Description: AutoCAD Mechanical|Company: Autodesk, Inc."
 90
     1024
 91
        1
280
     0
281
     0
  0
CLASS
  1
ACMDATUMSTANDARDISO
  2
AcmDatumStdISO
  3
"Amdt_StdImp|Product Description: AutoCAD Mechanical|Company: Autodesk, Inc."
 90
     1024
 91
        1
280
     0
281
     0
  0
CLASS
  1
ACMBOMSTANDARDISO
  2
AcmBOMStdISO
  3
"Amdt_StdImp|Product Description: AutoCAD Mechanical|Company: Autodesk, Inc."
 90
     1024
 91
        1
280
     0
281
     0
  0
CLASS
  1
ACMDETAILSTANDARDISO
  2
AmdtDetailSymStdISO
  3
"Amdt_StdImp|Product Description: AutoCAD Mechanical|Company: Autodesk, Inc."
 90
     1024
 91
        1
280
     0
281
     0
  0
CLASS
  1
ACMSECTIONSTANDARDISO
  2
AmdtSectionSymStdISO
  3
"Amdt_StdImp|Product Description: AutoCAD Mechanical|Company: Autodesk, Inc."
 90
     1024
 91
        1
280
     0
281
     0
  0
CLASS
  1
ACMCENTERLINESTANDARDISO
  2
AmdtCenterLineStdISO
  3
"Amdt_StdImp|Product Description: AutoCAD Mechanical|Company: Autodesk, Inc."
 90
     1024
 91
        1
280
     0
281
     0
  0
CLASS
  1
ACMTHREADLINESTANDARDISO
  2
AmdtThreadLineStdISO
  3
"Amdt_StdImp|Product Description: AutoCAD Mechanical|Company: Autodesk, Inc."
 90
     1024
 91
        1
280
     0
281
     0
  0
CLASS
  1
ACMNOTESTANDARDISO
  2
AmdtNoteStdISO
  3
"Amdt_StdImp|Product Description: AutoCAD Mechanical|Company: Autodesk, Inc."
 90
     1024
 91
        1
280
     0
281
     0
  0
CLASS
  1
ACAMGLAYSTD
  2
AcAmgLayStd
  3
"AmgLay|Product Description: AutoCAD Mechanical|Company: Autodesk, Inc."
 90
     1024
 91
        5
280
     0
281
     0
  0
CLASS
  1
ACAMGDIMSTD
  2
AcAmgDimStd
  3
"AmgDim|Product Description: AutoCAD Mechanical|Company: Autodesk, Inc."
 90
     1024
 91
        5
280
     0
281
     0
  0
CLASS
  1
ACAMGHOLECHARTSTDANSI
  2
AcAmgHoleChartStdANSI
  3
AmgDim|Product Description: AutoCAD Mechanical|Company: Autodesk, Inc.
 90
     1024
 91
        1
280
     0
281
     0
  0
CLASS
  1
ACAMGHOLECHARTSTDBSI
  2
AcAmgHoleChartStdBSI
  3
AmgDim|Product Description: AutoCAD Mechanical|Company: Autodesk, Inc.
 90
     1024
 91
        1
280
     0
281
     0
  0
CLASS
  1
ACAMGHOLECHARTSTDDIN
  2
AcAmgHoleChartStdDIN
  3
AmgDim|Product Description: AutoCAD Mechanical|Company: Autodesk, Inc.
 90
     1024
 91
        1
280
     0
281
     0
  0
CLASS
  1
ACAMGHOLECHARTSTDISO
  2
AcAmgHoleChartStdISO
  3
AmgDim|Product Description: AutoCAD Mechanical|Company: Autodesk, Inc.
 90
     1024
 91
        1
280
     0
281
     0
  0
CLASS
  1
ACAMGHOLECHARTSTDJIS
  2
AcAmgHoleChartStdJIS
  3
AmgDim|Product Description: AutoCAD Mechanical|Company: Autodesk, Inc.
 90
     1024
 91
        1
280
     0
281
     0
  0
CLASS
  1
CATALOGSTATE
  2
AcAmCatalogState
  3
DesignerAssemblies
 90
     1024
 91
        1
280
     0
281
     0
  0
CLASS
  1
ACAMGRCOMPDEFSET
  2
AcAmGrCompDefSet
  3
DesignerAssemblies
 90
     1024
 91
        1
280
     0
281
     0
  0
CLASS
  1
AMDTBROWSERDBTAB
  2
AmdtBrowserDbTab
  3
McadcomServices
 90
     1024
 91
        1
280
     0
281
     0
  0
CLASS
  1
CBROWSERAPPOBJECT
  2
CBrowserAppObject
  3
McadcomServices
 90
     1024
 91
        3
280
     0
281
     0
  0
CLASS
  1
DM_PLACEHOLDER
  2
AcDmSelsetPlaceholder
  3
AcMechDwgViewMgmt
 90
     1024
 91
        1
280
     0
281
     0
  0
CLASS
  1
VAACXREFPANELOBJECT
  2
VaAcXREFPanelObject
  3
VAAC_ADDIN
 90
        0
 91
        0
280
     0
281
     0
  0
CLASS
  1
VAACIMAGEINVENTORY
  2
VaAcImageInventory
  3
VAAC_ADDIN
 90
        0
 91
        0
280
     0
281
     0
  0
CLASS
  1
ACAMGFILTERDAT
  2
AcAmgFilterDat
  3
"AcadM|Product Description: AutoCAD Mechanical|Company: Autodesk, Inc."
 90
     1024
 91
        6
280
     0
281
     0
  0
CLASS
  1
MATERIAL
  2
AcDbMaterial
  3
ObjectDBX Classes
 90
     1153
 91
        3
280
     0
281
     0
  0
CLASS
  1
VISUALSTYLE
  2
AcDbVisualStyle
  3
ObjectDBX Classes
 90
     4095
 91
       16
280
     0
281
     0
  0
CLASS
  1
SCALE
  2
AcDbScale
  3
ObjectDBX Classes
 90
     1153
 91
       33
280
     0
281
     0
  0
CLASS
  1
MLEADERSTYLE
  2
AcDbMLeaderStyle
  3
ACDB_MLEADERSTYLE_CLASS
 90
     4095
 91
        1
280
     0
281
     0
  0
CLASS
  1
ACMTAPERSTANDARDJIS
  2
AcmTaperStdJIS
  3
"Amdt_StdImp|Product Description: AutoCAD Mechanical|Company: Autodesk, Inc."
 90
     1024
 91
        1
280
     0
281
     0
  0
CLASS
  1
ACMANOOTATIONVIEWSTANDARDJIS
  2
AmdtAnViewStdJIS
  3
"Amdt_StdImp|Product Description: AutoCAD Mechanical|Company: Autodesk, Inc."
 90
     1024
 91
        1
280
     0
281
     0
  0
CLASS
  1
ACMTAPERSTANDARDANSI
  2
AcmTaperStdANSI
  3
"Amdt_StdImp|Product Description: AutoCAD Mechanical|Company: Autodesk, Inc."
 90
     1024
 91
        1
280
     0
281
     0
  0
CLASS
  1
ACMANOOTATIONVIEWSTANDARDANSI
  2
AmdtAnViewStdANSI
  3
"Amdt_StdImp|Product Description: AutoCAD Mechanical|Company: Autodesk, Inc."
 90
     1024
 91
        1
280
     0
281
     0
  0
CLASS
  1
ACMTAPERSTANDARDBSI
  2
AcmTaperStdBSI
  3
"Amdt_StdImp|Product Description: AutoCAD Mechanical|Company: Autodesk, Inc."
 90
     1024
 91
        1
280
     0
281
     0
  0
CLASS
  1
ACMANOOTATIONVIEWSTANDARDBSI
  2
AmdtAnViewStdBSI
  3
"Amdt_StdImp|Product Description: AutoCAD Mechanical|Company: Autodesk, Inc."
 90
     1024
 91
        1
280
     0
281
     0
  0
CLASS
  1
ACMTAPERSTANDARDDIN
  2
AcmTaperStdDIN
  3
"Amdt_StdImp|Product Description: AutoCAD Mechanical|Company: Autodesk, Inc."
 90
     1024
 91
        1
280
     0
281
     0
  0
CLASS
  1
ACMANOOTATIONVIEWSTANDARDDIN
  2
AmdtAnViewStdDIN
  3
"Amdt_StdImp|Product Description: AutoCAD Mechanical|Company: Autodesk, Inc."
 90
     1024
 91
        1
280
     0
281
     0
  0
CLASS
  1
ACMTAPERSTANDARDISO
  2
AcmTaperStdISO
  3
"Amdt_StdImp|Product Description: AutoCAD Mechanical|Company: Autodesk, Inc."
 90
     1024
 91
        1
280
     0
281
     0
  0
CLASS
  1
ACMANOOTATIONVIEWSTANDARDISO
  2
AmdtAnViewStdISO
  3
"Amdt_StdImp|Product Description: AutoCAD Mechanical|Company: Autodesk, Inc."
 90
     1024
 91
        1
280
     0
281
     0
  0
CLASS
  1
CAMSSTRUCTBTNSTATE
  2
StructBtnState
  3
DesignerAssemblies
 90
     1024
 91
        1
280
     0
281
     0
  0
CLASS
  1
CELLSTYLEMAP
  2
AcDbCellStyleMap
  3
ObjectDBX Classes
 90
     1152
 91
        7
280
     0
281
     0
  0
CLASS
  1
SORTENTSTABLE
  2
AcDbSortentsTable
  3
ObjectDBX Classes
 90
        0
 91
        3
280
     0
281
     0
  0
ENDSEC
  0
SECTION
  2
TABLES
  0
TABLE
  2
VPORT
  5
13
330
0
100
AcDbSymbolTable
 70
     1
  0
VPORT
  5
3C4
330
13
100
AcDbSymbolTableRecord
100
AcDbViewportTableRecord
  2
*Active
 70
     0
 10
0.0
 20
0.0
 11
1.0
 21
1.0
 12
549.0868941829521
 22
298.7228081143834
 13
0.0
 23
0.0
 14
10.0
 24
10.0
 15
10.0
 25
10.0
 16
0.0
 26
0.0
 36
1.0
 17
0.0
 27
0.0
 37
0.0
 40
508.3058677533734
 41
1.518518518518518
 42
50.0
 43
0.0
 44
0.0
 50
0.0
 51
0.0
 71
     0
 72
   100
 73
     1
 74
     0
 75
     0
 76
     0
 77
     0
 78
     0
281
     0
 65
     1
110
0.0
120
0.0
130
0.0
111
1.0
121
0.0
131
0.0
112
0.0
122
1.0
132
0.0
 79
     0
146
0.0
  0
ENDTAB
  0
TABLE
  2
LTYPE
  5
E
330
0
100
AcDbSymbolTable
 70
    30
  0
LTYPE
  5
F
330
E
100
AcDbSymbolTableRecord
100
AcDbLinetypeTableRecord
  2
BYBLOCK
 70
     0
  3

 72
    65
 73
     0
 40
0.0
  0
LTYPE
  5
10
330
E
100
AcDbSymbolTableRecord
100
AcDbLinetypeTableRecord
  2
BYLAYER
 70
     0
  3

 72
    65
 73
     0
 40
0.0
  0
LTYPE
  5
6
330
E
100
AcDbSymbolTableRecord
100
AcDbLinetypeTableRecord
  2
CONTINUOUS
 70
     0
  3
Solid line
 72
    65
 73
     0
 40
0.0
  0
LTYPE
  5
50
330
E
100
AcDbSymbolTableRecord
100
AcDbLinetypeTableRecord
  2
MITTE
 70
     0
  3
____ _ ____ _ ____ _ ____ _ ____ _ ____ _ ____ 
 72
    65
 73
     4
 40
2.0
 49
1.25
 74
     0
 49
-0.25
 74
     0
 49
0.25
 74
     0
 49
-0.25
 74
     0
  0
LTYPE
  5
84
330
E
100
AcDbSymbolTableRecord
100
AcDbLinetypeTableRecord
  2
STRICHLINIE
 70
     0
  3
Strichlinie __ __ __ __ __ __ __ __ __ __ __ __
 72
    65
 73
     2
 40
0.75
 49
0.5
 74
     0
 49
-0.25
 74
     0
  0
LTYPE
  5
28B
330
E
100
AcDbSymbolTableRecord
100
AcDbLinetypeTableRecord
  2
ACJISTGB
 70
     0
  3
__ . . __ . .
 72
    65
 73
     6
 40
9.0
 49
4.0
 74
     0
 49
-1.0
 74
     0
 49
1.0
 74
     0
 49
-1.0
 74
     0
 49
1.0
 74
     0
 49
-1.0
 74
     0
  0
LTYPE
  5
28C
330
E
100
AcDbSymbolTableRecord
100
AcDbLinetypeTableRecord
  2
ACJISTGL
 70
     0
  3
_ _ _ _ _
 72
    65
 73
     2
 40
3.0
 49
2.0
 74
     0
 49
-1.0
 74
     0
  0
LTYPE
  5
28F
330
E
100
AcDbSymbolTableRecord
100
AcDbLinetypeTableRecord
  2
ACANSTGB
 70
     0
  3
__ . . __ . .
 72
    65
 73
     6
 40
0.35433070866
 49
0.15748031496
 74
     0
 49
-0.03937007874
 74
     0
 49
0.03937007874
 74
     0
 49
-0.03937007874
 74
     0
 49
0.03937007874
 74
     0
 49
-0.03937007874
 74
     0
  0
LTYPE
  5
290
330
E
100
AcDbSymbolTableRecord
100
AcDbLinetypeTableRecord
  2
ACANSTGL
 70
     0
  3
_ _ _ _ _
 72
    65
 73
     2
 40
0.11811023622
 49
0.07874015748
 74
     0
 49
-0.03937007874
 74
     0
  0
LTYPE
  5
293
330
E
100
AcDbSymbolTableRecord
100
AcDbLinetypeTableRecord
  2
ACBSIWELD
 70
     0
  3
_ _ _ _ _
 72
    65
 73
     2
 40
2.0
 49
2.0
 74
     0
 49
-1.0
 74
     0
  0
LTYPE
  5
294
330
E
100
AcDbSymbolTableRecord
100
AcDbLinetypeTableRecord
  2
ACBSITGB
 70
     0
  3
__ . . __ . .
 72
    65
 73
     6
 40
9.0
 49
4.0
 74
     0
 49
-1.0
 74
     0
 49
1.0
 74
     0
 49
-1.0
 74
     0
 49
1.0
 74
     0
 49
-1.0
 74
     0
  0
LTYPE
  5
295
330
E
100
AcDbSymbolTableRecord
100
AcDbLinetypeTableRecord
  2
ACBSITGL
 70
     0
  3
_ _ _ _ _
 72
    65
 73
     2
 40
3.0
 49
2.0
 74
     0
 49
-1.0
 74
     0
  0
LTYPE
  5
298
330
E
100
AcDbSymbolTableRecord
100
AcDbLinetypeTableRecord
  2
ACDINWELD
 70
     0
  3
_ _ _ _ _
 72
    65
 73
     2
 40
2.0
 49
2.0
 74
     0
 49
-1.0
 74
     0
  0
LTYPE
  5
299
330
E
100
AcDbSymbolTableRecord
100
AcDbLinetypeTableRecord
  2
ACDINTGB
 70
     0
  3
__ . . __ . .
 72
    65
 73
     6
 40
9.0
 49
4.0
 74
     0
 49
-1.0
 74
     0
 49
1.0
 74
     0
 49
-1.0
 74
     0
 49
1.0
 74
     0
 49
-1.0
 74
     0
  0
LTYPE
  5
29A
330
E
100
AcDbSymbolTableRecord
100
AcDbLinetypeTableRecord
  2
ACDINTGL
 70
     0
  3
_ _ _ _ _
 72
    65
 73
     2
 40
3.0
 49
2.0
 74
     0
 49
-1.0
 74
     0
  0
LTYPE
  5
29D
330
E
100
AcDbSymbolTableRecord
100
AcDbLinetypeTableRecord
  2
ACISOWELD
 70
     0
  3
_ _ _ _ _
 72
    65
 73
     2
 40
2.0
 49
2.0
 74
     0
 49
-1.0
 74
     0
  0
LTYPE
  5
29E
330
E
100
AcDbSymbolTableRecord
100
AcDbLinetypeTableRecord
  2
ACISOTGB
 70
     0
  3
__ . . __ . .
 72
    65
 73
     6
 40
9.0
 49
4.0
 74
     0
 49
-1.0
 74
     0
 49
1.0
 74
     0
 49
-1.0
 74
     0
 49
1.0
 74
     0
 49
-1.0
 74
     0
  0
LTYPE
  5
29F
330
E
100
AcDbSymbolTableRecord
100
AcDbLinetypeTableRecord
  2
ACISOTGL
 70
     0
  3
_ _ _ _ _
 72
    65
 73
     2
 40
3.0
 49
2.0
 74
     0
 49
-1.0
 74
     0
  0
LTYPE
  5
2E8
330
E
100
AcDbSymbolTableRecord
100
AcDbLinetypeTableRecord
  2
HIDDEN
 70
     0
  3
Verdeckt
 72
    65
 73
     2
 40
0.375
 49
0.25
 74
     0
 49
-0.125
 74
     0
  0
LTYPE
  5
2E9
330
E
100
AcDbSymbolTableRecord
100
AcDbLinetypeTableRecord
  2
PHANTOM2
 70
     0
  3
Phantom (.5x) ___ _ _ ___ _ _ ___ _ _ ___ _ _
 72
    65
 73
     6
 40
1.25
 49
0.625
 74
     0
 49
-0.125
 74
     0
 49
0.125
 74
     0
 49
-0.125
 74
     0
 49
0.125
 74
     0
 49
-0.125
 74
     0
  0
LTYPE
  5
2EA
330
E
100
AcDbSymbolTableRecord
100
AcDbLinetypeTableRecord
  2
CENTER
 70
     0
  3
Mitte ____ _ ____ _ ____ _ ____ _ ____ _ ____
 72
    65
 73
     4
 40
2.0
 49
1.25
 74
     0
 49
-0.25
 74
     0
 49
0.25
 74
     0
 49
-0.25
 74
     0
  0
LTYPE
  5
31B
330
E
100
AcDbSymbolTableRecord
100
AcDbLinetypeTableRecord
  2
Amconstr
 70
     0
  3
_______________________
 72
    65
 73
     2
 40
9999.0
 49
9999.0
 74
     0
 49
0.0
 74
     0
  0
LTYPE
  5
321
330
E
100
AcDbSymbolTableRecord
100
AcDbLinetypeTableRecord
  2
CENTER2
 70
     0
  3
Center (.5x) ___ _ ___ _ ___ _ ___ _ ___ _ ___
 72
    65
 73
     4
 40
1.125
 49
0.75
 74
     0
 49
-0.125
 74
     0
 49
0.125
 74
     0
 49
-0.125
 74
     0
  0
LTYPE
  5
322
330
E
100
AcDbSymbolTableRecord
100
AcDbLinetypeTableRecord
  2
HIDDEN2
 70
     0
  3
Hidden (.5x) _ _ _ _ _ _ _ _ _ _ _ _ _ _ _ _ _
 72
    65
 73
     2
 40
0.1875
 49
0.125
 74
     0
 49
-0.0625
 74
     0
  0
LTYPE
  5
323
330
E
100
AcDbSymbolTableRecord
100
AcDbLinetypeTableRecord
  2
Amzigzag2
 70
     0
  3
/\/-/\/-/\/-/\/-/\/-/\/
 72
    65
 73
     2
 40
0.4401
 49
0.0001
 74
     4
 75
   135
340
31F
 46
0.0016
 50
0.0
 44
0.0
 45
0.0
 49
-0.4400000000000001
 74
     0
  0
ENDTAB
  0
TABLE
  2
LAYER
  5
B
330
0
100
AcDbSymbolTable
 70
     6
  0
LAYER
  5
5
102
{ACAD_XDICTIONARY
360
5E2
102
}
330
B
100
AcDbSymbolTableRecord
100
AcDbLayerTableRecord
  2
0
 70
     0
 62
     7
  6
CONTINUOUS
370
    -3
390
2AD
  0
LAYER
  5
21
102
{ACAD_XDICTIONARY
360
5E4
102
}
330
B
100
AcDbSymbolTableRecord
100
AcDbLayerTableRecord
  2
BEM
 70
     1
 62
     1
  6
CONTINUOUS
370
    -3
390
2AD
  0
LAYER
  5
4F
102
{ACAD_XDICTIONARY
360
5E6
102
}
330
B
100
AcDbSymbolTableRecord
100
AcDbLayerTableRecord
  2
MITTE
 70
     0
 62
     6
  6
MITTE
370
    -3
390
2AD
  0
LAYER
  5
4B
102
{ACAD_XDICTIONARY
360
5E8
102
}
330
B
100
AcDbSymbolTableRecord
100
AcDbLayerTableRecord
  2
LINIE
 70
     0
 62
     6
  6
CONTINUOUS
370
    -3
390
2AD
  0
LAYER
  5
2A
330
B
100
AcDbSymbolTableRecord
100
AcDbLayerTableRecord
  2
DEFPOINTS
 70
     0
 62
     7
  6
CONTINUOUS
290
     0
370
    -3
390
2AD
  0
ENDTAB
  0
TABLE
  2
STYLE
  5
C
330
0
100
AcDbSymbolTable
 70
    15
  0
STYLE
  5
D
330
C
100
AcDbSymbolTableRecord
100
AcDbTextStyleTableRecord
  2
STANDARD
 70
     0
 40
0.0
 41
1.0
 50
0.0
 71
     0
 42
10.0
  3
romans.shx
  4

  0
STYLE
  5
289
330
C
100
AcDbSymbolTableRecord
100
AcDbTextStyleTableRecord
  2
ACJISTS
 70
     0
 40
1.0
 41
1.0
 50
0.0
 71
     0
 42
10.0
  3
isocp.shx
  4
bigfont.shx
  0
STYLE
  5
28A
330
C
100
AcDbSymbolTableRecord
100
AcDbTextStyleTableRecord
  2
ACJISGDT
 70
     0
 40
0.0
 41
1.0
 50
0.0
 71
     0
 42
10.0
  3
amgdt.shx
  4

  0
STYLE
  5
28D
330
C
100
AcDbSymbolTableRecord
100
AcDbTextStyleTableRecord
  2
ACANSTSB
 70
     0
 40
1.0
 41
1.0
 50
0.0
 71
     0
 42
10.0
  3
romans.shx
  4

  0
STYLE
  5
28E
330
C
100
AcDbSymbolTableRecord
100
AcDbTextStyleTableRecord
  2
ACANSGDT
 70
     0
 40
0.0
 41
1.0
 50
0.0
 71
     0
 42
10.0
  3
amgdt.shx
  4

  0
STYLE
  5
291
330
C
100
AcDbSymbolTableRecord
100
AcDbTextStyleTableRecord
  2
ACBSITS
 70
     0
 40
1.0
 41
1.0
 50
0.0
 71
     0
 42
10.0
  3
isocp.shx
  4

  0
STYLE
  5
292
330
C
100
AcDbSymbolTableRecord
100
AcDbTextStyleTableRecord
  2
ACBSIGDT
 70
     0
 40
0.0
 41
1.0
 50
0.0
 71
     0
 42
10.0
  3
amgdt.shx
  4

  0
STYLE
  5
296
330
C
100
AcDbSymbolTableRecord
100
AcDbTextStyleTableRecord
  2
ACDINTS
 70
     0
 40
1.0
 41
1.0
 50
0.0
 71
     0
 42
10.0
  3
isocp.shx
  4

  0
STYLE
  5
297
330
C
100
AcDbSymbolTableRecord
100
AcDbTextStyleTableRecord
  2
ACDINGDT
 70
     0
 40
0.0
 41
1.0
 50
0.0
 71
     0
 42
10.0
  3
amgdt.shx
  4

  0
STYLE
  5
29B
330
C
100
AcDbSymbolTableRecord
100
AcDbTextStyleTableRecord
  2
ACISOTS
 70
     0
 40
1.0
 41
1.0
 50
0.0
 71
     0
 42
10.0
  3
isocp.shx
  4

  0
STYLE
  5
29C
330
C
100
AcDbSymbolTableRecord
100
AcDbTextStyleTableRecord
  2
ACISOGDT
 70
     0
 40
0.0
 41
1.0
 50
0.0
 71
     0
 42
10.0
  3
amgdt.shx
  4

  0
STYLE
  5
31F
330
C
100
AcDbSymbolTableRecord
100
AcDbTextStyleTableRecord
  2

 70
     1
 40
0.0
 41
1.0
 50
0.0
 71
     0
 42
10.0
  3
ltypeshp.shx
  4

  0
ENDTAB
  0
TABLE
  2
VIEW
  5
11
330
0
100
AcDbSymbolTable
 70
     0
  0
ENDTAB
  0
TABLE
  2
UCS
  5
12
330
0
100
AcDbSymbolTable
 70
     0
  0
ENDTAB
  0
TABLE
  2
APPID
  5
15
330
0
100
AcDbSymbolTable
 70
    11
  0
APPID
  5
16
330
15
100
AcDbSymbolTableRecord
100
AcDbRegAppTableRecord
  2
ACAD
 70
     0
  0
APPID
  5
256
330
15
100
AcDbSymbolTableRecord
100
AcDbRegAppTableRecord
  2
MCAD_NO_VIS
 70
     0
  0
APPID
  5
2C1
330
15
100
AcDbSymbolTableRecord
100
AcDbRegAppTableRecord
  2
ACAD_TEMP_GRAPHIC
 70
     0
  0
APPID
  5
2EC
330
15
100
AcDbSymbolTableRecord
100
AcDbRegAppTableRecord
  2
AD_DRAW
 70
     0
  0
APPID
  5
2EF
330
15
100
AcDbSymbolTableRecord
100
AcDbRegAppTableRecord
  2
ACATTRIBSERVICES
 70
     0
  0
APPID
  5
30D
330
15
100
AcDbSymbolTableRecord
100
AcDbRegAppTableRecord
  2
DESIGNERASSEMBLIES
 70
     0
  0
APPID
  5
3B4
330
15
100
AcDbSymbolTableRecord
100
AcDbRegAppTableRecord
  2
ACADM_DIM_EDIT
 70
     0
  0
APPID
  5
3B5
330
15
100
AcDbSymbolTableRecord
100
AcDbRegAppTableRecord
  2
AMDT_DM_ADJ
 70
     0
  0
APPID
  5
414
330
15
100
AcDbSymbolTableRecord
100
AcDbRegAppTableRecord
  2
ACAD_MLEADERVER
 70
     0
  0
APPID
  5
5EC
330
15
100
AcDbSymbolTableRecord
100
AcDbRegAppTableRecord
  2
DCO15
 70
     0
  0
APPID
  5
5F5
330
15
100
AcDbSymbolTableRecord
100
AcDbRegAppTableRecord
  2
ACAD_PSEXT
 70
     0
  0
ENDTAB
  0
TABLE
  2
DIMSTYLE
  5
17
330
0
100
AcDbSymbolTable
 70
    38
100
AcDbDimStyleTable
 71
     1
340
1D
  0
DIMSTYLE
105
1D
102
{ACAD_REACTORS
330
3D
330
143
330
1D7
330
30
330
112
330
FE
330
20
330
19E
330
184
330
191
330
57
330
F1
330
72
330
1AB
330
22A
330
178
330
1C1
330
AD
330
65
330
152
102
}
330
17
100
AcDbSymbolTableRecord
100
AcDbDimStyleTableRecord
  2
ISO-25
 70
     0
 41
7.0
 42
0.0
 43
7.0
 44
1.25
 73
     0
 74
     0
 77
     1
 78
     8
140
10.0
141
0.0
144
0.5
147
4.0
172
     1
176
   256
177
   256
178
   256
284
     8
288
     1
340
D
  0
DIMSTYLE
105
56
330
17
100
AcDbSymbolTableRecord
100
AcDbDimStyleTableRecord
  2
STANDARD
 70
     0
  4
"
 41
7.0
 42
0.0
 43
7.0
 44
1.25
 47
0.1
 48
0.1
 73
     0
 74
     0
 77
     1
 78
     8
140
10.0
141
0.0
143
0.0393701
144
0.5
147
4.0
172
     1
176
   256
177
   256
178
   256
271
     2
272
     3
274
     4
283
     0
284
     8
288
     1
340
D
  0
DIMSTYLE
105
37C
330
17
100
AcDbSymbolTableRecord
100
AcDbDimStyleTableRecord
  2
AM_ANSI
 70
     0
  4
mm
 41
0.1
 42
0.05
 43
0.5
 44
0.1
 47
0.1
 48
0.1
 78
     7
 79
     2
140
0.12
141
0.0
146
0.71
147
0.06
176
   256
177
   256
178
     2
274
     4
284
     7
340
D
371
    -1
372
    -1
  0
DIMSTYLE
105
37D
330
17
100
AcDbSymbolTableRecord
100
AcDbDimStyleTableRecord
  2
AM_ANSI$3
 70
     0
  4
mm
 41
0.1
 42
0.05
 43
0.5
 44
0.1
 47
0.1
 48
0.1
 78
     7
 79
     2
140
0.12
141
0.0
146
0.71
147
0.06
176
   256
177
   256
178
     2
274
     4
284
     7
288
     1
289
     0
340
D
371
    -1
372
    -1
  0
DIMSTYLE
105
37E
330
17
100
AcDbSymbolTableRecord
100
AcDbDimStyleTableRecord
  2
AM_ANSI$4
 70
     0
  4
mm
 41
0.1
 42
0.05
 43
0.5
 44
0.1
 47
0.1
 48
0.1
 78
     7
 79
     2
140
0.12
141
0.0
146
0.71
147
0.06
176
   256
177
   256
178
     2
274
     4
284
     7
288
     1
289
     0
340
D
371
    -1
372
    -1
  0
DIMSTYLE
105
37F
330
17
100
AcDbSymbolTableRecord
100
AcDbDimStyleTableRecord
  2
AM_ANSI$7
 70
     0
  4
mm
 41
0.1
 42
0.05
 43
0.5
 44
0.1
 47
0.1
 48
0.1
 78
     7
 79
     2
140
0.24
141
0.0
146
0.71
147
0.06
176
   256
177
   256
178
     2
274
     4
284
     7
340
D
371
    -1
372
    -1
  0
DIMSTYLE
105
380
330
17
100
AcDbSymbolTableRecord
100
AcDbDimStyleTableRecord
  2
AM_ANSI$SF
 70
     0
  4
mm
 41
0.1
 42
0.05
 43
0.5
 44
0.1
 47
0.1
 48
0.1
 75
     1
 76
     1
 78
     7
 79
     2
140
0.12
141
0.0
146
0.71
147
0.06
176
   256
177
   256
178
     2
274
     4
284
     7
340
D
371
    -1
372
    -1
  0
DIMSTYLE
105
385
330
17
100
AcDbSymbolTableRecord
100
AcDbDimStyleTableRecord
  2
AM_ANSI$SH
 70
     0
  4
mm
 41
0.1
 42
0.05
 43
0.5
 44
0.1
 47
0.1
 48
0.1
 75
     1
 76
     1
 78
     7
 79
     2
140
0.12
141
0.0
146
0.71
147
0.06
173
     1
176
   256
177
   256
178
     2
274
     4
284
     7
340
D
343
381
371
    -1
372
    -1
  0
DIMSTYLE
105
388
330
17
100
AcDbSymbolTableRecord
100
AcDbDimStyleTableRecord
  2
AM_BSI
 70
     0
  4
mm
 41
0.1574803149606299
 42
0.05
 43
0.5
 44
0.1
 47
0.1
 48
0.1
 73
     0
 74
     0
 77
     1
 78
     7
 79
     2
140
0.12
141
0.0
146
0.71
147
0.06
172
     1
176
   256
177
   256
178
     2
274
     4
283
     0
284
     7
340
D
371
    -1
372
    -1
  0
DIMSTYLE
105
389
330
17
100
AcDbSymbolTableRecord
100
AcDbDimStyleTableRecord
  2
AM_BSI$3
 70
     0
  4
mm
 41
0.1574803149606299
 42
0.05
 43
0.5
 44
0.1
 47
0.1
 48
0.1
 73
     0
 77
     1
 78
     7
 79
     2
140
0.12
141
0.0
146
0.71
147
0.06
176
   256
177
   256
178
     2
274
     4
283
     0
284
     7
288
     1
289
     0
340
D
371
    -1
372
    -1
  0
DIMSTYLE
105
38A
330
17
100
AcDbSymbolTableRecord
100
AcDbDimStyleTableRecord
  2
AM_BSI$4
 70
     0
  4
mm
 41
0.1574803149606299
 42
0.05
 43
0.5
 44
0.1
 47
0.1
 48
0.1
 73
     0
 77
     1
 78
     7
 79
     2
140
0.12
141
0.0
146
0.71
147
0.06
176
   256
177
   256
178
     2
274
     4
283
     0
284
     7
288
     1
289
     0
340
D
371
    -1
372
    -1
  0
DIMSTYLE
105
38B
330
17
100
AcDbSymbolTableRecord
100
AcDbDimStyleTableRecord
  2
AM_BSI$6
 70
     0
  4
mm
 41
0.1574803149606299
 42
0.05
 43
0.5
 44
0.1
 47
0.1
 48
0.1
 73
     0
 74
     0
 78
     7
 79
     2
140
0.12
141
0.0
146
0.71
147
0.06
172
     1
176
   256
177
   256
178
     2
274
     4
283
     0
284
     7
340
D
371
    -1
372
    -1
  0
DIMSTYLE
105
38C
330
17
100
AcDbSymbolTableRecord
100
AcDbDimStyleTableRecord
  2
AM_BSI$7
 70
     0
  4
mm
 41
0.1
 42
0.05
 43
0.5
 44
0.1
 47
0.1
 48
0.1
 73
     0
 74
     0
 77
     1
 78
     7
 79
     2
140
0.24
141
0.0
146
0.71
147
0.06
172
     1
176
   256
177
   256
178
     2
274
     4
283
     0
284
     7
340
D
371
    -1
372
    -1
  0
DIMSTYLE
105
38D
330
17
100
AcDbSymbolTableRecord
100
AcDbDimStyleTableRecord
  2
AM_BSI$SF
 70
     0
  4
mm
 41
0.1574803149606299
 42
0.05
 43
0.5
 44
0.1
 47
0.1
 48
0.1
 73
     0
 74
     0
 75
     1
 76
     1
 77
     1
 78
     7
 79
     2
140
0.12
141
0.0
146
0.71
147
0.06
172
     1
176
   256
177
   256
178
     2
274
     4
283
     0
284
     7
340
D
371
    -1
372
    -1
  0
DIMSTYLE
105
38E
330
17
100
AcDbSymbolTableRecord
100
AcDbDimStyleTableRecord
  2
AM_BSI$SH
 70
     0
  4
mm
 41
0.1574803149606299
 42
0.05
 43
0.5
 44
0.1
 47
0.1
 48
0.1
 73
     0
 74
     0
 75
     1
 76
     1
 77
     1
 78
     7
 79
     2
140
0.12
141
0.0
144
2.0
146
0.71
147
0.06
172
     1
173
     1
176
   256
177
   256
178
     2
274
     4
283
     0
284
     7
340
D
343
381
371
    -1
372
    -1
  0
DIMSTYLE
105
391
330
17
100
AcDbSymbolTableRecord
100
AcDbDimStyleTableRecord
  2
AM_DIN
 70
     0
  4
mm
 41
0.1
 42
0.05
 43
0.5
 44
0.1
 47
0.1
 48
0.1
 73
     0
 74
     0
 77
     1
 78
     7
 79
     2
140
0.12
141
0.0
146
0.71
147
0.06
172
     1
176
   256
177
   256
178
     2
274
     4
283
     0
284
     7
340
D
371
    -1
372
    -1
  0
DIMSTYLE
105
392
330
17
100
AcDbSymbolTableRecord
100
AcDbDimStyleTableRecord
  2
AM_DIN$3
 70
     0
  4
mm
 41
0.1
 42
0.05
 43
0.5
 44
0.1
 47
0.1
 48
0.1
 73
     0
 77
     1
 78
     7
 79
     2
140
0.12
141
0.0
146
0.71
147
0.06
176
   256
177
   256
178
     2
274
     4
283
     0
284
     7
288
     1
289
     0
340
D
371
    -1
372
    -1
  0
DIMSTYLE
105
393
330
17
100
AcDbSymbolTableRecord
100
AcDbDimStyleTableRecord
  2
AM_DIN$4
 70
     0
  4
mm
 41
0.1
 42
0.05
 43
0.5
 44
0.1
 47
0.1
 48
0.1
 73
     0
 77
     1
 78
     7
 79
     2
140
0.12
141
0.0
146
0.71
147
0.06
176
   256
177
   256
178
     2
274
     4
283
     0
284
     7
288
     1
289
     0
340
D
371
    -1
372
    -1
  0
DIMSTYLE
105
394
330
17
100
AcDbSymbolTableRecord
100
AcDbDimStyleTableRecord
  2
AM_DIN$6
 70
     0
  4
mm
 41
0.1
 42
0.05
 43
0.5
 44
0.1
 47
0.1
 48
0.1
 73
     0
 74
     0
 78
     7
 79
     2
140
0.12
141
0.0
146
0.71
147
0.06
172
     1
176
   256
177
   256
178
     2
274
     4
283
     0
284
     7
340
D
371
    -1
372
    -1
  0
DIMSTYLE
105
395
330
17
100
AcDbSymbolTableRecord
100
AcDbDimStyleTableRecord
  2
AM_DIN$7
 70
     0
  4
mm
 41
0.1
 42
0.05
 43
0.5
 44
0.1
 47
0.1
 48
0.1
 73
     0
 74
     0
 77
     1
 78
     7
 79
     2
140
0.24
141
0.0
146
0.71
147
0.06
172
     1
176
   256
177
   256
178
     2
274
     4
283
     0
284
     7
340
D
371
    -1
372
    -1
  0
DIMSTYLE
105
396
330
17
100
AcDbSymbolTableRecord
100
AcDbDimStyleTableRecord
  2
AM_DIN$SF
 70
     0
  4
mm
 41
0.1
 42
0.05
 43
0.5
 44
0.1
 47
0.1
 48
0.1
 73
     0
 74
     0
 75
     1
 76
     1
 77
     1
 78
     7
 79
     2
140
0.12
141
0.0
146
0.71
147
0.06
172
     1
176
   256
177
   256
178
     2
274
     4
283
     0
284
     7
340
D
371
    -1
372
    -1
  0
DIMSTYLE
105
397
330
17
100
AcDbSymbolTableRecord
100
AcDbDimStyleTableRecord
  2
AM_DIN$SH
 70
     0
  4
mm
 41
0.1
 42
0.05
 43
0.5
 44
0.1
 47
0.1
 48
0.1
 73
     0
 74
     0
 75
     1
 76
     1
 77
     1
 78
     7
 79
     2
140
0.12
141
0.0
144
2.0
146
0.71
147
0.06
172
     1
173
     1
176
   256
177
   256
178
     2
274
     4
283
     0
284
     7
340
D
343
381
371
    -1
372
    -1
  0
DIMSTYLE
105
39A
330
17
100
AcDbSymbolTableRecord
100
AcDbDimStyleTableRecord
  2
AM_ISO
 70
     0
  4
mm
 41
0.1
 42
0.05
 43
0.5
 44
0.1
 47
0.1
 48
0.1
 73
     0
 74
     0
 77
     1
 78
     7
 79
     2
140
0.12
141
0.0
146
0.71
147
0.06
172
     1
176
   256
177
   256
178
     2
274
     4
283
     0
284
     7
340
D
371
    -1
372
    -1
  0
DIMSTYLE
105
39B
330
17
100
AcDbSymbolTableRecord
100
AcDbDimStyleTableRecord
  2
AM_ISO$3
 70
     0
  4
mm
 41
0.1
 42
0.05
 43
0.5
 44
0.1
 47
0.1
 48
0.1
 73
     0
 77
     1
 78
     7
 79
     2
140
0.12
141
0.0
146
0.71
147
0.06
176
   256
177
   256
178
     2
274
     4
283
     0
284
     7
288
     1
289
     0
340
D
371
    -1
372
    -1
  0
DIMSTYLE
105
39C
330
17
100
AcDbSymbolTableRecord
100
AcDbDimStyleTableRecord
  2
AM_ISO$4
 70
     0
  4
mm
 41
0.1
 42
0.05
 43
0.5
 44
0.1
 47
0.1
 48
0.1
 73
     0
 77
     1
 78
     7
 79
     2
140
0.12
141
0.0
146
0.71
147
0.06
176
   256
177
   256
178
     2
274
     4
283
     0
284
     7
288
     1
289
     0
340
D
371
    -1
372
    -1
  0
DIMSTYLE
105
39D
330
17
100
AcDbSymbolTableRecord
100
AcDbDimStyleTableRecord
  2
AM_ISO$6
 70
     0
  4
mm
 41
0.1
 42
0.05
 43
0.5
 44
0.1
 47
0.1
 48
0.1
 73
     0
 74
     0
 78
     7
 79
     2
140
0.12
141
0.0
146
0.71
147
0.06
172
     1
176
   256
177
   256
178
     2
274
     4
283
     0
284
     7
340
D
371
    -1
372
    -1
  0
DIMSTYLE
105
39E
330
17
100
AcDbSymbolTableRecord
100
AcDbDimStyleTableRecord
  2
AM_ISO$7
 70
     0
  4
mm
 41
0.1
 42
0.05
 43
0.5
 44
0.1
 47
0.1
 48
0.1
 73
     0
 74
     0
 77
     1
 78
     7
 79
     2
140
0.24
141
0.0
146
0.71
147
0.06
172
     1
176
   256
177
   256
178
     2
274
     4
283
     0
284
     7
340
D
371
    -1
372
    -1
  0
DIMSTYLE
105
39F
330
17
100
AcDbSymbolTableRecord
100
AcDbDimStyleTableRecord
  2
AM_ISO$SF
 70
     0
  4
mm
 41
0.1
 42
0.05
 43
0.5
 44
0.1
 47
0.1
 48
0.1
 73
     0
 74
     0
 75
     1
 76
     1
 77
     1
 78
     7
 79
     2
140
0.12
141
0.0
146
0.71
147
0.06
172
     1
176
   256
177
   256
178
     2
274
     4
283
     0
284
     7
340
D
371
    -1
372
    -1
  0
DIMSTYLE
105
3A0
330
17
100
AcDbSymbolTableRecord
100
AcDbDimStyleTableRecord
  2
AM_ISO$SH
 70
     0
  4
mm
 41
0.1
 42
0.05
 43
0.5
 44
0.1
 47
0.1
 48
0.1
 73
     0
 74
     0
 75
     1
 76
     1
 77
     1
 78
     7
 79
     2
140
0.12
141
0.0
144
2.0
146
0.71
147
0.06
172
     1
173
     1
176
   256
177
   256
178
     2
274
     4
283
     0
284
     7
340
D
343
381
371
    -1
372
    -1
  0
DIMSTYLE
105
3A3
330
17
100
AcDbSymbolTableRecord
100
AcDbDimStyleTableRecord
  2
AM_JIS
 70
     0
  4
mm
 41
0.1
 42
0.05
 43
0.5
 44
0.1
 47
0.1
 48
0.1
 73
     0
 74
     0
 77
     3
 78
     7
 79
     2
140
0.12
141
0.0
146
0.71
147
0.06
172
     1
176
   256
177
   256
178
     2
274
     4
283
     0
284
     7
340
D
341
3A4
342
3A4
343
3A4
344
3A4
371
    -1
372
    -1
  0
DIMSTYLE
105
3AA
330
17
100
AcDbSymbolTableRecord
100
AcDbDimStyleTableRecord
  2
AM_JIS$3
 70
     0
  4
mm
 41
0.1
 42
0.05
 43
0.5
 44
0.1
 47
0.1
 48
0.1
 73
     0
 77
     3
 78
     7
 79
     2
140
0.12
141
0.0
146
0.71
147
0.06
176
   256
177
   256
178
     2
274
     4
283
     0
284
     7
288
     1
289
     0
340
D
341
3A4
342
3A4
343
3A4
344
3A4
371
    -1
372
    -1
  0
DIMSTYLE
105
3AB
330
17
100
AcDbSymbolTableRecord
100
AcDbDimStyleTableRecord
  2
AM_JIS$4
 70
     0
  4
mm
 41
0.1
 42
0.05
 43
0.5
 44
0.1
 47
0.1
 48
0.1
 73
     0
 77
     3
 78
     7
 79
     2
140
0.12
141
0.0
146
0.71
147
0.06
176
   256
177
   256
178
     2
274
     4
283
     0
284
     7
288
     1
289
     0
340
D
341
3A4
342
3A4
343
3A4
344
3A4
371
    -1
372
    -1
  0
DIMSTYLE
105
3AC
330
17
100
AcDbSymbolTableRecord
100
AcDbDimStyleTableRecord
  2
AM_JIS$6
 70
     0
  4
mm
 41
0.1
 42
0.05
 43
0.5
 44
0.1
 47
0.1
 48
0.1
 73
     0
 74
     0
 78
     7
 79
     2
140
0.12
141
0.0
146
0.71
147
0.06
172
     1
176
   256
177
   256
178
     2
274
     4
283
     0
284
     7
340
D
341
3A4
342
3A4
343
3A4
344
3A4
371
    -1
372
    -1
  0
DIMSTYLE
105
3AD
330
17
100
AcDbSymbolTableRecord
100
AcDbDimStyleTableRecord
  2
AM_JIS$7
 70
     0
  4
mm
 41
0.1
 42
0.05
 43
0.5
 44
0.1
 47
0.1
 48
0.1
 73
     0
 74
     0
 77
     3
 78
     7
 79
     2
140
0.24
141
0.0
146
0.71
147
0.06
172
     1
176
   256
177
   256
178
     2
274
     4
283
     0
284
     7
340
D
341
3A4
342
3A4
343
3A4
344
3A4
371
    -1
372
    -1
  0
DIMSTYLE
105
3AE
330
17
100
AcDbSymbolTableRecord
100
AcDbDimStyleTableRecord
  2
AM_JIS$SF
 70
     0
  4
mm
 41
0.1
 42
0.05
 43
0.5
 44
0.1
 47
0.1
 48
0.1
 73
     0
 74
     0
 75
     1
 76
     1
 77
     3
 78
     7
 79
     2
140
0.12
141
0.0
146
0.71
147
0.06
172
     1
176
   256
177
   256
178
     2
274
     4
283
     0
284
     7
340
D
341
3A4
342
3A4
343
3A4
344
3A4
371
    -1
372
    -1
  0
DIMSTYLE
105
3AF
330
17
100
AcDbSymbolTableRecord
100
AcDbDimStyleTableRecord
  2
AM_JIS$SH
 70
     0
  4
mm
 41
0.1
 42
0.05
 43
0.5
 44
0.1
 47
0.1
 48
0.1
 73
     0
 74
     0
 75
     1
 76
     1
 77
     3
 78
     7
 79
     2
140
0.12
141
0.0
144
2.0
146
0.71
147
0.06
172
     1
173
     1
176
   256
177
   256
178
     2
274
     4
283
     0
284
     7
340
D
341
3A4
342
3A4
343
381
344
3A4
371
    -1
372
    -1
  0
ENDTAB
  0
TABLE
  2
BLOCK_RECORD
  5
1
330
0
100
AcDbSymbolTable
 70
    27
  0
BLOCK_RECORD
  5
2
102
{ACAD_XDICTIONARY
360
3
102
}
330
1
100
AcDbSymbolTableRecord
100
AcDbBlockTableRecord
  2
*MODEL_SPACE
340
2B4
  0
BLOCK_RECORD
  5
8
330
1
100
AcDbSymbolTableRecord
100
AcDbBlockTableRecord
  2
*PAPER_SPACE
340
2B5
  0
BLOCK_RECORD
  5
381
330
1
100
AcDbSymbolTableRecord
100
AcDbBlockTableRecord
  2
GENAXEH
340
0
  0
BLOCK_RECORD
  5
3A4
330
1
100
AcDbSymbolTableRecord
100
AcDbBlockTableRecord
  2
_Open30
340
0
  0
BLOCK_RECORD
  5
43A
330
1
100
AcDbSymbolTableRecord
100
AcDbBlockTableRecord
  2
*D3
340
0
  0
BLOCK_RECORD
  5
446
330
1
100
AcDbSymbolTableRecord
100
AcDbBlockTableRecord
  2
*D4
340
0
  0
BLOCK_RECORD
  5
452
330
1
100
AcDbSymbolTableRecord
100
AcDbBlockTableRecord
  2
*D5
340
0
  0
BLOCK_RECORD
  5
45E
330
1
100
AcDbSymbolTableRecord
100
AcDbBlockTableRecord
  2
*D6
340
0
  0
BLOCK_RECORD
  5
46A
330
1
100
AcDbSymbolTableRecord
100
AcDbBlockTableRecord
  2
*D7
340
0
  0
BLOCK_RECORD
  5
476
330
1
100
AcDbSymbolTableRecord
100
AcDbBlockTableRecord
  2
*D8
340
0
  0
BLOCK_RECORD
  5
482
330
1
100
AcDbSymbolTableRecord
100
AcDbBlockTableRecord
  2
*D9
340
0
  0
BLOCK_RECORD
  5
48E
330
1
100
AcDbSymbolTableRecord
100
AcDbBlockTableRecord
  2
*D10
340
0
  0
BLOCK_RECORD
  5
49A
330
1
100
AcDbSymbolTableRecord
100
AcDbBlockTableRecord
  2
*D11
340
0
  0
BLOCK_RECORD
  5
4A6
330
1
100
AcDbSymbolTableRecord
100
AcDbBlockTableRecord
  2
*D12
340
0
  0
BLOCK_RECORD
  5
4AE
330
1
100
AcDbSymbolTableRecord
100
AcDbBlockTableRecord
  2
*D13
340
0
  0
BLOCK_RECORD
  5
4BC
330
1
100
AcDbSymbolTableRecord
100
AcDbBlockTableRecord
  2
*D14
340
0
  0
BLOCK_RECORD
  5
4CA
330
1
100
AcDbSymbolTableRecord
100
AcDbBlockTableRecord
  2
*D15
340
0
  0
BLOCK_RECORD
  5
4D5
330
1
100
AcDbSymbolTableRecord
100
AcDbBlockTableRecord
  2
*D16
340
0
  0
BLOCK_RECORD
  5
4E1
330
1
100
AcDbSymbolTableRecord
100
AcDbBlockTableRecord
  2
*D17
340
0
  0
BLOCK_RECORD
  5
4ED
330
1
100
AcDbSymbolTableRecord
100
AcDbBlockTableRecord
  2
*D18
340
0
  0
BLOCK_RECORD
  5
4F9
330
1
100
AcDbSymbolTableRecord
100
AcDbBlockTableRecord
  2
*D19
340
0
  0
BLOCK_RECORD
  5
507
330
1
100
AcDbSymbolTableRecord
100
AcDbBlockTableRecord
  2
*D20
340
0
  0
BLOCK_RECORD
  5
512
330
1
100
AcDbSymbolTableRecord
100
AcDbBlockTableRecord
  2
*D21
340
0
  0
BLOCK_RECORD
  5
51E
330
1
100
AcDbSymbolTableRecord
100
AcDbBlockTableRecord
  2
*D22
340
0
  0
ENDTAB
  0
ENDSEC
  0
SECTION
  2
BLOCKS
  0
BLOCK
  5
4
330
2
100
AcDbEntity
  8
0
100
AcDbBlockBegin
  2
*MODEL_SPACE
 70
     0
 10
0.0
 20
0.0
 30
0.0
  3
*MODEL_SPACE
  1

  0
ENDBLK
  5
7
330
2
100
AcDbEntity
  8
0
100
AcDbBlockEnd
  0
BLOCK
  5
9
330
8
100
AcDbEntity
 67
     1
  8
0
100
AcDbBlockBegin
  2
*PAPER_SPACE
 70
     0
 10
0.0
 20
0.0
 30
0.0
  3
*PAPER_SPACE
  1

  0
ENDBLK
  5
A
330
8
100
AcDbEntity
 67
     1
  8
0
100
AcDbBlockEnd
  0
BLOCK
  5
383
330
381
100
AcDbEntity
  8
0
 48
10.0
100
AcDbBlockBegin
  2
GENAXEH
 70
     0
 10
0.0
 20
0.0
 30
0.0
  3
GENAXEH
  1

  0
LINE
  5
382
330
381
100
AcDbEntity
  8
0
100
AcDbLine
 10
-1.0
 20
0.0
 30
0.0
 11
1.0
 21
0.0
 31
0.0
  0
ENDBLK
  5
384
330
381
100
AcDbEntity
  8
0
 48
10.0
100
AcDbBlockEnd
  0
BLOCK
  5
3A8
330
3A4
100
AcDbEntity
  8
0
 48
10.0
100
AcDbBlockBegin
  2
_Open30
 70
     0
 10
0.0
 20
0.0
 30
0.0
  3
_Open30
  1

  0
LINE
  5
3A5
330
3A4
100
AcDbEntity
  8
0
  6
ByBlock
 62
     0
370
    -2
100
AcDbLine
 10
-1.0
 20
0.26794919
 30
0.0
 11
0.0
 21
0.0
 31
0.0
  0
LINE
  5
3A6
330
3A4
100
AcDbEntity
  8
0
  6
ByBlock
 62
     0
370
    -2
100
AcDbLine
 10
0.0
 20
0.0
 30
0.0
 11
-1.0
 21
-0.26794919
 31
0.0
  0
LINE
  5
3A7
330
3A4
100
AcDbEntity
  8
0
  6
ByBlock
 62
     0
370
    -2
100
AcDbLine
 10
0.0
 20
0.0
 30
0.0
 11
-1.0
 21
0.0
 31
0.0
  0
ENDBLK
  5
3A9
330
3A4
100
AcDbEntity
  8
0
 48
10.0
100
AcDbBlockEnd
  0
BLOCK
  5
43B
330
43A
100
AcDbEntity
  8
0
 48
10.0
100
AcDbBlockBegin
  2
*D3
 70
     1
 10
0.0
 20
0.0
 30
0.0
  3
*D3
  1

  0
LINE
  5
52E
330
43A
100
AcDbEntity
  8
BEM
370
    -2
100
AcDbLine
 10
716.4755745544725
 20
381.7097097217534
 30
0.0
 11
716.4755745544725
 21
517.0106585432774
 31
0.0
  0
LINE
  5
52F
330
43A
100
AcDbEntity
  8
BEM
370
    -2
100
AcDbLine
 10
401.4755745544729
 20
301.4597097217534
 30
0.0
 11
401.4755745544729
 21
517.0106585432774
 31
0.0
  0
LINE
  5
530
330
43A
100
AcDbEntity
  8
BEM
370
    -2
100
AcDbLine
 10
709.4755745544725
 20
515.7606585432774
 30
0.0
 11
408.4755745544728
 21
515.7606585432774
 31
0.0
  0
SOLID
  5
531
330
43A
100
AcDbEntity
  8
BEM
100
AcDbTrace
 10
709.4755745544725
 20
516.9273252099441
 30
0.0
 11
709.4755745544725
 21
514.5939918766108
 31
0.0
 12
716.4755745544725
 22
515.7606585432774
 32
0.0
 13
716.4755745544725
 23
515.7606585432774
 33
0.0
  0
SOLID
  5
532
330
43A
100
AcDbEntity
  8
BEM
100
AcDbTrace
 10
408.4755745544728
 20
516.9273252099441
 30
0.0
 11
408.4755745544728
 21
514.5939918766108
 31
0.0
 12
401.4755745544729
 22
515.7606585432774
 32
0.0
 13
401.4755745544729
 23
515.7606585432774
 33
0.0
  0
MTEXT
  5
533
330
43A
100
AcDbEntity
  8
BEM
100
AcDbMText
 10
558.9755745544727
 20
524.7606585432775
 30
0.0
 40
10.0
 41
0.0
 71
     5
 72
     1
  1
\A1;315
 73
     1
 44
1.0
  0
POINT
  5
534
330
43A
100
AcDbEntity
  8
DEFPOINTS
 62
     0
100
AcDbPoint
 10
716.4755745544725
 20
381.7097097217534
 30
0.0
  0
POINT
  5
535
330
43A
100
AcDbEntity
  8
DEFPOINTS
 62
     0
100
AcDbPoint
 10
401.4755745544729
 20
301.4597097217534
 30
0.0
  0
POINT
  5
536
330
43A
100
AcDbEntity
  8
DEFPOINTS
 62
     0
100
AcDbPoint
 10
401.4755745544729
 20
515.7606585432774
 30
0.0
  0
ENDBLK
  5
43C
330
43A
100
AcDbEntity
  8
0
 48
10.0
100
AcDbBlockEnd
  0
BLOCK
  5
447
330
446
100
AcDbEntity
  8
0
 48
10.0
100
AcDbBlockBegin
  2
*D4
 70
     1
 10
0.0
 20
0.0
 30
0.0
  3
*D4
  1

  0
LINE
  5
537
330
446
100
AcDbEntity
  8
BEM
370
    -2
100
AcDbLine
 10
608.4755745544725
 20
212.9214379384002
 30
0.0
 11
608.4755745544725
 21
177.1810104296751
 31
0.0
  0
LINE
  5
538
330
446
100
AcDbEntity
  8
BEM
370
    -2
100
AcDbLine
 10
456.4755745544729
 20
211.4597097217534
 30
0.0
 11
456.4755745544729
 21
177.1810104296751
 31
0.0
  0
LINE
  5
539
330
446
100
AcDbEntity
  8
BEM
370
    -2
100
AcDbLine
 10
601.4755745544725
 20
178.4310104296751
 30
0.0
 11
463.475574554473
 21
178.4310104296751
 31
0.0
  0
SOLID
  5
53A
330
446
100
AcDbEntity
  8
BEM
100
AcDbTrace
 10
601.4755745544725
 20
179.5976770963417
 30
0.0
 11
601.4755745544725
 21
177.2643437630084
 31
0.0
 12
608.4755745544725
 22
178.4310104296751
 32
0.0
 13
608.4755745544725
 23
178.4310104296751
 33
0.0
  0
SOLID
  5
53B
330
446
100
AcDbEntity
  8
BEM
100
AcDbTrace
 10
463.475574554473
 20
179.5976770963417
 30
0.0
 11
463.475574554473
 21
177.2643437630084
 31
0.0
 12
456.4755745544729
 22
178.4310104296751
 32
0.0
 13
456.4755745544729
 23
178.4310104296751
 33
0.0
  0
MTEXT
  5
53C
330
446
100
AcDbEntity
  8
BEM
100
AcDbMText
 10
532.4755745544727
 20
187.4310104296751
 30
0.0
 40
10.0
 41
0.0
 71
     5
 72
     1
  1
\A1;152
 73
     1
 44
1.0
  0
POINT
  5
53D
330
446
100
AcDbEntity
  8
DEFPOINTS
 62
     0
100
AcDbPoint
 10
608.4755745544725
 20
212.9214379384002
 30
0.0
  0
POINT
  5
53E
330
446
100
AcDbEntity
  8
DEFPOINTS
 62
     0
100
AcDbPoint
 10
456.4755745544729
 20
211.4597097217534
 30
0.0
  0
POINT
  5
53F
330
446
100
AcDbEntity
  8
DEFPOINTS
 62
     0
100
AcDbPoint
 10
456.4755745544729
 20
178.4310104296751
 30
0.0
  0
ENDBLK
  5
448
330
446
100
AcDbEntity
  8
0
 48
10.0
100
AcDbBlockEnd
  0
BLOCK
  5
453
330
452
100
AcDbEntity
  8
0
 48
10.0
100
AcDbBlockBegin
  2
*D5
 70
     1
 10
0.0
 20
0.0
 30
0.0
  3
*D5
  1

  0
LINE
  5
540
330
452
100
AcDbEntity
  8
BEM
370
    -2
100
AcDbLine
 10
456.4755745544712
 20
369.4597097217534
 30
0.0
 11
456.4755745544712
 21
485.2759759672405
 31
0.0
  0
LINE
  5
541
330
452
100
AcDbEntity
  8
BEM
370
    -2
100
AcDbLine
 10
716.4755745544725
 20
381.7097097217534
 30
0.0
 11
716.4755745544725
 21
485.2759759672405
 31
0.0
  0
LINE
  5
542
330
452
100
AcDbEntity
  8
BEM
370
    -2
100
AcDbLine
 10
463.4755745544712
 20
484.0259759672405
 30
0.0
 11
709.4755745544725
 21
484.0259759672405
 31
0.0
  0
SOLID
  5
543
330
452
100
AcDbEntity
  8
BEM
100
AcDbTrace
 10
463.4755745544712
 20
485.1926426339073
 30
0.0
 11
463.4755745544712
 21
482.8593093005738
 31
0.0
 12
456.4755745544712
 22
484.0259759672405
 32
0.0
 13
456.4755745544712
 23
484.0259759672405
 33
0.0
  0
SOLID
  5
544
330
452
100
AcDbEntity
  8
BEM
100
AcDbTrace
 10
709.4755745544725
 20
485.1926426339073
 30
0.0
 11
709.4755745544725
 21
482.8593093005738
 31
0.0
 12
716.4755745544725
 22
484.0259759672405
 32
0.0
 13
716.4755745544725
 23
484.0259759672405
 33
0.0
  0
MTEXT
  5
545
330
452
100
AcDbEntity
  8
BEM
100
AcDbMText
 10
586.4755745544719
 20
493.0259759672406
 30
0.0
 40
10.0
 41
0.0
 71
     5
 72
     1
  1
\A1;260
 73
     1
 44
1.0
  0
POINT
  5
546
330
452
100
AcDbEntity
  8
DEFPOINTS
 62
     0
100
AcDbPoint
 10
456.4755745544712
 20
369.4597097217534
 30
0.0
  0
POINT
  5
547
330
452
100
AcDbEntity
  8
DEFPOINTS
 62
     0
100
AcDbPoint
 10
716.4755745544725
 20
381.7097097217534
 30
0.0
  0
POINT
  5
548
330
452
100
AcDbEntity
  8
DEFPOINTS
 62
     0
100
AcDbPoint
 10
716.4755745544725
 20
484.0259759672405
 30
0.0
  0
ENDBLK
  5
454
330
452
100
AcDbEntity
  8
0
 48
10.0
100
AcDbBlockEnd
  0
BLOCK
  5
45F
330
45E
100
AcDbEntity
  8
0
 48
10.0
100
AcDbBlockBegin
  2
*D6
 70
     1
 10
0.0
 20
0.0
 30
0.0
  3
*D6
  1

  0
LINE
  5
549
330
45E
100
AcDbEntity
  8
BEM
370
    -2
100
AcDbLine
 10
537.4755745544725
 20
391.7097097217535
 30
0.0
 11
301.3452828062021
 21
391.7097097217535
 31
0.0
  0
LINE
  5
54A
330
45E
100
AcDbEntity
  8
BEM
370
    -2
100
AcDbLine
 10
456.4755745544729
 20
211.4597097217534
 30
0.0
 11
301.345282806202
 21
211.4597097217535
 31
0.0
  0
LINE
  5
54B
330
45E
100
AcDbEntity
  8
BEM
370
    -2
100
AcDbLine
 10
302.5952828062021
 20
384.7097097217536
 30
0.0
 11
302.595282806202
 21
218.4597097217535
 31
0.0
  0
SOLID
  5
54C
330
45E
100
AcDbEntity
  8
BEM
100
AcDbTrace
 10
301.4286161395354
 20
384.7097097217536
 30
0.0
 11
303.7619494728688
 21
384.7097097217536
 31
0.0
 12
302.5952828062021
 22
391.7097097217535
 32
0.0
 13
302.5952828062021
 23
391.7097097217535
 33
0.0
  0
SOLID
  5
54D
330
45E
100
AcDbEntity
  8
BEM
100
AcDbTrace
 10
301.4286161395353
 20
218.4597097217535
 30
0.0
 11
303.7619494728687
 21
218.4597097217535
 31
0.0
 12
302.595282806202
 22
211.4597097217535
 32
0.0
 13
302.595282806202
 23
211.4597097217535
 33
0.0
  0
MTEXT
  5
54E
330
45E
100
AcDbEntity
  8
BEM
100
AcDbMText
 10
293.595282806202
 20
301.5847097217535
 30
0.0
 40
10.0
 41
0.0
 71
     5
 72
     1
  1
\A1;180
 11
0.0000000000000001
 21
1.0
 31
0.0
 73
     1
 44
1.0
  0
POINT
  5
54F
330
45E
100
AcDbEntity
  8
DEFPOINTS
 62
     0
100
AcDbPoint
 10
537.4755745544725
 20
391.7097097217535
 30
0.0
  0
POINT
  5
550
330
45E
100
AcDbEntity
  8
DEFPOINTS
 62
     0
100
AcDbPoint
 10
456.4755745544729
 20
211.4597097217534
 30
0.0
  0
POINT
  5
551
330
45E
100
AcDbEntity
  8
DEFPOINTS
 62
     0
100
AcDbPoint
 10
302.595282806202
 20
211.4597097217535
 30
0.0
  0
ENDBLK
  5
460
330
45E
100
AcDbEntity
  8
0
 48
10.0
100
AcDbBlockEnd
  0
BLOCK
  5
46B
330
46A
100
AcDbEntity
  8
0
 48
10.0
100
AcDbBlockBegin
  2
*D7
 70
     1
 10
0.0
 20
0.0
 30
0.0
  3
*D7
  1

  0
LINE
  5
552
330
46A
100
AcDbEntity
  8
BEM
370
    -2
100
AcDbLine
 10
190.8008403299696
 20
325.7097097217534
 30
0.0
 11
249.7865133363379
 21
325.7097097217534
 31
0.0
  0
LINE
  5
553
330
46A
100
AcDbEntity
  8
BEM
370
    -2
100
AcDbLine
 10
207.1145559232439
 20
290.4597097217534
 30
0.0
 11
249.7865133363379
 21
290.4597097217534
 31
0.0
  0
LINE
  5
554
330
46A
100
AcDbEntity
  8
BEM
370
    -2
100
AcDbLine
 10
248.5365133363378
 20
318.7097097217534
 30
0.0
 11
248.5365133363378
 21
297.4597097217534
 31
0.0
  0
SOLID
  5
555
330
46A
100
AcDbEntity
  8
BEM
100
AcDbTrace
 10
247.3698466696712
 20
318.7097097217534
 30
0.0
 11
249.7031800030045
 21
318.7097097217534
 31
0.0
 12
248.5365133363379
 22
325.7097097217534
 32
0.0
 13
248.5365133363379
 23
325.7097097217534
 33
0.0
  0
SOLID
  5
556
330
46A
100
AcDbEntity
  8
BEM
100
AcDbTrace
 10
247.3698466696712
 20
297.4597097217534
 30
0.0
 11
249.7031800030045
 21
297.4597097217534
 31
0.0
 12
248.5365133363378
 22
290.4597097217534
 32
0.0
 13
248.5365133363378
 23
290.4597097217534
 33
0.0
  0
MTEXT
  5
557
330
46A
100
AcDbEntity
  8
BEM
100
AcDbMText
 10
239.5365133363378
 20
308.0847097217534
 30
0.0
 40
10.0
 41
0.0
 71
     5
 72
     1
  1
\A1;35.2
 11
0.0000000000000001
 21
1.0
 31
0.0
 73
     1
 44
1.0
  0
POINT
  5
558
330
46A
100
AcDbEntity
  8
DEFPOINTS
 62
     0
100
AcDbPoint
 10
190.8008403299696
 20
325.7097097217534
 30
0.0
  0
POINT
  5
559
330
46A
100
AcDbEntity
  8
DEFPOINTS
 62
     0
100
AcDbPoint
 10
207.1145559232439
 20
290.4597097217534
 30
0.0
  0
POINT
  5
55A
330
46A
100
AcDbEntity
  8
DEFPOINTS
 62
     0
100
AcDbPoint
 10
248.5365133363378
 20
290.4597097217534
 30
0.0
  0
ENDBLK
  5
46C
330
46A
100
AcDbEntity
  8
0
 48
10.0
100
AcDbBlockEnd
  0
BLOCK
  5
477
330
476
100
AcDbEntity
  8
0
 48
10.0
100
AcDbBlockBegin
  2
*D8
 70
     1
 10
0.0
 20
0.0
 30
0.0
  3
*D8
  1

  0
LINE
  5
55B
330
476
100
AcDbEntity
  8
BEM
370
    -2
100
AcDbLine
 10
456.4755745544715
 20
345.4597097217534
 30
0.0
 11
333.0283513396465
 21
345.4597097217534
 31
0.0
  0
LINE
  5
55C
330
476
100
AcDbEntity
  8
BEM
370
    -2
100
AcDbLine
 10
397.6457949403625
 20
235.4597097217534
 30
0.0
 11
333.0283513396465
 21
235.4597097217534
 31
0.0
  0
LINE
  5
55D
330
476
100
AcDbEntity
  8
BEM
370
    -2
100
AcDbLine
 10
334.2783513396465
 20
338.4597097217534
 30
0.0
 11
334.2783513396465
 21
242.4597097217533
 31
0.0
  0
SOLID
  5
55E
330
476
100
AcDbEntity
  8
BEM
100
AcDbTrace
 10
333.1116846729798
 20
338.4597097217534
 30
0.0
 11
335.4450180063131
 21
338.4597097217534
 31
0.0
 12
334.2783513396465
 22
345.4597097217534
 32
0.0
 13
334.2783513396465
 23
345.4597097217534
 33
0.0
  0
SOLID
  5
55F
330
476
100
AcDbEntity
  8
BEM
100
AcDbTrace
 10
333.1116846729798
 20
242.4597097217533
 30
0.0
 11
335.4450180063131
 21
242.4597097217533
 31
0.0
 12
334.2783513396465
 22
235.4597097217534
 32
0.0
 13
334.2783513396465
 23
235.4597097217534
 33
0.0
  0
MTEXT
  5
560
330
476
100
AcDbEntity
  8
BEM
100
AcDbMText
 10
325.2783513396464
 20
290.4597097217535
 30
0.0
 40
10.0
 41
0.0
 71
     5
 72
     1
  1
\A1;%%c110
 11
0.0000000000000001
 21
1.0
 31
0.0
 73
     1
 44
1.0
  0
POINT
  5
561
330
476
100
AcDbEntity
  8
DEFPOINTS
 62
     0
100
AcDbPoint
 10
456.4755745544715
 20
345.4597097217534
 30
0.0
  0
POINT
  5
562
330
476
100
AcDbEntity
  8
DEFPOINTS
 62
     0
100
AcDbPoint
 10
397.6457949403625
 20
235.4597097217534
 30
0.0
  0
POINT
  5
563
330
476
100
AcDbEntity
  8
DEFPOINTS
 62
     0
100
AcDbPoint
 10
334.2783513396465
 20
235.4597097217534
 30
0.0
  0
ENDBLK
  5
478
330
476
100
AcDbEntity
  8
0
 48
10.0
100
AcDbBlockEnd
  0
BLOCK
  5
483
330
482
100
AcDbEntity
  8
0
 48
10.0
100
AcDbBlockBegin
  2
*D9
 70
     1
 10
0.0
 20
0.0
 30
0.0
  3
*D9
  1

  0
LINE
  5
564
330
482
100
AcDbEntity
  8
BEM
370
    -2
100
AcDbLine
 10
161.2825615612808
 20
222.6519491141471
 30
0.0
 11
161.2825615612808
 21
175.9310104296751
 31
0.0
  0
LINE
  5
565
330
482
100
AcDbEntity
  8
BEM
370
    -2
100
AcDbLine
 10
85.28256156128083
 20
222.6519491141471
 30
0.0
 11
85.28256156128083
 21
175.9310104296751
 31
0.0
  0
LINE
  5
566
330
482
100
AcDbEntity
  8
BEM
370
    -2
100
AcDbLine
 10
154.2825615612808
 20
177.1810104296751
 30
0.0
 11
92.28256156128082
 21
177.1810104296751
 31
0.0
  0
SOLID
  5
567
330
482
100
AcDbEntity
  8
BEM
100
AcDbTrace
 10
154.2825615612808
 20
178.3476770963417
 30
0.0
 11
154.2825615612808
 21
176.0143437630084
 31
0.0
 12
161.2825615612808
 22
177.1810104296751
 32
0.0
 13
161.2825615612808
 23
177.1810104296751
 33
0.0
  0
SOLID
  5
568
330
482
100
AcDbEntity
  8
BEM
100
AcDbTrace
 10
92.28256156128082
 20
178.3476770963417
 30
0.0
 11
92.28256156128082
 21
176.0143437630084
 31
0.0
 12
85.28256156128083
 22
177.1810104296751
 32
0.0
 13
85.28256156128083
 23
177.1810104296751
 33
0.0
  0
MTEXT
  5
569
330
482
100
AcDbEntity
  8
BEM
100
AcDbMText
 10
123.2825615612808
 20
186.1810104296751
 30
0.0
 40
10.0
 41
0.0
 71
     5
 72
     1
  1
\A1;76
 73
     1
 44
1.0
  0
POINT
  5
56A
330
482
100
AcDbEntity
  8
DEFPOINTS
 62
     0
100
AcDbPoint
 10
161.2825615612808
 20
222.6519491141471
 30
0.0
  0
POINT
  5
56B
330
482
100
AcDbEntity
  8
DEFPOINTS
 62
     0
100
AcDbPoint
 10
85.28256156128083
 20
222.6519491141471
 30
0.0
  0
POINT
  5
56C
330
482
100
AcDbEntity
  8
DEFPOINTS
 62
     0
100
AcDbPoint
 10
85.28256156128083
 20
177.1810104296751
 30
0.0
  0
ENDBLK
  5
484
330
482
100
AcDbEntity
  8
0
 48
10.0
100
AcDbBlockEnd
  0
BLOCK
  5
48F
330
48E
100
AcDbEntity
  8
0
 48
10.0
100
AcDbBlockBegin
  2
*D10
 70
     1
 10
0.0
 20
0.0
 30
0.0
  3
*D10
  1

  0
LINE
  5
56D
330
48E
100
AcDbEntity
  8
BEM
370
    -2
100
AcDbLine
 10
402.4755745544728
 20
302.4597097217534
 30
0.0
 11
367.075825329321
 21
302.4597097217534
 31
0.0
  0
LINE
  5
56E
330
48E
100
AcDbEntity
  8
BEM
370
    -2
100
AcDbLine
 10
402.4755745544728
 20
278.4597097217534
 30
0.0
 11
367.075825329321
 21
278.4597097217534
 31
0.0
  0
LINE
  5
56F
330
48E
100
AcDbEntity
  8
BEM
370
    -2
100
AcDbLine
 10
368.325825329321
 20
295.4597097217534
 30
0.0
 11
368.325825329321
 21
285.4597097217535
 31
0.0
  0
SOLID
  5
570
330
48E
100
AcDbEntity
  8
BEM
100
AcDbTrace
 10
367.1591586626543
 20
295.4597097217534
 30
0.0
 11
369.4924919959877
 21
295.4597097217534
 31
0.0
 12
368.325825329321
 22
302.4597097217534
 32
0.0
 13
368.325825329321
 23
302.4597097217534
 33
0.0
  0
SOLID
  5
571
330
48E
100
AcDbEntity
  8
BEM
100
AcDbTrace
 10
367.1591586626543
 20
285.4597097217535
 30
0.0
 11
369.4924919959877
 21
285.4597097217535
 31
0.0
 12
368.325825329321
 22
278.4597097217534
 32
0.0
 13
368.325825329321
 23
278.4597097217534
 33
0.0
  0
MTEXT
  5
572
330
48E
100
AcDbEntity
  8
BEM
100
AcDbMText
 10
359.325825329321
 20
290.4597097217535
 30
0.0
 40
10.0
 41
0.0
 71
     5
 72
     1
  1
\A1;%%c24
 11
0.0000000000000001
 21
1.0
 31
0.0
 73
     1
 44
1.0
  0
POINT
  5
573
330
48E
100
AcDbEntity
  8
DEFPOINTS
 62
     0
100
AcDbPoint
 10
402.4755745544728
 20
302.4597097217534
 30
0.0
  0
POINT
  5
574
330
48E
100
AcDbEntity
  8
DEFPOINTS
 62
     0
100
AcDbPoint
 10
402.4755745544728
 20
278.4597097217534
 30
0.0
  0
POINT
  5
575
330
48E
100
AcDbEntity
  8
DEFPOINTS
 62
     0
100
AcDbPoint
 10
368.325825329321
 20
278.4597097217534
 30
0.0
  0
ENDBLK
  5
490
330
48E
100
AcDbEntity
  8
0
 48
10.0
100
AcDbBlockEnd
  0
BLOCK
  5
49B
330
49A
100
AcDbEntity
  8
0
 48
10.0
100
AcDbBlockBegin
  2
*D11
 70
     1
 10
0.0
 20
0.0
 30
0.0
  3
*D11
  1

  0
LINE
  5
576
330
49A
100
AcDbEntity
  8
BEM
370
    -2
100
AcDbLine
 10
451.4755745544729
 20
276.4597097217534
 30
0.0
 11
451.4755745544729
 21
177.1810104296751
 31
0.0
  0
LINE
  5
577
330
49A
100
AcDbEntity
  8
BEM
370
    -2
100
AcDbLine
 10
401.4755745544729
 20
290.4597097217534
 30
0.0
 11
401.4755745544729
 21
177.1810104296751
 31
0.0
  0
LINE
  5
578
330
49A
100
AcDbEntity
  8
BEM
370
    -2
100
AcDbLine
 10
444.4755745544728
 20
178.4310104296751
 30
0.0
 11
408.4755745544728
 21
178.4310104296751
 31
0.0
  0
SOLID
  5
579
330
49A
100
AcDbEntity
  8
BEM
100
AcDbTrace
 10
444.4755745544728
 20
179.5976770963417
 30
0.0
 11
444.4755745544728
 21
177.2643437630084
 31
0.0
 12
451.4755745544729
 22
178.4310104296751
 32
0.0
 13
451.4755745544729
 23
178.4310104296751
 33
0.0
  0
SOLID
  5
57A
330
49A
100
AcDbEntity
  8
BEM
100
AcDbTrace
 10
408.4755745544728
 20
179.5976770963417
 30
0.0
 11
408.4755745544728
 21
177.2643437630084
 31
0.0
 12
401.4755745544729
 22
178.4310104296751
 32
0.0
 13
401.4755745544729
 23
178.4310104296751
 33
0.0
  0
MTEXT
  5
57B
330
49A
100
AcDbEntity
  8
BEM
100
AcDbMText
 10
426.4755745544729
 20
187.4310104296751
 30
0.0
 40
10.0
 41
0.0
 71
     5
 72
     1
  1
\A1;50
 73
     1
 44
1.0
  0
POINT
  5
57C
330
49A
100
AcDbEntity
  8
DEFPOINTS
 62
     0
100
AcDbPoint
 10
451.4755745544729
 20
276.4597097217534
 30
0.0
  0
POINT
  5
57D
330
49A
100
AcDbEntity
  8
DEFPOINTS
 62
     0
100
AcDbPoint
 10
401.4755745544729
 20
290.4597097217534
 30
0.0
  0
POINT
  5
57E
330
49A
100
AcDbEntity
  8
DEFPOINTS
 62
     0
100
AcDbPoint
 10
401.4755745544729
 20
178.4310104296751
 30
0.0
  0
ENDBLK
  5
49C
330
49A
100
AcDbEntity
  8
0
 48
10.0
100
AcDbBlockEnd
  0
BLOCK
  5
4A7
330
4A6
100
AcDbEntity
  8
0
 48
10.0
100
AcDbBlockBegin
  2
*D12
 70
     1
 10
0.0
 20
0.0
 30
0.0
  3
*D12
  1

  0
LINE
  5
57F
330
4A6
100
AcDbEntity
  8
BEM
370
    -2
100
AcDbLine
 10
407.6755745034136
 20
232.7094523425213
 30
0.0
 11
446.144389117923
 21
272.9560889361135
 31
0.0
  0
MTEXT
  5
580
330
4A6
100
AcDbEntity
  8
BEM
100
AcDbMText
 10
414.4622992642618
 20
252.8351740789091
 30
0.0
 40
10.0
 41
0.0
 71
     5
 72
     1
  1
\A1;R1.6
 11
0.6909602660277337
 21
0.7228927380814416
 31
0.0
 73
     1
 44
1.0
  0
SOLID
  5
581
330
4A6
100
AcDbEntity
  8
BEM
100
AcDbTrace
 10
445.301014256828
 20
273.7622092464793
 30
0.0
 11
446.987763979018
 21
272.1499686257479
 31
0.0
 12
450.9811109801172
 22
278.0163381026836
 32
0.0
 13
450.9811109801172
 23
278.0163381026836
 33
0.0
  0
POINT
  5
582
330
4A6
100
AcDbEntity
  8
DEFPOINTS
 62
     0
100
AcDbPoint
 10
450.9811109801172
 20
278.0163381026836
 30
0.0
  0
POINT
  5
583
330
4A6
100
AcDbEntity
  8
DEFPOINTS
 62
     0
100
AcDbPoint
 10
449.8755745544729
 20
276.8597097217535
 30
0.0
  0
ENDBLK
  5
4A8
330
4A6
100
AcDbEntity
  8
0
 48
10.0
100
AcDbBlockEnd
  0
BLOCK
  5
4AF
330
4AE
100
AcDbEntity
  8
0
 48
10.0
100
AcDbBlockBegin
  2
*D13
 70
     1
 10
0.0
 20
0.0
 30
0.0
  3
*D13
  1

  0
LINE
  5
584
330
4AE
100
AcDbEntity
  8
BEM
370
    -2
100
AcDbLine
 10
468.4755745544729
 20
366.9597097217534
 30
0.0
 11
468.4755745544729
 21
452.6822958701188
 31
0.0
  0
LINE
  5
585
330
4AE
100
AcDbEntity
  8
BEM
370
    -2
100
AcDbLine
 10
456.4755745544712
 20
369.4597097217534
 30
0.0
 11
456.4755745544712
 21
452.6822958701188
 31
0.0
  0
LINE
  5
586
330
4AE
100
AcDbEntity
  8
BEM
370
    -2
100
AcDbLine
 10
449.4755745544712
 20
451.4322958701188
 30
0.0
 11
442.4755745544712
 21
451.4322958701188
 31
0.0
  0
LINE
  5
587
330
4AE
100
AcDbEntity
  8
BEM
370
    -2
100
AcDbLine
 10
475.4755745544729
 20
451.4322958701188
 30
0.0
 11
505.2374793163777
 21
451.4322958701188
 31
0.0
  0
LINE
  5
588
330
4AE
100
AcDbEntity
  8
BEM
370
    -2
100
AcDbLine
 10
456.4755745544712
 20
451.4322958701188
 30
0.0
 11
468.4755745544729
 21
451.4322958701188
 31
0.0
  0
SOLID
  5
589
330
4AE
100
AcDbEntity
  8
BEM
100
AcDbTrace
 10
449.4755745544712
 20
452.5989625367855
 30
0.0
 11
449.4755745544712
 21
450.2656292034521
 31
0.0
 12
456.4755745544712
 22
451.4322958701188
 32
0.0
 13
456.4755745544712
 23
451.4322958701188
 33
0.0
  0
SOLID
  5
58A
330
4AE
100
AcDbEntity
  8
BEM
100
AcDbTrace
 10
475.4755745544729
 20
452.5989625367855
 30
0.0
 11
475.4755745544729
 21
450.2656292034521
 31
0.0
 12
468.4755745544729
 22
451.4322958701188
 32
0.0
 13
468.4755745544729
 23
451.4322958701188
 33
0.0
  0
MTEXT
  5
58B
330
4AE
100
AcDbEntity
  8
BEM
100
AcDbMText
 10
493.8565269354253
 20
460.4322958701188
 30
0.0
 40
10.0
 41
0.0
 71
     5
 72
     1
  1
\A1;12
 73
     1
 44
1.0
  0
POINT
  5
58C
330
4AE
100
AcDbEntity
  8
DEFPOINTS
 62
     0
100
AcDbPoint
 10
468.4755745544729
 20
366.9597097217534
 30
0.0
  0
POINT
  5
58D
330
4AE
100
AcDbEntity
  8
DEFPOINTS
 62
     0
100
AcDbPoint
 10
456.4755745544712
 20
369.4597097217534
 30
0.0
  0
POINT
  5
58E
330
4AE
100
AcDbEntity
  8
DEFPOINTS
 62
     0
100
AcDbPoint
 10
456.4755745544712
 20
451.4322958701188
 30
0.0
  0
ENDBLK
  5
4B0
330
4AE
100
AcDbEntity
  8
0
 48
10.0
100
AcDbBlockEnd
  0
BLOCK
  5
4BD
330
4BC
100
AcDbEntity
  8
0
 48
10.0
100
AcDbBlockBegin
  2
*D14
 70
     1
 10
0.0
 20
0.0
 30
0.0
  3
*D14
  1

  0
LINE
  5
58F
330
4BC
100
AcDbEntity
  8
BEM
370
    -2
100
AcDbLine
 10
460.4755745544715
 20
345.4597097217534
 30
0.0
 11
460.4755745544715
 21
420.1603272242594
 31
0.0
  0
LINE
  5
590
330
4BC
100
AcDbEntity
  8
BEM
370
    -2
100
AcDbLine
 10
456.4755745544712
 20
369.4597097217534
 30
0.0
 11
456.4755745544712
 21
420.1603272242594
 31
0.0
  0
LINE
  5
591
330
4BC
100
AcDbEntity
  8
BEM
370
    -2
100
AcDbLine
 10
467.4755745544715
 20
418.9103272242594
 30
0.0
 11
474.4755745544715
 21
418.9103272242594
 31
0.0
  0
LINE
  5
592
330
4BC
100
AcDbEntity
  8
BEM
370
    -2
100
AcDbLine
 10
449.4755745544712
 20
418.9103272242594
 30
0.0
 11
427.332717411614
 21
418.9103272242594
 31
0.0
  0
LINE
  5
593
330
4BC
100
AcDbEntity
  8
BEM
370
    -2
100
AcDbLine
 10
460.4755745544715
 20
418.9103272242594
 30
0.0
 11
456.4755745544712
 21
418.9103272242594
 31
0.0
  0
SOLID
  5
594
330
4BC
100
AcDbEntity
  8
BEM
100
AcDbTrace
 10
467.4755745544715
 20
420.076993890926
 30
0.0
 11
467.4755745544715
 21
417.7436605575927
 31
0.0
 12
460.4755745544715
 22
418.9103272242594
 32
0.0
 13
460.4755745544715
 23
418.9103272242594
 33
0.0
  0
SOLID
  5
595
330
4BC
100
AcDbEntity
  8
BEM
100
AcDbTrace
 10
449.4755745544712
 20
420.076993890926
 30
0.0
 11
449.4755745544712
 21
417.7436605575927
 31
0.0
 12
456.4755745544712
 22
418.9103272242594
 32
0.0
 13
456.4755745544712
 23
418.9103272242594
 33
0.0
  0
MTEXT
  5
596
330
4BC
100
AcDbEntity
  8
BEM
100
AcDbMText
 10
434.9041459830426
 20
427.9103272242593
 30
0.0
 40
10.0
 41
0.0
 71
     5
 72
     1
  1
\A1;4
 73
     1
 44
1.0
  0
POINT
  5
597
330
4BC
100
AcDbEntity
  8
DEFPOINTS
 62
     0
100
AcDbPoint
 10
460.4755745544715
 20
345.4597097217534
 30
0.0
  0
POINT
  5
598
330
4BC
100
AcDbEntity
  8
DEFPOINTS
 62
     0
100
AcDbPoint
 10
456.4755745544712
 20
369.4597097217534
 30
0.0
  0
POINT
  5
599
330
4BC
100
AcDbEntity
  8
DEFPOINTS
 62
     0
100
AcDbPoint
 10
456.4755745544712
 20
418.9103272242594
 30
0.0
  0
ENDBLK
  5
4BE
330
4BC
100
AcDbEntity
  8
0
 48
10.0
100
AcDbBlockEnd
  0
BLOCK
  5
4CB
330
4CA
100
AcDbEntity
  8
0
 48
10.0
100
AcDbBlockBegin
  2
*D15
 70
     1
 10
0.0
 20
0.0
 30
0.0
  3
*D15
  1

  0
LINE
  5
59A
330
4CA
100
AcDbEntity
  8
BEM
370
    -2
100
AcDbLine
 10
1052.314217555378
 20
331.2042532598813
 30
0.0
 11
994.3597075554304
 21
312.5356412938271
 31
0.0
  0
LINE
  5
59B
330
4CA
100
AcDbEntity
  8
BEM
370
    -2
100
AcDbLine
 10
857.295441676608
 20
268.3837781496797
 30
0.0
 11
850.6325954186097
 21
266.2375070246169
 31
0.0
  0
MTEXT
  5
59C
102
{ACAD_XDICTIONARY
360
6A0
102
}
330
4CA
100
AcDbEntity
  8
BEM
100
AcDbMText
 10
1029.203583456888
 20
333.2151526313678
 30
0.0
 40
10.0
 41
0.0
 71
     5
 72
     1
  1
\A1;\U+2205130
 11
0.9518351797140432
 21
0.3066101607232465
 31
0.0
 73
     1
 44
1.0
  0
LINE
  5
59D
330
4CA
100
AcDbEntity
  8
BEM
370
    -2
100
AcDbLine
 10
863.9582879346065
 20
270.5300492747424
 30
0.0
 11
987.6968612974321
 21
310.3893701687643
 31
0.0
  0
SOLID
  5
59E
330
4CA
100
AcDbEntity
  8
BEM
100
AcDbTrace
 10
856.9377298224308
 20
269.4942525260127
 30
0.0
 11
857.6531535307852
 21
267.2733037733466
 31
0.0
 12
863.9582879346065
 22
270.5300492747424
 32
0.0
 13
863.9582879346065
 23
270.5300492747424
 33
0.0
  0
SOLID
  5
59F
330
4CA
100
AcDbEntity
  8
BEM
100
AcDbTrace
 10
994.0019957012532
 20
313.6461156701602
 30
0.0
 11
994.7174194096074
 21
311.4251669174941
 31
0.0
 12
987.6968612974321
 22
310.3893701687643
 32
0.0
 13
987.6968612974321
 23
310.3893701687643
 33
0.0
  0
POINT
  5
5A0
330
4CA
100
AcDbEntity
  8
DEFPOINTS
 62
     0
100
AcDbPoint
 10
987.6968612974321
 20
310.3893701687643
 30
0.0
  0
POINT
  5
5A1
330
4CA
100
AcDbEntity
  8
DEFPOINTS
 62
     0
100
AcDbPoint
 10
863.9582879346065
 20
270.5300492747424
 30
0.0
  0
ENDBLK
  5
4CC
330
4CA
100
AcDbEntity
  8
0
 48
10.0
100
AcDbBlockEnd
  0
BLOCK
  5
4D6
330
4D5
100
AcDbEntity
  8
0
 48
10.0
100
AcDbBlockBegin
  2
*D16
 70
     1
 10
0.0
 20
0.0
 30
0.0
  3
*D16
  1

  0
LINE
  5
5A2
330
4D5
100
AcDbEntity
  8
BEM
370
    -2
100
AcDbLine
 10
720.8615894561482
 20
325.7097097217534
 30
0.0
 11
742.2543313757049
 21
325.7097097217534
 31
0.0
  0
LINE
  5
5A3
330
4D5
100
AcDbEntity
  8
BEM
370
    -2
100
AcDbLine
 10
701.9250642972556
 20
244.7097097217533
 30
0.0
 11
742.2543313757048
 21
244.7097097217533
 31
0.0
  0
LINE
  5
5A4
330
4D5
100
AcDbEntity
  8
BEM
370
    -2
100
AcDbLine
 10
741.0043313757049
 20
318.7097097217534
 30
0.0
 11
741.0043313757048
 21
251.7097097217533
 31
0.0
  0
SOLID
  5
5A5
330
4D5
100
AcDbEntity
  8
BEM
100
AcDbTrace
 10
739.8376647090383
 20
318.7097097217534
 30
0.0
 11
742.1709980423716
 21
318.7097097217534
 31
0.0
 12
741.0043313757049
 22
325.7097097217534
 32
0.0
 13
741.0043313757049
 23
325.7097097217534
 33
0.0
  0
SOLID
  5
5A6
330
4D5
100
AcDbEntity
  8
BEM
100
AcDbTrace
 10
739.8376647090382
 20
251.7097097217533
 30
0.0
 11
742.1709980423714
 21
251.7097097217533
 31
0.0
 12
741.0043313757048
 22
244.7097097217533
 32
0.0
 13
741.0043313757048
 23
244.7097097217533
 33
0.0
  0
MTEXT
  5
5A7
330
4D5
100
AcDbEntity
  8
BEM
100
AcDbMText
 10
732.0043313757048
 20
285.2097097217534
 30
0.0
 40
10.0
 41
0.0
 71
     5
 72
     1
  1
\A1;81
 11
0.0000000000000001
 21
1.0
 31
0.0
 73
     1
 44
1.0
  0
POINT
  5
5A8
330
4D5
100
AcDbEntity
  8
DEFPOINTS
 62
     0
100
AcDbPoint
 10
720.8615894561482
 20
325.7097097217534
 30
0.0
  0
POINT
  5
5A9
330
4D5
100
AcDbEntity
  8
DEFPOINTS
 62
     0
100
AcDbPoint
 10
701.9250642972556
 20
244.7097097217533
 30
0.0
  0
POINT
  5
5AA
330
4D5
100
AcDbEntity
  8
DEFPOINTS
 62
     0
100
AcDbPoint
 10
741.0043313757048
 20
244.7097097217533
 30
0.0
  0
ENDBLK
  5
4D7
330
4D5
100
AcDbEntity
  8
0
 48
10.0
100
AcDbBlockEnd
  0
BLOCK
  5
4E2
330
4E1
100
AcDbEntity
  8
0
 48
10.0
100
AcDbBlockBegin
  2
*D17
 70
     1
 10
0.0
 20
0.0
 30
0.0
  3
*D17
  1

  0
LINE
  5
5AB
330
4E1
100
AcDbEntity
  8
BEM
370
    -2
100
AcDbLine
 10
720.8615894561482
 20
325.7097097217534
 30
0.0
 11
774.9024664625707
 21
325.7097097217534
 31
0.0
  0
LINE
  5
5AC
330
4E1
100
AcDbEntity
  8
BEM
370
    -2
100
AcDbLine
 10
629.4666560899595
 20
225.7097097217535
 30
0.0
 11
774.9024664625705
 21
225.7097097217535
 31
0.0
  0
LINE
  5
5AD
330
4E1
100
AcDbEntity
  8
BEM
370
    -2
100
AcDbLine
 10
773.6524664625707
 20
318.7097097217534
 30
0.0
 11
773.6524664625705
 21
232.7097097217535
 31
0.0
  0
SOLID
  5
5AE
330
4E1
100
AcDbEntity
  8
BEM
100
AcDbTrace
 10
772.485799795904
 20
318.7097097217534
 30
0.0
 11
774.8191331292373
 21
318.7097097217534
 31
0.0
 12
773.6524664625707
 22
325.7097097217534
 32
0.0
 13
773.6524664625707
 23
325.7097097217534
 33
0.0
  0
SOLID
  5
5AF
330
4E1
100
AcDbEntity
  8
BEM
100
AcDbTrace
 10
772.4857997959039
 20
232.7097097217535
 30
0.0
 11
774.8191331292372
 21
232.7097097217535
 31
0.0
 12
773.6524664625705
 22
225.7097097217535
 32
0.0
 13
773.6524664625705
 23
225.7097097217535
 33
0.0
  0
MTEXT
  5
5B0
330
4E1
100
AcDbEntity
  8
BEM
100
AcDbMText
 10
764.6524664625705
 20
275.7097097217535
 30
0.0
 40
10.0
 41
0.0
 71
     5
 72
     1
  1
\A1;100
 11
0.0000000000000001
 21
1.0
 31
0.0
 73
     1
 44
1.0
  0
POINT
  5
5B1
330
4E1
100
AcDbEntity
  8
DEFPOINTS
 62
     0
100
AcDbPoint
 10
720.8615894561482
 20
325.7097097217534
 30
0.0
  0
POINT
  5
5B2
330
4E1
100
AcDbEntity
  8
DEFPOINTS
 62
     0
100
AcDbPoint
 10
629.4666560899595
 20
225.7097097217535
 30
0.0
  0
POINT
  5
5B3
330
4E1
100
AcDbEntity
  8
DEFPOINTS
 62
     0
100
AcDbPoint
 10
773.6524664625705
 20
225.7097097217535
 30
0.0
  0
ENDBLK
  5
4E3
330
4E1
100
AcDbEntity
  8
0
 48
10.0
100
AcDbBlockEnd
  0
BLOCK
  5
4EE
330
4ED
100
AcDbEntity
  8
0
 48
10.0
100
AcDbBlockBegin
  2
*D18
 70
     1
 10
0.0
 20
0.0
 30
0.0
  3
*D18
  1

  0
LINE
  5
5B4
330
4ED
100
AcDbEntity
  8
BEM
370
    -2
100
AcDbLine
 10
711.4755745544726
 20
386.7097097217534
 30
0.0
 11
802.5257392396259
 21
386.7097097217534
 31
0.0
  0
LINE
  5
5B5
330
4ED
100
AcDbEntity
  8
BEM
370
    -2
100
AcDbLine
 10
780.4551906178192
 20
255.7097097217534
 30
0.0
 11
802.5257392396259
 21
255.7097097217534
 31
0.0
  0
LINE
  5
5B6
330
4ED
100
AcDbEntity
  8
BEM
370
    -2
100
AcDbLine
 10
801.275739239626
 20
379.7097097217534
 30
0.0
 11
801.275739239626
 21
262.7097097217534
 31
0.0
  0
SOLID
  5
5B7
330
4ED
100
AcDbEntity
  8
BEM
100
AcDbTrace
 10
800.1090725729593
 20
379.7097097217534
 30
0.0
 11
802.4424059062926
 21
379.7097097217534
 31
0.0
 12
801.275739239626
 22
386.7097097217534
 32
0.0
 13
801.275739239626
 23
386.7097097217534
 33
0.0
  0
SOLID
  5
5B8
330
4ED
100
AcDbEntity
  8
BEM
100
AcDbTrace
 10
800.1090725729593
 20
262.7097097217534
 30
0.0
 11
802.4424059062926
 21
262.7097097217534
 31
0.0
 12
801.2757392396258
 22
255.7097097217534
 32
0.0
 13
801.2757392396258
 23
255.7097097217534
 33
0.0
  0
MTEXT
  5
5B9
330
4ED
100
AcDbEntity
  8
BEM
100
AcDbMText
 10
792.2757392396258
 20
321.2097097217535
 30
0.0
 40
10.0
 41
0.0
 71
     5
 72
     1
  1
\A1;131
 11
0.0000000000000001
 21
1.0
 31
0.0
 73
     1
 44
1.0
  0
POINT
  5
5BA
330
4ED
100
AcDbEntity
  8
DEFPOINTS
 62
     0
100
AcDbPoint
 10
711.4755745544726
 20
386.7097097217534
 30
0.0
  0
POINT
  5
5BB
330
4ED
100
AcDbEntity
  8
DEFPOINTS
 62
     0
100
AcDbPoint
 10
780.4551906178192
 20
255.7097097217534
 30
0.0
  0
POINT
  5
5BC
330
4ED
100
AcDbEntity
  8
DEFPOINTS
 62
     0
100
AcDbPoint
 10
801.2757392396258
 20
255.7097097217534
 30
0.0
  0
ENDBLK
  5
4EF
330
4ED
100
AcDbEntity
  8
0
 48
10.0
100
AcDbBlockEnd
  0
BLOCK
  5
4FA
330
4F9
100
AcDbEntity
  8
0
 48
10.0
100
AcDbBlockBegin
  2
*D19
 70
     1
 10
0.0
 20
0.0
 30
0.0
  3
*D19
  1

  0
LINE
  5
5BD
330
4F9
100
AcDbEntity
  8
BEM
370
    -2
100
AcDbLine
 10
977.4554059590702
 20
342.0875410648045
 30
0.0
 11
1017.502332167265
 21
382.1344672730013
 31
0.0
  0
LINE
  5
5BE
330
4F9
100
AcDbEntity
  8
BEM
370
    -2
100
AcDbLine
 10
925.827574616019
 20
394.3990968364522
 30
0.0
 11
925.8275746160192
 21
420.1073951779918
 31
0.0
  0
ARC
  5
5BF
330
4F9
100
AcDbEntity
  8
BEM
370
    -2
100
AcDbCircle
 10
925.827574616019
 20
290.4597097217513
 30
0.0
 40
128.3976854562405
100
AcDbArc
 50
48.12404496572072
 51
86.87595503428029
  0
SOLID
  5
5C0
330
4F9
100
AcDbEntity
  8
BEM
100
AcDbTrace
 10
1012.337778863095
 20
386.910705432794
 30
0.0
 11
1010.73345129607
 21
385.2164275623941
 31
0.0
 12
1016.618448690782
 22
381.2505837965181
 32
0.0
 13
1016.618448690782
 23
381.2505837965181
 33
0.0
  0
SOLID
  5
5C1
330
4F9
100
AcDbEntity
  8
BEM
100
AcDbTrace
 10
932.7931712010631
 20
417.5003486329028
 30
0.0
 11
932.856775670549
 21
419.8328149061651
 31
0.0
 12
925.8275746160192
 22
418.8573951779917
 32
0.0
 13
925.8275746160192
 23
418.8573951779917
 33
0.0
  0
MTEXT
  5
5C2
330
4F9
100
AcDbEntity
  8
BEM
100
AcDbMText
 10
979.6389608656944
 20
416.8814589527292
 30
0.0
 40
10.0
 41
0.0
 71
     5
 72
     1
  1
\A1;45\U+00B0
 11
0.9201155668029183
 21
-0.3916469631274373
 31
0.0
 73
     1
 44
1.0
  0
POINT
  5
5C3
330
4F9
100
AcDbEntity
  8
DEFPOINTS
 62
     0
100
AcDbPoint
 10
959.0593409591763
 20
414.4823501396745
 30
0.0
  0
POINT
  5
5C4
330
4F9
100
AcDbEntity
  8
DEFPOINTS
 62
     0
100
AcDbPoint
 10
977.4554059590702
 20
342.0875410648045
 30
0.0
  0
POINT
  5
5C5
330
4F9
100
AcDbEntity
  8
DEFPOINTS
 62
     0
100
AcDbPoint
 10
925.827574616019
 20
394.3990968364522
 30
0.0
  0
POINT
  5
5C6
330
4F9
100
AcDbEntity
  8
DEFPOINTS
 62
     0
100
AcDbPoint
 10
925.827574616019
 20
209.1141177884451
 30
0.0
  0
POINT
  5
5C7
330
4F9
100
AcDbEntity
  8
DEFPOINTS
 62
     0
100
AcDbPoint
 10
966.6806877171124
 20
331.3128228228463
 30
0.0
  0
ENDBLK
  5
4FB
330
4F9
100
AcDbEntity
  8
0
 48
10.0
100
AcDbBlockEnd
  0
BLOCK
  5
508
330
507
100
AcDbEntity
  8
0
 48
10.0
100
AcDbBlockBegin
  2
*D20
 70
     1
 10
0.0
 20
0.0
 30
0.0
  3
*D20
  1

  0
LINE
  5
5C8
330
507
100
AcDbEntity
  8
BEM
370
    -2
100
AcDbLine
 10
1068.254607160755
 20
262.6540503214552
 30
0.0
 11
1010.234092078325
 21
273.9812446874908
 31
0.0
  0
LINE
  5
5C9
330
507
100
AcDbEntity
  8
BEM
370
    -2
100
AcDbLine
 10
841.4210571537131
 20
306.9381747560158
 30
0.0
 11
834.5507592207345
 21
308.2794451657814
 31
0.0
  0
MTEXT
  5
5CA
102
{ACAD_XDICTIONARY
360
6A2
102
}
330
507
100
AcDbEntity
  8
BEM
100
AcDbMText
 10
1048.994310123602
 20
275.5840960583099
 30
0.0
 40
10.0
 41
0.0
 71
     5
 72
     1
  1
\A1;\U+2205158
 11
0.9814711332826295
 21
-0.1916100585379353
 31
0.0
 73
     1
 44
1.0
  0
LINE
  5
5CB
330
507
100
AcDbEntity
  8
BEM
370
    -2
100
AcDbLine
 10
848.2913550866914
 20
305.5969043462502
 30
0.0
 11
1003.363794145347
 21
275.3225150972563
 31
0.0
  0
SOLID
  5
5CC
330
507
100
AcDbEntity
  8
BEM
100
AcDbTrace
 10
841.6446022220073
 20
308.0832244115122
 30
0.0
 11
841.1975120854188
 21
305.7931251005193
 31
0.0
 12
848.2913550866914
 22
305.5969043462502
 32
0.0
 13
848.2913550866914
 23
305.5969043462502
 33
0.0
  0
SOLID
  5
5CD
330
507
100
AcDbEntity
  8
BEM
100
AcDbTrace
 10
1010.457637146619
 20
275.1262943429872
 30
0.0
 11
1010.010547010031
 21
272.8361950319944
 31
0.0
 12
1003.363794145347
 22
275.3225150972563
 32
0.0
 13
1003.363794145347
 23
275.3225150972563
 33
0.0
  0
POINT
  5
5CE
330
507
100
AcDbEntity
  8
DEFPOINTS
 62
     0
100
AcDbPoint
 10
1003.363794145347
 20
275.3225150972563
 30
0.0
  0
POINT
  5
5CF
330
507
100
AcDbEntity
  8
DEFPOINTS
 62
     0
100
AcDbPoint
 10
848.2913550866914
 20
305.5969043462502
 30
0.0
  0
ENDBLK
  5
509
330
507
100
AcDbEntity
  8
0
 48
10.0
100
AcDbBlockEnd
  0
BLOCK
  5
513
330
512
100
AcDbEntity
  8
0
 48
10.0
100
AcDbBlockBegin
  2
*D21
 70
     1
 10
0.0
 20
0.0
 30
0.0
  3
*D21
  1

  0
LINE
  5
5D0
330
512
100
AcDbEntity
  8
BEM
370
    -2
100
AcDbLine
 10
681.4755745544726
 20
240.6105789983051
 30
0.0
 11
681.4755745544726
 21
177.1810104296751
 31
0.0
  0
LINE
  5
5D1
330
512
100
AcDbEntity
  8
BEM
370
    -2
100
AcDbLine
 10
608.4755745544725
 20
222.5005755861861
 30
0.0
 11
608.4755745544725
 21
177.1810104296751
 31
0.0
  0
LINE
  5
5D2
330
512
100
AcDbEntity
  8
BEM
370
    -2
100
AcDbLine
 10
674.4755745544726
 20
178.4310104296751
 30
0.0
 11
615.4755745544726
 21
178.4310104296751
 31
0.0
  0
SOLID
  5
5D3
330
512
100
AcDbEntity
  8
BEM
100
AcDbTrace
 10
674.4755745544726
 20
179.5976770963417
 30
0.0
 11
674.4755745544726
 21
177.2643437630084
 31
0.0
 12
681.4755745544726
 22
178.4310104296751
 32
0.0
 13
681.4755745544726
 23
178.4310104296751
 33
0.0
  0
SOLID
  5
5D4
330
512
100
AcDbEntity
  8
BEM
100
AcDbTrace
 10
615.4755745544726
 20
179.5976770963417
 30
0.0
 11
615.4755745544726
 21
177.2643437630084
 31
0.0
 12
608.4755745544725
 22
178.4310104296751
 32
0.0
 13
608.4755745544725
 23
178.4310104296751
 33
0.0
  0
MTEXT
  5
5D5
330
512
100
AcDbEntity
  8
BEM
100
AcDbMText
 10
644.9755745544726
 20
187.4310104296751
 30
0.0
 40
10.0
 41
0.0
 71
     5
 72
     1
  1
\A1;73
 73
     1
 44
1.0
  0
POINT
  5
5D6
330
512
100
AcDbEntity
  8
DEFPOINTS
 62
     0
100
AcDbPoint
 10
681.4755745544726
 20
240.6105789983051
 30
0.0
  0
POINT
  5
5D7
330
512
100
AcDbEntity
  8
DEFPOINTS
 62
     0
100
AcDbPoint
 10
608.4755745544725
 20
222.5005755861861
 30
0.0
  0
POINT
  5
5D8
330
512
100
AcDbEntity
  8
DEFPOINTS
 62
     0
100
AcDbPoint
 10
608.4755745544725
 20
178.4310104296751
 30
0.0
  0
ENDBLK
  5
514
330
512
100
AcDbEntity
  8
0
 48
10.0
100
AcDbBlockEnd
  0
BLOCK
  5
51F
330
51E
100
AcDbEntity
  8
0
 48
10.0
100
AcDbBlockBegin
  2
*D22
 70
     1
 10
0.0
 20
0.0
 30
0.0
  3
*D22
  1

  0
LINE
  5
5D9
330
51E
100
AcDbEntity
  8
BEM
370
    -2
100
AcDbLine
 10
1019.7102847286
 20
233.5628697270406
 30
0.0
 11
983.0013235971247
 21
241.9393794517708
 31
0.0
  0
LINE
  5
5DA
330
51E
100
AcDbEntity
  8
BEM
370
    -2
100
AcDbLine
 10
960.577707189164
 20
247.0561584374842
 30
0.0
 11
953.7531282823934
 21
248.6134389983535
 31
0.0
  0
MTEXT
  5
5DB
102
{ACAD_XDICTIONARY
360
6A4
102
}
330
51E
100
AcDbEntity
  8
BEM
100
AcDbMText
 10
1010.384630121472
 20
244.9222021775968
 30
0.0
 40
10.0
 41
0.0
 71
     5
 72
     1
  1
\A1;\U+22059
 11
0.9749398438243758
 21
-0.2224686515527566
 31
0.0
 73
     1
 44
1.0
  0
LINE
  5
5DC
330
51E
100
AcDbEntity
  8
BEM
370
    -2
100
AcDbLine
 10
967.4022860959347
 20
245.4988778766149
 30
0.0
 11
976.176744690354
 21
243.4966600126401
 31
0.0
  0
SOLID
  5
5DD
330
51E
100
AcDbEntity
  8
BEM
100
AcDbTrace
 10
960.8372539493089
 20
248.1935882552793
 30
0.0
 11
960.3181604290192
 21
245.9187286196891
 31
0.0
 12
967.4022860959347
 22
245.4988778766149
 32
0.0
 13
967.4022860959347
 23
245.4988778766149
 33
0.0
  0
SOLID
  5
5DE
330
51E
100
AcDbEntity
  8
BEM
100
AcDbTrace
 10
983.2608703572695
 20
243.076809269566
 30
0.0
 11
982.7417768369798
 21
240.8019496339757
 31
0.0
 12
976.176744690354
 22
243.4966600126401
 32
0.0
 13
976.176744690354
 23
243.4966600126401
 33
0.0
  0
POINT
  5
5DF
330
51E
100
AcDbEntity
  8
DEFPOINTS
 62
     0
100
AcDbPoint
 10
976.176744690354
 20
243.4966600126401
 30
0.0
  0
POINT
  5
5E0
330
51E
100
AcDbEntity
  8
DEFPOINTS
 62
     0
100
AcDbPoint
 10
967.4022860959347
 20
245.4988778766149
 30
0.0
  0
ENDBLK
  5
520
330
51E
100
AcDbEntity
  8
0
 48
10.0
100
AcDbBlockEnd
  0
ENDSEC
  0
SECTION
  2
ENTITIES
  0
DIMENSION
  5
20
330
2
100
AcDbEntity
  8
BEM
100
AcDbDimension
  2
*D3
 10
401.4755745544729
 20
515.7606585432774
 30
0.0
 11
558.9755745544727
 21
524.7606585432775
 31
0.0
 70
    32
 71
     5
 42
314.9999999999997
  3
ISO-25
100
AcDbAlignedDimension
 13
716.4755745544725
 23
381.7097097217534
 33
0.0
 14
401.4755745544729
 24
301.4597097217534
 34
0.0
100
AcDbRotatedDimension
1001
ACAD
1000
DSTYLE
1002
{
1070
   144
1040
1.0
1002
}
  0
DIMENSION
  5
30
330
2
100
AcDbEntity
  8
BEM
100
AcDbDimension
  2
*D4
 10
456.4755745544729
 20
178.4310104296751
 30
0.0
 11
532.4755745544727
 21
187.4310104296751
 31
0.0
 70
    32
 71
     5
 42
151.9999999999996
  3
ISO-25
100
AcDbAlignedDimension
 13
608.4755745544725
 23
212.9214379384002
 33
0.0
 14
456.4755745544729
 24
211.4597097217534
 34
0.0
100
AcDbRotatedDimension
1001
ACAD
1000
DSTYLE
1002
{
1070
   144
1040
1.0
1002
}
  0
DIMENSION
  5
3D
330
2
100
AcDbEntity
  8
BEM
100
AcDbDimension
  2
*D5
 10
716.4755745544725
 20
484.0259759672405
 30
0.0
 11
586.4755745544719
 21
493.0259759672406
 31
0.0
 70
    32
 71
     5
 42
260.0000000000014
  3
ISO-25
100
AcDbAlignedDimension
 13
456.4755745544712
 23
369.4597097217534
 33
0.0
 14
716.4755745544725
 24
381.7097097217534
 34
0.0
100
AcDbRotatedDimension
1001
ACAD
1000
DSTYLE
1002
{
1070
   144
1040
1.0
1002
}
  0
LINE
  5
4A
330
2
100
AcDbEntity
  8
LINIE
 48
10.0
100
AcDbLine
 10
545.8485953460097
 20
264.7097097217534
 30
0.0
 11
567.1118550823867
 21
264.7097097217534
 31
0.0
  0
LINE
  5
4C
330
2
100
AcDbEntity
  8
LINIE
 48
10.0
100
AcDbLine
 10
564.0207550028769
 20
386.7097097217532
 30
0.0
 11
545.888821882841
 21
386.7097097217532
 31
0.0
  0
LINE
  5
4D
330
2
100
AcDbEntity
  8
LINIE
 48
10.0
100
AcDbLine
 10
545.8485953460097
 20
386.7097097217534
 30
0.0
 11
568.8036307726263
 21
386.7097097217534
 31
0.0
  0
LINE
  5
4E
330
2
100
AcDbEntity
  8
MITTE
 48
15.0
100
AcDbLine
 10
531.7333460949558
 20
325.7097097217534
 30
0.0
 11
720.8615894561482
 21
325.7097097217534
 31
0.0
  0
LINE
  5
51
330
2
100
AcDbEntity
  8
0
100
AcDbLine
 10
537.4755745544725
 20
391.7097097217536
 30
0.0
 11
557.815320516628
 21
391.7097097217533
 31
0.0
1001
ACAD
1000
ASC_BOUNDS
1002
{
1070
    19
1002
}
  0
LINE
  5
52
330
2
100
AcDbEntity
  8
0
100
AcDbLine
 10
544.4755745544726
 20
330.7097097217534
 30
0.0
 11
560.8153205166281
 21
330.7097097217535
 31
0.0
  0
LINE
  5
53
330
2
100
AcDbEntity
  8
0
100
AcDbLine
 10
544.4755745544726
 20
259.7097097217536
 30
0.0
 11
557.815320516628
 21
259.7097097217534
 31
0.0
1001
ACAD
1000
ASC_BOUNDS
1002
{
1070
    19
1002
}
  0
MTEXT
  5
54
102
{ACAD_REACTORS
330
55
102
}
330
2
100
AcDbEntity
  8
BEM
100
AcDbMText
 10
209.7848037385461
 20
498.5624078086908
 30
0.0
 40
10.0
 41
0.0
 71
     1
 72
     1
  1
Paßfeder\PFitting key\PClavette d'ajustage\PLinguetta\PA 8x7x40 DIN 6885
 73
     1
 44
1.0
  0
LEADER
  5
55
330
2
100
AcDbEntity
  8
BEM
100
AcDbLeader
  3
STANDARD
 73
     0
 75
     1
 40
78.57142857142858
 41
153.3333333333334
 76
     3
 10
430.2140120309222
 20
305.3597097217533
 30
0.0
 10
373.2975064994658
 20
415.9494576239796
 30
0.0
 10
366.2975064994658
 20
415.9494576239796
 30
0.0
340
54
213
-0.8206305724136768
223
-0.0415216132826188
233
0.0
  0
DIMENSION
  5
57
330
2
100
AcDbEntity
  8
BEM
100
AcDbDimension
  2
*D6
 10
302.595282806202
 20
211.4597097217535
 30
0.0
 11
293.595282806202
 21
301.5847097217535
 31
0.0
 70
    32
  1
180
 71
     5
 42
180.2500000000001
  3
ISO-25
100
AcDbAlignedDimension
 13
537.4755745544725
 23
391.7097097217535
 33
0.0
 14
456.4755745544729
 24
211.4597097217534
 34
0.0
 50
90.0
100
AcDbRotatedDimension
1001
ACAD
1000
DSTYLE
1002
{
1070
   144
1040
1.0
1002
}
  0
DIMENSION
  5
65
330
2
100
AcDbEntity
  8
BEM
100
AcDbDimension
  2
*D7
 10
248.5365133363378
 20
290.4597097217534
 30
0.0
 11
248.5365133363378
 21
308.0847097217534
 31
0.0
 70
   160
  1
35.2
 71
     5
 42
35.25
  3
ISO-25
100
AcDbAlignedDimension
 13
190.8008403299696
 23
325.7097097217534
 33
0.0
 14
207.1145559232439
 24
290.4597097217534
 34
0.0
 50
90.0
100
AcDbRotatedDimension
1001
ACAD
1000
DSTYLE
1002
{
1070
   144
1040
1.0
1070
   289
1070
     0
1002
}
  0
DIMENSION
  5
72
330
2
100
AcDbEntity
  8
BEM
100
AcDbDimension
  2
*D8
 10
334.2783513396465
 20
235.4597097217534
 30
0.0
 11
325.2783513396464
 21
290.4597097217535
 31
0.0
 70
    32
  1
%%c<>
 71
     5
 42
110.0
  3
ISO-25
100
AcDbAlignedDimension
 13
456.4755745544715
 23
345.4597097217534
 33
0.0
 14
397.6457949403625
 24
235.4597097217534
 34
0.0
 50
90.0
100
AcDbRotatedDimension
1001
ACAD
1000
DSTYLE
1002
{
1070
   144
1040
1.0
1002
}
  0
LINE
  5
7F
330
2
100
AcDbEntity
  8
LINIE
 48
10.0
100
AcDbLine
 10
528.4755745544727
 20
353.0277323592984
 30
0.0
 11
528.4755745544727
 21
252.1058048095877
 31
0.0
  0
HATCH
  5
80
330
2
100
AcDbEntity
  8
LINIE
 48
10.0
100
AcDbHatch
 10
0.0
 20
0.0
 30
0.0
210
0.0
220
0.0
230
1.0
  2
AR-CONC
 70
     0
 71
     0
 91
        2
 92
        7
 72
     1
 73
     1
 93
        6
 10
239.0941538816631
 20
325.7097097217537
 42
0.1965790673635085
 10
273.2651825789748
 20
258.1541541661978
 42
0.1804963181033798
 10
279.8160283447453
 20
255.7097097217534
 42
0.0
 10
320.3722794185808
 20
255.7097097217534
 42
0.1804963181033815
 10
326.9231251843514
 20
258.1541541661978
 42
0.1965790673635087
 10
361.0941538816631
 20
325.7097097217538
 42
1.0
 97
        0
 92
        7
 72
     1
 73
     1
 93
       10
 10
322.5941538816631
 20
253.2097097217534
 42
-0.4142135623730951
 10
325.0941538816631
 20
255.7097097217534
 42
0.0
 10
315.5941538816631
 20
255.7097097217534
 42
0.0
 10
275.0941538816631
 20
255.7097097217534
 42
-0.4142135623730951
 10
277.5941538816631
 20
253.2097097217534
 42
0.0
 10
277.5941538816631
 20
245.2097097217534
 42
0.0503820444849804
 10
277.6446641388801
 20
244.7097097217524
 42
0.0
 10
322.5436436244461
 20
244.7097097217524
 42
0.0568446423399838
 10
322.5933234112752
 20
245.2741431157243
 42
-0.0000090034323923
 10
322.5941538816631
 20
245.2743322027587
 42
0.0
 97
        0
 75
     0
 76
     1
 52
0.0
 41
2.0
 77
     0
 78
    13
 53
50.0
 43
343.2624122926061
 44
0.0
 45
14.34520365201507
 46
-1.255042699651902
 79
     2
 49
1.5
 49
-16.5
 53
355.0
 43
343.2624122926061
 44
0.0
 45
-2.77502667226
 46
15.04384267400024
 79
     2
 49
1.199999999999999
 49
-13.2
 53
100.4514
 43
344.4578458926061
 44
-0.1045867999999928
 45
11.57018763428043
 46
13.78879084121907
 79
     2
 49
1.274803799999999
 49
-14.02284223999999
 53
46.1842
 43
343.2624122926061
 44
4.0
 45
21.34482097251289
 46
-3.310380286580361
 79
     2
 49
2.25
 49
-24.75
 53
96.63559999999996
 43
345.0411471926061
 44
3.724133859999994
 45
18.69325411097406
 46
19.48235741800883
 79
     2
 49
1.912205759999998
 49
-21.03425999999998
 53
351.1842000000001
 43
343.2624122926061
 44
4.0
 45
18.69323890267254
 46
19.48237201850649
 79
     2
 49
1.8
 49
-19.8
 53
21.0
 43
345.2624122926061
 44
3.0
 45
11.93814104236923
 46
-8.052377813306776
 79
     2
 49
1.5
 49
-16.5
 53
326.0
 43
345.2624122926061
 44
3.0
 45
4.866306638431634
 46
14.50300090093706
 79
     2
 49
1.199999999999999
 49
-13.2
 53
71.45140000000001
 43
346.2572569526062
 44
2.328967879999993
 45
16.8044525716298
 46
6.450609934199047
 79
     2
 49
1.2748038
 49
-14.02284224
 53
37.5
 43
343.2624122926061
 44
0.0
 45
0.2431971063458134
 46
6.657877076626229
 79
     6
 49
0.0
 49
-13.04
 49
0.0
 49
-13.4
 49
0.0
 49
-13.25
 53
7.499999999999999
 43
343.2624122926061
 44
0.0
 45
5.261390748842972
 46
7.888234237647204
 79
     6
 49
0.0
 49
-7.639999999999999
 49
0.0
 49
-12.74
 49
0.0
 49
-5.049999999999999
 53
327.5
 43
338.8024122926062
 44
0.0
 45
10.67644872344818
 46
-0.451097434687596
 79
     6
 49
0.0
 49
-5.0
 49
0.0
 49
-15.6
 49
0.0
 49
-20.7
 53
317.5
 43
336.8024122926062
 44
0.0
 45
11.66372338684772
 46
2.002099646646352
 79
     6
 49
0.0
 49
-6.5
 49
0.0
 49
-10.36
 49
0.0
 49
-14.7
 47
0.4120896387672359
 98
        2
 10
313.7243754417912
 20
334.4646841207541
 10
302.1820167561239
 20
250.8104869389508
  0
LINE
  5
82
330
2
100
AcDbEntity
  8
MITTE
 48
10.0
100
AcDbLine
 10
300.0941538816631
 20
395.4616269664061
 30
0.0
 11
300.0941538816631
 21
205.6914215157594
 31
0.0
  0
LINE
  5
83
330
2
100
AcDbEntity
  8
LINIE
  6
STRICHLINIE
 48
10.0
100
AcDbLine
 10
460.4755745544714
 20
345.4597097217534
 30
0.0
 11
460.4755745544727
 21
235.4597097217534
 31
0.0
  0
LINE
  5
85
330
2
100
AcDbEntity
  8
LINIE
 48
10.0
100
AcDbLine
 10
505.4851934977062
 20
300.9597097217534
 30
0.0
 11
505.4851934977062
 21
314.0044417537324
 31
0.0
  0
ARC
  5
86
330
2
100
AcDbEntity
  8
0
100
AcDbCircle
 10
338.77364023668
 20
333.7097097217534
 30
0.0
 40
100.0
100
AcDbArc
 50
184.5885657357855
 51
229.0739366903954
1001
ACAD
1000
ASC_BOUNDS
1002
{
1070
    19
1005
0
1002
}
  0
LINE
  5
87
330
2
100
AcDbEntity
  8
0
100
AcDbLine
 10
239.0941538816631
 20
325.7097097217534
 30
0.0
 11
239.0941538816631
 21
258.2097097217534
 31
0.0
  0
LINE
  5
88
330
2
100
AcDbEntity
  8
0
100
AcDbLine
 10
239.0941538816631
 20
325.7097097217538
 30
0.0
 11
239.0941538816631
 21
258.2097097217534
 31
0.0
  0
ARC
  5
89
330
2
100
AcDbEntity
  8
0
100
AcDbCircle
 10
300.0941538816631
 20
325.7097097217536
 30
0.0
 40
65.81669415865359
100
AcDbArc
 50
179.5853943548263
 51
202.0561142201634
  0
ARC
  5
8A
330
2
100
AcDbEntity
  8
0
100
AcDbCircle
 10
300.0941538816631
 20
290.4597097217534
 30
0.0
 40
76.5
100
AcDbArc
 50
141.2765480274878
 51
220.1191668984056
  0
ARC
  5
8B
330
2
100
AcDbEntity
  8
0
100
AcDbCircle
 10
300.0941538816631
 20
290.4597097217534
 30
0.0
 40
79.0
100
AcDbArc
 50
137.5019138175595
 51
222.2254350822091
  0
ARC
  5
8C
330
2
100
AcDbEntity
  8
0
100
AcDbCircle
 10
261.4146675266462
 20
333.7097097217534
 30
0.0
 40
100.0
100
AcDbArc
 50
310.9260633096046
 51
355.4114342642145
1001
ACAD
1000
ASC_BOUNDS
1002
{
1070
    19
1005
0
1002
}
  0
LINE
  5
8D
330
2
100
AcDbEntity
  8
0
100
AcDbLine
 10
361.0941538816631
 20
325.7097097217534
 30
0.0
 11
361.0941538816631
 21
258.2097097217534
 31
0.0
  0
LINE
  5
8E
330
2
100
AcDbEntity
  8
0
100
AcDbLine
 10
361.0941538816631
 20
325.7097097217539
 30
0.0
 11
361.0941538816631
 21
258.2097097217534
 31
0.0
  0
ARC
  5
8F
330
2
100
AcDbEntity
  8
0
100
AcDbCircle
 10
300.0941538816631
 20
290.4597097217534
 30
0.0
 40
76.5
100
AcDbArc
 50
319.8808331015944
 51
38.7234519725122
  0
ARC
  5
90
330
2
100
AcDbEntity
  8
0
100
AcDbCircle
 10
300.0941538816631
 20
290.4597097217534
 30
0.0
 40
79.0
100
AcDbArc
 50
317.7745649177908
 51
42.49808618244041
  0
LINE
  5
91
330
2
100
AcDbEntity
  8
0
100
AcDbLine
 10
544.4755745544726
 20
362.7097097217534
 30
0.0
 11
544.4755745544731
 21
288.7097097217534
 31
0.0
1001
ACAD
1000
ASC_BOUNDS
1002
{
1070
    19
1005
0
1005
0
1002
}
  0
LINE
  5
92
330
2
100
AcDbEntity
  8
0
100
AcDbLine
 10
544.4755745544726
 20
391.7097097217533
 30
0.0
 11
544.4755745544726
 21
259.7097097217534
 31
0.0
1001
ACAD
1000
ASC_BOUNDS
1002
{
1070
    19
1005
0
1005
0
1005
0
1005
0
1002
}
  0
LINE
  5
93
330
2
100
AcDbEntity
  8
0
100
AcDbLine
 10
465.9755745544729
 20
369.4597097217534
 30
0.0
 11
465.9755745544729
 21
211.4597097217534
 31
0.0
  0
LINE
  5
94
330
2
100
AcDbEntity
  8
0
100
AcDbLine
 10
456.4755745544712
 20
369.4597097217534
 30
0.0
 11
456.4755745544729
 21
211.4597097217534
 31
0.0
  0
LINE
  5
95
330
2
100
AcDbEntity
  8
0
100
AcDbLine
 10
468.4755745544708
 20
213.9597097217514
 30
0.0
 11
468.4755745544729
 21
366.9597097217534
 31
0.0
  0
LINE
  5
96
330
2
100
AcDbEntity
  8
0
100
AcDbLine
 10
469.4755745544727
 20
345.4597097217534
 30
0.0
 11
469.4755745544727
 21
235.4597097217534
 31
0.0
  0
LINE
  5
97
330
2
100
AcDbEntity
  8
0
100
AcDbLine
 10
537.4755745544725
 20
391.7097097217535
 30
0.0
 11
537.4755745544734
 21
248.7097097217534
 31
0.0
1001
ACAD
1000
ASC_BOUNDS
1002
{
1070
    19
1005
0
1005
0
1005
0
1005
0
1002
}
  0
LINE
  5
9A
330
2
100
AcDbEntity
  8
MITTE
 48
10.0
100
AcDbLine
 10
383.9261482436262
 20
290.4597097217534
 30
0.0
 11
216.8717333847597
 21
290.4597097217534
 31
0.0
  0
LINE
  5
9B
330
2
100
AcDbEntity
  8
MITTE
 48
10.0
100
AcDbLine
 10
383.9261482436262
 20
290.4597097217534
 30
0.0
 11
216.8717333847597
 21
290.4597097217534
 31
0.0
  0
LINE
  5
9C
330
2
100
AcDbEntity
  8
BEM
100
AcDbLine
 10
73.78493766342154
 20
235.17715256927
 30
0.0
 11
69.68298480792086
 21
202.1112873359694
 31
0.0
  0
LINE
  5
9D
330
2
100
AcDbEntity
  8
0
100
AcDbLine
 10
284.5941538816631
 20
255.7097097217534
 30
0.0
 11
239.5941538816631
 21
255.7097097217534
 31
0.0
1001
ACAD
1000
ASC_BOUNDS
1002
{
1070
    19
1002
}
  0
LINE
  5
9E
330
2
100
AcDbEntity
  8
0
100
AcDbLine
 10
239.5941538816631
 20
246.8644102601329
 30
0.0
 11
277.5941538816633
 21
246.8644102601328
 31
0.0
  0
LINE
  5
9F
330
2
100
AcDbEntity
  8
0
100
AcDbLine
 10
241.5941538816631
 20
255.7097097217534
 30
0.0
 11
358.5941538816631
 21
255.7097097217534
 31
0.0
1001
ACAD
1000
ASC_BOUNDS
1002
{
1070
    19
1005
0
1002
}
  0
LINE
  5
A0
330
2
100
AcDbEntity
  8
0
100
AcDbLine
 10
281.5941538816631
 20
225.7097097217535
 30
0.0
 11
242.5941538816632
 21
225.7097097217535
 31
0.0
1001
ACAD
1000
ASC_BOUNDS
1002
{
1070
    19
1005
0
1002
}
  0
ARC
  5
A1
330
2
100
AcDbEntity
  8
0
100
AcDbCircle
 10
251.8441538816631
 20
249.3597097217536
 30
0.0
 40
23.65000000000001
100
AcDbArc
 50
250.1483977684143
 51
289.8516022315856
  0
ARC
  5
A2
330
2
100
AcDbEntity
  8
0
100
AcDbCircle
 10
251.8441538816631
 20
223.2144102601329
 30
0.0
 40
23.65000000000001
100
AcDbArc
 50
70.14839776841435
 51
109.8516022315841
  0
LINE
  5
A4
330
2
100
AcDbEntity
  8
0
100
AcDbLine
 10
243.8129646795586
 20
227.1151036339848
 30
0.0
 11
243.8129646795586
 21
245.4590163479017
 31
0.0
  0
LINE
  5
A5
330
2
100
AcDbEntity
  8
0
100
AcDbLine
 10
241.5941538816631
 20
226.7097097217535
 30
0.0
 11
241.5941538816631
 21
245.7097097217536
 31
0.0
1001
ACAD
1000
ASC_BOUNDS
1002
{
1070
    19
1002
}
  0
LINE
  5
A6
330
2
100
AcDbEntity
  8
0
100
AcDbLine
 10
241.5941538816631
 20
226.7097097217535
 30
0.0
 11
243.8129646795586
 21
227.1151036339848
 31
0.0
  0
LINE
  5
A7
330
2
100
AcDbEntity
  8
0
100
AcDbLine
 10
241.5941538816631
 20
226.7097097217535
 30
0.0
 11
242.5941538816632
 21
225.7097097217535
 31
0.0
1001
ACAD
1000
ASC_BOUNDS
1002
{
1070
    19
1002
}
  0
LINE
  5
A8
330
2
100
AcDbEntity
  8
0
100
AcDbLine
 10
239.5941538816631
 20
246.8644102601329
 30
0.0
 11
239.5941538816631
 21
255.7097097217534
 31
0.0
1001
ACAD
1000
ASC_BOUNDS
1002
{
1070
    19
1002
}
  0
LINE
  5
A9
330
2
100
AcDbEntity
  8
0
100
AcDbLine
 10
241.5941538816631
 20
245.7097097217536
 30
0.0
 11
239.5941538816631
 21
246.8644102601329
 31
0.0
1001
ACAD
1000
ASC_BOUNDS
1002
{
1070
    19
1002
}
  0
LINE
  5
AA
330
2
100
AcDbEntity
  8
0
100
AcDbLine
 10
241.5941538816631
 20
245.7097097217536
 30
0.0
 11
243.8129646795586
 21
245.4590163479017
 31
0.0
  0
ARC
  5
AB
330
2
100
AcDbEntity
  8
0
100
AcDbCircle
 10
241.5941538816631
 20
258.2097097217534
 30
0.0
 40
2.5
100
AcDbArc
 50
180.0
 51
270.0
  0
ARC
  5
AC
330
2
100
AcDbEntity
  8
0
100
AcDbCircle
 10
241.5941538816631
 20
258.2097097217534
 30
0.0
 40
2.5
100
AcDbArc
 50
180.0
 51
270.0
  0
DIMENSION
  5
AD
330
2
100
AcDbEntity
  8
BEM
100
AcDbDimension
  2
*D9
 10
85.28256156128083
 20
177.1810104296751
 30
0.0
 11
123.2825615612808
 21
186.1810104296751
 31
0.0
 70
    32
 71
     5
 42
76.0
  3
ISO-25
100
AcDbAlignedDimension
 13
161.2825615612808
 23
222.6519491141471
 33
0.0
 14
85.28256156128083
 24
222.6519491141471
 34
0.0
100
AcDbRotatedDimension
1001
ACAD
1000
DSTYLE
1002
{
1070
   144
1040
1.0
1070
   289
1070
     0
1002
}
  0
LINE
  5
BA
330
2
100
AcDbEntity
  8
BEM
100
AcDbLine
 10
172.7801854591401
 20
235.17715256927
 30
0.0
 11
176.96964000523
 21
201.4059357118452
 31
0.0
  0
ARC
  5
BB
330
2
100
AcDbEntity
  8
0
100
AcDbCircle
 10
300.0941538816631
 20
290.4597097217534
 30
0.0
 40
79.0
100
AcDbArc
 50
235.0467976873809
 51
304.9532023126177
  0
ARC
  5
BC
330
2
100
AcDbEntity
  8
0
100
AcDbCircle
 10
300.0941538816631
 20
290.4597097217534
 30
0.0
 40
76.5
100
AcDbArc
 50
237.8228085508669
 51
302.177191449133
  0
ARC
  5
C0
330
2
100
AcDbEntity
  8
0
100
AcDbCircle
 10
327.8441538816632
 20
249.3597097217536
 30
0.0
 40
23.65000000000001
100
AcDbArc
 50
250.1483977684143
 51
289.8516022315856
  0
LINE
  5
C1
330
2
100
AcDbEntity
  8
0
100
AcDbLine
 10
360.5941538816631
 20
255.7097097217534
 30
0.0
 11
315.5941538816631
 21
255.7097097217534
 31
0.0
1001
ACAD
1000
ASC_BOUNDS
1002
{
1070
    19
1002
}
  0
LINE
  5
C2
330
2
100
AcDbEntity
  8
0
100
AcDbLine
 10
357.5941538816632
 20
225.7097097217535
 30
0.0
 11
318.5941538816631
 21
225.7097097217535
 31
0.0
1001
ACAD
1000
ASC_BOUNDS
1002
{
1070
    19
1005
0
1002
}
  0
LINE
  5
C3
330
2
100
AcDbEntity
  8
0
100
AcDbLine
 10
322.5941538816631
 20
246.8644102601329
 30
0.0
 11
360.5941538816631
 21
246.8644102601328
 31
0.0
  0
ARC
  5
C4
330
2
100
AcDbEntity
  8
0
100
AcDbCircle
 10
327.8441538816632
 20
223.2144102601329
 30
0.0
 40
23.65000000000001
100
AcDbArc
 50
70.14839776841435
 51
102.8257844304613
  0
LINE
  5
C5
330
2
100
AcDbEntity
  8
0
100
AcDbLine
 10
273.6481083010862
 20
255.7097097217534
 30
0.0
 11
327.306050906463
 21
255.7097097217534
 31
0.0
  0
LINE
  5
C6
330
2
100
AcDbEntity
  8
0
100
AcDbLine
 10
277.6446641388802
 20
244.7097097217524
 30
0.0
 11
322.5436436244461
 21
244.7097097217524
 31
0.0
  0
ARC
  5
C7
330
2
100
AcDbEntity
  8
0
100
AcDbCircle
 10
300.0941538816631
 20
290.4597097217534
 30
0.0
 40
55.0
100
AcDbArc
 50
251.4469954649797
 51
288.5530045350204
  0
LINE
  5
C8
330
2
100
AcDbEntity
  8
MITTE
 48
7.0
100
AcDbLine
 10
262.0941538816631
 20
222.6519491141471
 30
0.0
 11
262.0941538816631
 21
259.0429839522442
 31
0.0
  0
LINE
  5
C9
330
2
100
AcDbEntity
  8
0
100
AcDbLine
 10
259.8753430837677
 20
227.1151036339848
 30
0.0
 11
259.8753430837677
 21
245.4590163479017
 31
0.0
  0
LINE
  5
CA
330
2
100
AcDbEntity
  8
0
100
AcDbLine
 10
264.3129646795586
 20
227.1151036339848
 30
0.0
 11
264.3129646795586
 21
245.4590163479017
 31
0.0
  0
LINE
  5
CB
330
2
100
AcDbEntity
  8
0
100
AcDbLine
 10
280.3753430837677
 20
227.1151036339848
 30
0.0
 11
280.3753430837677
 21
244.7097097217524
 31
0.0
  0
LINE
  5
CC
330
2
100
AcDbEntity
  8
0
100
AcDbLine
 10
282.5941538816632
 20
226.7097097217535
 30
0.0
 11
282.5941538816632
 21
244.7097097217524
 31
0.0
1001
ACAD
1000
ASC_BOUNDS
1002
{
1070
    19
1002
}
  0
ARC
  5
CD
330
2
100
AcDbEntity
  8
0
100
AcDbCircle
 10
272.3441538816631
 20
249.3597097217536
 30
0.0
 40
23.65000000000001
100
AcDbArc
 50
250.1483977684143
 51
289.8516022315856
  0
LWPOLYLINE
  5
CE
330
2
100
AcDbEntity
  8
BEM
100
AcDbPolyline
 90
        2
 70
     1
 43
1.0
 10
73.28493766342154
 20
235.17715256927
 42
1.0
 10
74.28493766342154
 20
235.17715256927
 42
1.0
  0
LINE
  5
CF
330
2
100
AcDbEntity
  8
0
100
AcDbLine
 10
259.8753430837677
 20
227.1151036339848
 30
0.0
 11
264.3129646795586
 21
227.1151036339848
 31
0.0
  0
LINE
  5
D0
330
2
100
AcDbEntity
  8
0
100
AcDbLine
 10
280.3753430837677
 20
227.1151036339848
 30
0.0
 11
282.5941538816632
 21
226.7097097217535
 31
0.0
  0
LINE
  5
D1
330
2
100
AcDbEntity
  8
0
100
AcDbLine
 10
282.5941538816632
 20
226.7097097217535
 30
0.0
 11
281.5941538816631
 21
225.7097097217535
 31
0.0
1001
ACAD
1000
ASC_BOUNDS
1002
{
1070
    19
1002
}
  0
ARC
  5
D2
330
2
100
AcDbEntity
  8
0
100
AcDbCircle
 10
272.3441538816631
 20
223.2144102601329
 30
0.0
 40
23.65000000000001
100
AcDbArc
 50
77.17421556953863
 51
109.8516022315841
  0
LINE
  5
D3
330
2
100
AcDbEntity
  8
0
100
AcDbLine
 10
259.8753430837677
 20
245.4590163479017
 30
0.0
 11
264.3129646795586
 21
245.4590163479017
 31
0.0
  0
LINE
  5
D4
330
2
100
AcDbEntity
  8
0
100
AcDbLine
 10
277.5941538816631
 20
253.2097097217534
 30
0.0
 11
277.5941538816631
 21
245.2097097217534
 31
0.0
  0
ARC
  5
D5
330
2
100
AcDbEntity
  8
0
100
AcDbCircle
 10
280.0941538816631
 20
245.2097097217534
 30
0.0
 40
2.5
100
AcDbArc
 50
180.0
 51
191.5369590328367
  0
ARC
  5
D6
330
2
100
AcDbEntity
  8
0
100
AcDbCircle
 10
279.8160283447454
 20
265.7097097217534
 30
0.0
 40
10.0
100
AcDbArc
 50
229.0739366903954
 51
270.0
1001
ACAD
1000
ASC_BOUNDS
1002
{
1070
    19
1005
0
1002
}
  0
ARC
  5
D7
330
2
100
AcDbEntity
  8
0
100
AcDbCircle
 10
275.0941538816631
 20
253.2097097217534
 30
0.0
 40
2.5
100
AcDbArc
 50
0.0
 51
90.0
  0
LINE
  5
D8
330
2
100
AcDbEntity
  8
0
100
AcDbLine
 10
317.5941538816632
 20
226.7097097217535
 30
0.0
 11
317.5941538816632
 21
244.7097097217524
 31
0.0
1001
ACAD
1000
ASC_BOUNDS
1002
{
1070
    19
1002
}
  0
LINE
  5
D9
330
2
100
AcDbEntity
  8
0
100
AcDbLine
 10
319.8129646795586
 20
227.1151036339848
 30
0.0
 11
319.8129646795586
 21
244.7097097217524
 31
0.0
  0
LINE
  5
DA
330
2
100
AcDbEntity
  8
0
100
AcDbLine
 10
317.5941538816632
 20
226.7097097217535
 30
0.0
 11
319.8129646795586
 21
227.1151036339848
 31
0.0
  0
LINE
  5
DB
330
2
100
AcDbEntity
  8
0
100
AcDbLine
 10
317.5941538816632
 20
226.7097097217535
 30
0.0
 11
318.5941538816631
 21
225.7097097217535
 31
0.0
1001
ACAD
1000
ASC_BOUNDS
1002
{
1070
    19
1002
}
  0
LINE
  5
DC
330
2
100
AcDbEntity
  8
0
100
AcDbLine
 10
322.5941538816631
 20
253.2097097217534
 30
0.0
 11
322.5941538816631
 21
245.2097097217534
 31
0.0
  0
ARC
  5
DD
330
2
100
AcDbEntity
  8
0
100
AcDbCircle
 10
320.0941538816631
 20
245.2097097217534
 30
0.0
 40
2.5
100
AcDbArc
 50
348.4630409671634
 51
0.0
  0
ARC
  5
DE
330
2
100
AcDbEntity
  8
0
100
AcDbCircle
 10
320.3722794185808
 20
265.7097097217534
 30
0.0
 40
10.0
100
AcDbArc
 50
270.0
 51
310.9260633096046
1001
ACAD
1000
ASC_BOUNDS
1002
{
1070
    19
1005
0
1002
}
  0
ARC
  5
DF
330
2
100
AcDbEntity
  8
0
100
AcDbCircle
 10
325.0941538816631
 20
253.2097097217534
 30
0.0
 40
2.5
100
AcDbArc
 50
90.0
 51
180.0
  0
LINE
  5
E0
330
2
100
AcDbEntity
  8
MITTE
 48
7.0
100
AcDbLine
 10
338.0941538816631
 20
222.6519491141471
 30
0.0
 11
338.0941538816631
 21
259.0429839522442
 31
0.0
  0
LINE
  5
E1
330
2
100
AcDbEntity
  8
0
100
AcDbLine
 10
356.3753430837677
 20
227.1151036339848
 30
0.0
 11
356.3753430837677
 21
245.4590163479017
 31
0.0
  0
LINE
  5
E2
330
2
100
AcDbEntity
  8
0
100
AcDbLine
 10
358.5941538816631
 20
226.7097097217535
 30
0.0
 11
358.5941538816631
 21
245.7097097217536
 31
0.0
1001
ACAD
1000
ASC_BOUNDS
1002
{
1070
    19
1002
}
  0
LINE
  5
E3
330
2
100
AcDbEntity
  8
0
100
AcDbLine
 10
340.3129646795586
 20
227.1151036339848
 30
0.0
 11
340.3129646795586
 21
245.4590163479017
 31
0.0
  0
LINE
  5
E4
330
2
100
AcDbEntity
  8
0
100
AcDbLine
 10
335.8753430837677
 20
227.1151036339848
 30
0.0
 11
335.8753430837677
 21
245.4590163479017
 31
0.0
  0
LWPOLYLINE
  5
E5
330
2
100
AcDbEntity
  8
BEM
100
AcDbPolyline
 90
        2
 70
     1
 43
1.0
 10
172.2801854591401
 20
235.17715256927
 42
1.0
 10
173.2801854591401
 20
235.17715256927
 42
1.0
  0
ARC
  5
E6
330
2
100
AcDbEntity
  8
0
100
AcDbCircle
 10
348.3441538816631
 20
249.3597097217536
 30
0.0
 40
23.65000000000001
100
AcDbArc
 50
250.1483977684143
 51
289.8516022315856
  0
LINE
  5
E7
330
2
100
AcDbEntity
  8
0
100
AcDbLine
 10
335.8753430837677
 20
227.1151036339848
 30
0.0
 11
340.3129646795586
 21
227.1151036339848
 31
0.0
  0
LINE
  5
E8
330
2
100
AcDbEntity
  8
0
100
AcDbLine
 10
356.3753430837677
 20
227.1151036339848
 30
0.0
 11
358.5941538816631
 21
226.7097097217535
 31
0.0
  0
LINE
  5
E9
330
2
100
AcDbEntity
  8
0
100
AcDbLine
 10
358.5941538816631
 20
226.7097097217535
 30
0.0
 11
357.5941538816632
 21
225.7097097217535
 31
0.0
1001
ACAD
1000
ASC_BOUNDS
1002
{
1070
    19
1002
}
  0
ARC
  5
EA
330
2
100
AcDbEntity
  8
0
100
AcDbCircle
 10
348.3441538816631
 20
223.2144102601329
 30
0.0
 40
23.65000000000001
100
AcDbArc
 50
70.14839776841435
 51
109.8516022315841
  0
LINE
  5
EB
330
2
100
AcDbEntity
  8
0
100
AcDbLine
 10
335.8753430837677
 20
245.4590163479017
 30
0.0
 11
340.3129646795586
 21
245.4590163479017
 31
0.0
  0
LINE
  5
EC
330
2
100
AcDbEntity
  8
0
100
AcDbLine
 10
360.5941538816631
 20
246.8644102601328
 30
0.0
 11
360.5941538816631
 21
255.7097097217534
 31
0.0
1001
ACAD
1000
ASC_BOUNDS
1002
{
1070
    19
1002
}
  0
LINE
  5
ED
330
2
100
AcDbEntity
  8
0
100
AcDbLine
 10
358.5941538816631
 20
245.7097097217536
 30
0.0
 11
360.5941538816631
 21
246.8644102601328
 31
0.0
1001
ACAD
1000
ASC_BOUNDS
1002
{
1070
    19
1002
}
  0
LINE
  5
EE
330
2
100
AcDbEntity
  8
0
100
AcDbLine
 10
358.5941538816631
 20
245.7097097217536
 30
0.0
 11
356.3753430837677
 21
245.4590163479017
 31
0.0
  0
ARC
  5
EF
330
2
100
AcDbEntity
  8
0
100
AcDbCircle
 10
358.5941538816631
 20
258.2097097217534
 30
0.0
 40
2.5
100
AcDbArc
 50
270.0
 51
0.0
  0
ARC
  5
F0
330
2
100
AcDbEntity
  8
0
100
AcDbCircle
 10
358.5941538816631
 20
258.2097097217534
 30
0.0
 40
2.5
100
AcDbArc
 50
270.0
 51
0.0
  0
DIMENSION
  5
F1
330
2
100
AcDbEntity
  8
BEM
100
AcDbDimension
  2
*D10
 10
368.325825329321
 20
278.4597097217534
 30
0.0
 11
368.3258253293209
 21
290.4597097217535
 31
0.0
 70
   160
  1
%%c<>
 71
     5
 42
24.0
  3
ISO-25
100
AcDbAlignedDimension
 13
402.4755745544728
 23
302.4597097217534
 33
0.0
 14
402.4755745544728
 24
278.4597097217534
 34
0.0
 50
90.0
100
AcDbRotatedDimension
1001
ACAD
1000
DSTYLE
1002
{
1070
   144
1040
1.0
1002
}
  0
DIMENSION
  5
FE
330
2
100
AcDbEntity
  8
BEM
100
AcDbDimension
  2
*D11
 10
401.4755745544729
 20
178.4310104296751
 30
0.0
 11
426.4755745544729
 21
187.4310104296751
 31
0.0
 70
    32
 71
     5
 42
50.0
  3
ISO-25
100
AcDbAlignedDimension
 13
451.4755745544729
 23
276.4597097217534
 33
0.0
 14
401.4755745544729
 24
290.4597097217534
 34
0.0
100
AcDbRotatedDimension
1001
ACAD
1000
DSTYLE
1002
{
1070
   144
1040
1.0
1002
}
  0
LINE
  5
10B
330
2
100
AcDbEntity
  8
0
100
AcDbLine
 10
465.9755745544729
 20
211.4597097217534
 30
0.0
 11
456.4755745544728
 21
211.4597097217534
 31
0.0
  0
LINE
  5
10C
330
2
100
AcDbEntity
  8
0
100
AcDbLine
 10
468.4755745544729
 20
213.9597097217534
 30
0.0
 11
465.9755745544729
 21
211.4597097217534
 31
0.0
  0
LINE
  5
10D
330
2
100
AcDbEntity
  8
MITTE
 48
15.0
100
AcDbLine
 10
397.7765687031061
 20
290.4597097217534
 30
0.0
 11
546.9372237614127
 21
290.4597097217534
 31
0.0
  0
LINE
  5
10E
330
2
100
AcDbEntity
  8
0
100
AcDbLine
 10
471.4606848731393
 20
240.8775119955028
 30
0.0
 11
510.2001695321859
 21
249.0309353202592
 31
0.0
  0
LINE
  5
10F
330
2
100
AcDbEntity
  8
0
100
AcDbLine
 10
471.9755745544728
 20
260.4597097217534
 30
0.0
 11
501.065900908482
 21
260.4597097217534
 31
0.0
  0
LINE
  5
110
330
2
100
AcDbEntity
  8
0
100
AcDbLine
 10
496.8249394598618
 20
287.9597097217533
 30
0.0
 11
471.9755745544728
 21
287.9597097217533
 31
0.0
  0
LINE
  5
111
330
2
100
AcDbEntity
  8
0
100
AcDbLine
 10
496.8249394598618
 20
295.9597097217534
 30
0.0
 11
471.9755745544728
 21
295.9597097217534
 31
0.0
  0
DIMENSION
  5
112
330
2
100
AcDbEntity
  8
BEM
100
AcDbDimension
  2
*D12
 10
449.8755745544729
 20
276.8597097217535
 30
0.0
 11
420.9683339069949
 21
246.6165316846595
 31
0.0
 70
   164
 71
     5
 42
1.599999999999852
  3
ISO-25
100
AcDbRadialDimension
 15
450.9811109801172
 25
278.0163381026836
 35
0.0
 40
0.0
1001
ACAD
1000
DSTYLE
1002
{
1070
   144
1040
1.0
1070
   279
1070
     1
1002
}
  0
LINE
  5
11B
330
2
100
AcDbEntity
  8
BEM
100
AcDbLine
 10
456.4755745544728
 20
235.4597097217534
 30
0.0
 11
426.5809911532588
 21
235.4597097217534
 31
0.0
  0
ARC
  5
11C
330
2
100
AcDbEntity
  8
0
100
AcDbCircle
 10
471.9755745544727
 20
238.4311087956896
 30
0.0
 40
2.5
100
AcDbArc
 50
101.8854606354789
 51
180.0000000000001
  0
LINE
  5
11D
330
2
100
AcDbEntity
  8
LINIE
  6
STRICHLINIE
 48
5.0
100
AcDbLine
 10
460.4755745544727
 20
235.4597097217534
 30
0.0
 11
456.4755745544728
 21
235.4597097217534
 31
0.0
  0
LINE
  5
11E
330
2
100
AcDbEntity
  8
0
100
AcDbLine
 10
469.4755745544727
 20
235.4597097217534
 30
0.0
 11
468.4755745544727
 21
235.4597097217534
 31
0.0
  0
ARC
  5
11F
330
2
100
AcDbEntity
  8
0
100
AcDbCircle
 10
471.9755745544728
 20
257.9597097217534
 30
0.0
 40
2.5
100
AcDbArc
 50
90.0
 51
180.0
  0
LINE
  5
120
330
2
100
AcDbEntity
  8
0
100
AcDbLine
 10
446.4755745544728
 20
305.3597097217533
 30
0.0
 11
406.4755745544728
 21
305.3597097217533
 31
0.0
  0
LINE
  5
121
330
2
100
AcDbEntity
  8
0
100
AcDbLine
 10
402.4755745544728
 20
302.4597097217534
 30
0.0
 11
449.8755745544728
 21
302.4597097217534
 31
0.0
  0
LINE
  5
122
330
2
100
AcDbEntity
  8
0
100
AcDbLine
 10
402.4755745544728
 20
278.4597097217534
 30
0.0
 11
449.8755745544728
 21
278.4597097217533
 31
0.0
  0
LINE
  5
123
330
2
100
AcDbEntity
  8
0
100
AcDbLine
 10
401.4755745544729
 20
301.4597097217534
 30
0.0
 11
401.4755745544729
 21
279.4597097217534
 31
0.0
  0
LINE
  5
124
330
2
100
AcDbEntity
  8
0
100
AcDbLine
 10
402.4755745544728
 20
302.4597097217534
 30
0.0
 11
402.4755745544728
 21
278.4597097217534
 31
0.0
  0
LINE
  5
125
330
2
100
AcDbEntity
  8
0
100
AcDbLine
 10
402.4755745544728
 20
278.4597097217534
 30
0.0
 11
401.4755745544729
 21
279.4597097217534
 31
0.0
  0
LINE
  5
126
330
2
100
AcDbEntity
  8
0
100
AcDbLine
 10
402.4755745544728
 20
302.4597097217534
 30
0.0
 11
401.4755745544729
 21
301.4597097217534
 31
0.0
  0
LINE
  5
127
330
2
100
AcDbEntity
  8
0
100
AcDbLine
 10
406.4755745544728
 20
302.4597097217534
 30
0.0
 11
406.4755745544728
 21
305.3597097217533
 31
0.0
  0
ARC
  5
128
330
2
100
AcDbEntity
  8
0
100
AcDbCircle
 10
471.9755745544728
 20
285.4597097217533
 30
0.0
 40
2.5
100
AcDbArc
 50
90.0
 51
180.0
  0
LINE
  5
129
330
2
100
AcDbEntity
  8
0
100
AcDbLine
 10
451.4755745544729
 20
304.4597097217534
 30
0.0
 11
451.4755745544729
 21
276.4597097217534
 31
0.0
  0
LINE
  5
12A
330
2
100
AcDbEntity
  8
0
100
AcDbLine
 10
451.4755745544729
 20
276.4597097217534
 30
0.0
 11
456.4755745544722
 21
276.4597097217533
 31
0.0
  0
ARC
  5
12B
330
2
100
AcDbEntity
  8
0
100
AcDbCircle
 10
449.8755745544728
 20
276.8597097217533
 30
0.0
 40
1.6
100
AcDbArc
 50
0.0
 51
90.0
  0
LINE
  5
12C
330
2
100
AcDbEntity
  8
0
100
AcDbLine
 10
451.4755745544729
 20
304.4597097217534
 30
0.0
 11
456.475574554472
 21
304.4597097217533
 31
0.0
  0
ARC
  5
12D
330
2
100
AcDbEntity
  8
0
100
AcDbCircle
 10
449.8755745544728
 20
304.0597097217534
 30
0.0
 40
1.6
100
AcDbArc
 50
270.0
 51
0.0
  0
LINE
  5
12E
330
2
100
AcDbEntity
  8
0
100
AcDbLine
 10
446.4755745544728
 20
302.4597097217534
 30
0.0
 11
446.4755745544728
 21
305.3597097217533
 31
0.0
  0
ARC
  5
12F
330
2
100
AcDbEntity
  8
0
100
AcDbCircle
 10
471.9755745544728
 20
298.4597097217534
 30
0.0
 40
2.5
100
AcDbArc
 50
180.0
 51
270.0
  0
LINE
  5
130
330
2
100
AcDbEntity
  8
LINIE
 48
10.0
100
AcDbLine
 10
505.4851934977062
 20
282.9597097217534
 30
0.0
 11
505.4851934977062
 21
262.9983693889792
 31
0.0
  0
LINE
  5
131
330
2
100
AcDbEntity
  8
0
100
AcDbLine
 10
544.4755745544732
 20
275.7097097217534
 30
0.0
 11
544.4755745544735
 21
248.7097097217533
 31
0.0
1001
ACAD
1000
ASC_BOUNDS
1002
{
1070
    19
1005
0
1005
0
1002
}
  0
LINE
  5
132
330
2
100
AcDbEntity
  8
0
100
AcDbLine
 10
537.4755745544726
 20
303.0145658368613
 30
0.0
 11
537.4755745544726
 21
248.4597097217533
 31
0.0
  0
ARC
  5
133
330
2
100
AcDbEntity
  8
0
100
AcDbCircle
 10
514.319286982853
 20
229.4597097217534
 30
0.0
 40
20.0
100
AcDbArc
 50
90.0
 51
101.8854606354789
  0
LINE
  5
134
330
2
100
AcDbEntity
  8
0
100
AcDbLine
 10
513.4755745544728
 20
249.4597097217534
 30
0.0
 11
527.4755745544728
 21
249.4597097217534
 31
0.0
  0
ARC
  5
135
330
2
100
AcDbEntity
  8
0
100
AcDbCircle
 10
513.4755745544728
 20
259.4597097217534
 30
0.0
 40
10.0
100
AcDbArc
 50
186.8921025793465
 51
270.0
  0
ARC
  5
136
330
2
100
AcDbEntity
  8
0
100
AcDbCircle
 10
501.065900908482
 20
257.9597097217534
 30
0.0
 40
2.5
100
AcDbArc
 50
6.892102579346098
 51
90.0
  0
LINE
  5
137
330
2
100
AcDbEntity
  8
0
100
AcDbLine
 10
529.4755745544728
 20
248.4597097217534
 30
0.0
 11
537.4755745544728
 21
248.4597097217534
 31
0.0
  0
ARC
  5
138
330
2
100
AcDbEntity
  8
0
100
AcDbCircle
 10
527.4755745544728
 20
246.9597097217534
 30
0.0
 40
2.5
100
AcDbArc
 50
36.86989764584419
 51
90.0
  0
LINE
  5
139
330
2
100
AcDbEntity
  8
0
100
AcDbLine
 10
537.4755745544734
 20
248.7097097217533
 30
0.0
 11
544.4755745544735
 21
248.7097097217533
 31
0.0
1001
ACAD
1000
ASC_BOUNDS
1002
{
1070
    19
1005
0
1002
}
  0
LINE
  5
13A
330
2
100
AcDbEntity
  8
LINIE
 48
10.0
100
AcDbLine
 10
505.4851934977062
 20
297.4666368250889
 30
0.0
 11
505.4851934977062
 21
285.8031312395381
 31
0.0
  0
ARC
  5
13B
330
2
100
AcDbEntity
  8
0
100
AcDbCircle
 10
496.8249394598618
 20
277.9597097217534
 30
0.0
 40
10.0
100
AcDbArc
 50
30.00000000000028
 51
90.0
  0
ARC
  5
13C
330
2
100
AcDbEntity
  8
0
100
AcDbCircle
 10
496.8249394598618
 20
305.9597097217534
 30
0.0
 40
10.0
100
AcDbArc
 50
270.0
 51
329.9999999999997
  0
LINE
  5
13D
330
2
100
AcDbEntity
  8
MITTE
 48
10.0
100
AcDbLine
 10
231.0676511278064
 20
325.7097097217534
 30
0.0
 11
367.6124326503519
 21
325.7097097217534
 31
0.0
  0
ARC
  5
13E
330
2
100
AcDbEntity
  8
0
100
AcDbCircle
 10
300.0941538816631
 20
325.7097097217534
 30
0.0
 40
61.0
100
AcDbArc
 50
0.0
 51
180.0
1001
ACAD
1000
ASC_BOUNDS
1002
{
1070
    19
1005
0
1002
}
  0
ARC
  5
13F
330
2
100
AcDbEntity
  8
0
100
AcDbCircle
 10
242.2747240080424
 20
325.918908085365
 30
0.0
 40
8.0
100
AcDbArc
 50
109.6254537415548
 51
181.4984437231788
  0
ARC
  5
140
330
2
100
AcDbEntity
  8
0
100
AcDbCircle
 10
300.5053707128682
 20
383.5363599018062
 30
0.0
 40
8.0
100
AcDbArc
 50
19.35914998622951
 51
159.825980341106
  0
ARC
  5
141
330
2
100
AcDbEntity
  8
0
100
AcDbCircle
 10
357.9135837552838
 20
325.918908085365
 30
0.0
 40
8.0
100
AcDbArc
 50
293.4264341163755
 51
70.37454625844519
  0
DIMENSION
  5
143
330
2
100
AcDbEntity
  8
BEM
100
AcDbDimension
  2
*D13
 10
456.4755745544712
 20
451.4322958701188
 30
0.0
 11
493.8565269354253
 21
451.4322958701188
 31
0.0
 70
   160
 71
     5
 42
12.0000000000017
  3
ISO-25
100
AcDbAlignedDimension
 13
468.4755745544729
 23
366.9597097217534
 33
0.0
 14
456.4755745544712
 24
369.4597097217534
 34
0.0
100
AcDbRotatedDimension
1001
ACAD
1000
DSTYLE
1002
{
1070
   144
1040
1.0
1002
}
  0
DIMENSION
  5
152
330
2
100
AcDbEntity
  8
BEM
100
AcDbDimension
  2
*D14
 10
456.4755745544712
 20
418.9103272242594
 30
0.0
 11
434.9041459830426
 21
418.9103272242594
 31
0.0
 70
   160
 71
     5
 42
4.000000000000341
  3
ISO-25
100
AcDbAlignedDimension
 13
460.4755745544715
 23
345.4597097217534
 33
0.0
 14
456.4755745544712
 24
369.4597097217534
 34
0.0
100
AcDbRotatedDimension
1001
ACAD
1000
DSTYLE
1002
{
1070
   144
1040
1.0
1070
   289
1070
     0
1002
}
  0
LINE
  5
161
330
2
100
AcDbEntity
  8
0
100
AcDbLine
 10
471.9755745544727
 20
320.4597097217539
 30
0.0
 11
500.9755745544728
 21
320.4597097217535
 31
0.0
  0
LINE
  5
162
330
2
100
AcDbEntity
  8
0
100
AcDbLine
 10
496.8249394598618
 20
340.4597097217534
 30
0.0
 11
471.9755745544728
 21
340.4597097217534
 31
0.0
  0
ARC
  5
163
330
2
100
AcDbEntity
  8
0
100
AcDbCircle
 10
471.9755745544728
 20
322.9597097217534
 30
0.0
 40
2.5
100
AcDbArc
 50
180.0
 51
270.0
  0
LINE
  5
164
330
2
100
AcDbEntity
  8
LINIE
  6
STRICHLINIE
 48
5.0
100
AcDbLine
 10
460.4755745544715
 20
345.4597097217534
 30
0.0
 11
456.4755745544715
 21
345.4597097217534
 31
0.0
  0
ARC
  5
165
330
2
100
AcDbEntity
  8
0
100
AcDbCircle
 10
471.9755745544728
 20
342.9597097217534
 30
0.0
 40
2.5
100
AcDbArc
 50
180.0
 51
270.0
  0
LINE
  5
166
330
2
100
AcDbEntity
  8
0
100
AcDbLine
 10
469.4755745544727
 20
345.4597097217534
 30
0.0
 11
468.4755745544727
 21
345.4597097217534
 31
0.0
  0
LINE
  5
167
330
2
100
AcDbEntity
  8
0
100
AcDbLine
 10
465.9755745544729
 20
369.4597097217534
 30
0.0
 11
456.4755745544712
 21
369.4597097217534
 31
0.0
  0
LINE
  5
168
330
2
100
AcDbEntity
  8
0
100
AcDbLine
 10
468.4755745544729
 20
366.9597097217534
 30
0.0
 11
465.9755745544729
 21
369.4597097217534
 31
0.0
  0
LINE
  5
169
330
2
100
AcDbEntity
  8
0
100
AcDbLine
 10
537.4755745544726
 20
379.9597097217534
 30
0.0
 11
537.4755745544725
 21
361.2097097217533
 31
0.0
  0
LINE
  5
16A
330
2
100
AcDbEntity
  8
0
100
AcDbLine
 10
528.4755745544727
 20
379.9597097217534
 30
0.0
 11
528.4755745544727
 21
357.4030853947274
 31
0.0
  0
ARC
  5
16B
330
2
100
AcDbEntity
  8
0
100
AcDbCircle
 10
518.4755745544728
 20
337.9597097217534
 30
0.0
 40
15.0
100
AcDbArc
 50
78.40981768499317
 51
180.0
  0
LINE
  5
16C
330
2
100
AcDbEntity
  8
0
100
AcDbLine
 10
503.4755745544727
 20
337.9597097217534
 30
0.0
 11
503.4755745544727
 21
322.9597097217535
 31
0.0
  0
LINE
  5
16D
330
2
100
AcDbEntity
  8
0
100
AcDbLine
 10
479.9755745544727
 20
322.4597097217535
 30
0.0
 11
494.9755745544727
 21
322.4597097217535
 31
0.0
  0
LINE
  5
16E
330
2
100
AcDbEntity
  8
MITTE
 48
5.0
100
AcDbLine
 10
487.4755745544727
 20
326.4260159790861
 30
0.0
 11
487.4755745544727
 21
315.9225950562852
 31
0.0
  0
ARC
  5
16F
330
2
100
AcDbEntity
  8
0
100
AcDbCircle
 10
477.5260848116896
 20
322.9597097217535
 30
0.0
 40
2.5
100
AcDbArc
 50
270.0
 51
348.463040967183
  0
ARC
  5
170
330
2
100
AcDbEntity
  8
0
100
AcDbCircle
 10
500.9755745544728
 20
322.9597097217535
 30
0.0
 40
2.5
100
AcDbArc
 50
270.0
 51
0.0000000000000382
  0
ARC
  5
171
330
2
100
AcDbEntity
  8
0
100
AcDbCircle
 10
497.4250642972559
 20
322.9597097217535
 30
0.0
 40
2.5
100
AcDbArc
 50
191.5369590328169
 51
270.0
  0
ARC
  5
172
330
2
100
AcDbEntity
  8
0
100
AcDbCircle
 10
496.8249394598618
 20
350.4597097217534
 30
0.0
 40
10.0
100
AcDbArc
 50
270.0
 51
329.9999999999997
  0
LINE
  5
173
330
2
100
AcDbEntity
  8
0
100
AcDbLine
 10
523.2415007281406
 20
352.9378157891621
 30
0.0
 11
527.2255745544728
 21
355.2380218852663
 31
0.0
  0
ARC
  5
174
330
2
100
AcDbEntity
  8
0
100
AcDbCircle
 10
521.9915007281406
 20
355.1028792986232
 30
0.0
 40
2.5
100
AcDbArc
 50
258.4098176849932
 51
299.999999999999
  0
ARC
  5
175
330
2
100
AcDbEntity
  8
0
100
AcDbCircle
 10
525.9755745544728
 20
357.4030853947274
 30
0.0
 40
2.5
100
AcDbArc
 50
300.0
 51
0.0
  0
LINE
  5
176
330
2
100
AcDbEntity
  8
0
100
AcDbLine
 10
544.4755745544724
 20
391.7097097217535
 30
0.0
 11
544.4755745544726
 21
375.7097097217534
 31
0.0
1001
ACAD
1000
ASC_BOUNDS
1002
{
1070
    19
1005
0
1005
0
1002
}
  0
LINE
  5
177
330
2
100
AcDbEntity
  8
0
100
AcDbLine
 10
537.4755745544726
 20
379.9597097217534
 30
0.0
 11
528.4755745544727
 21
379.9597097217534
 31
0.0
  0
DIMENSION
  5
178
330
2
100
AcDbEntity
  8
BEM
100
AcDbDimension
  2
*D15
 10
863.9582879346065
 20
270.5300492747424
 30
0.0
 11
1031.963074903397
 21
324.6486360139414
 31
0.0
 70
   163
 71
     5
 42
130.0000000000001
  3
ISO-25
100
AcDbDiametricDimension
 15
987.6968612974321
 25
310.3893701687643
 35
0.0
 40
0.0
1001
ACAD
1000
DSTYLE
1002
{
1070
   144
1040
1.0
1002
}
  0
DIMENSION
  5
184
330
2
100
AcDbEntity
  8
BEM
100
AcDbDimension
  2
*D16
 10
741.0043313757048
 20
244.7097097217533
 30
0.0
 11
732.0043313757048
 21
285.2097097217534
 31
0.0
 70
    32
 71
     5
 42
81.00000000000006
  3
ISO-25
100
AcDbAlignedDimension
 13
720.8615894561482
 23
325.7097097217534
 33
0.0
 14
701.9250642972556
 24
244.7097097217533
 34
0.0
 50
90.0
100
AcDbRotatedDimension
1001
ACAD
1000
DSTYLE
1002
{
1070
   144
1040
1.0
1002
}
  0
DIMENSION
  5
191
330
2
100
AcDbEntity
  8
BEM
100
AcDbDimension
  2
*D17
 10
773.6524664625705
 20
225.7097097217535
 30
0.0
 11
764.6524664625705
 21
275.7097097217535
 31
0.0
 70
    32
 71
     5
 42
99.99999999999985
  3
ISO-25
100
AcDbAlignedDimension
 13
720.8615894561482
 23
325.7097097217534
 33
0.0
 14
629.4666560899595
 24
225.7097097217535
 34
0.0
 50
90.0
100
AcDbRotatedDimension
1001
ACAD
1000
DSTYLE
1002
{
1070
   144
1040
1.0
1002
}
  0
DIMENSION
  5
19E
330
2
100
AcDbEntity
  8
BEM
100
AcDbDimension
  2
*D18
 10
801.2757392396258
 20
255.7097097217534
 30
0.0
 11
792.2757392396258
 21
321.2097097217535
 31
0.0
 70
    32
 71
     5
 42
131.0
  3
ISO-25
100
AcDbAlignedDimension
 13
711.4755745544726
 23
386.7097097217534
 33
0.0
 14
780.4551906178192
 24
255.7097097217534
 34
0.0
 50
90.0
100
AcDbRotatedDimension
1001
ACAD
1000
DSTYLE
1002
{
1070
   144
1040
1.0
1002
}
  0
DIMENSION
  5
1AB
330
2
100
AcDbEntity
  8
BEM
100
AcDbDimension
  2
*D19
 10
966.6806877171124
 20
331.3128228228463
 30
0.0
 11
976.1141381975475
 21
408.600418851503
 31
0.0
 70
   162
 71
     5
 42
0.7853981633974288
  3
ISO-25
100
AcDb2LineAngularDimension
 13
925.827574616019
 23
394.3990968364521
 33
0.0
 14
925.827574616019
 24
209.1141177884451
 34
0.0
 15
977.4554059590704
 25
342.0875410648045
 35
0.0
 16
959.0593409591763
 26
414.4823501396745
 36
0.0
1001
ACAD
1000
DSTYLE
1002
{
1070
    79
1070
     2
1070
   144
1040
1.0
1070
   179
1070
     4
1002
}
  0
LINE
  5
1BA
330
2
100
AcDbEntity
  8
LINIE
 48
10.0
100
AcDbLine
 10
568.1528298006969
 20
324.5529189284912
 30
0.0
 11
568.1528298006969
 21
266.8486716664377
 31
0.0
  0
CIRCLE
  5
1BB
330
2
100
AcDbEntity
  8
MITTE
 48
10.0
100
AcDbCircle
 10
820.0304727227491
 20
290.4597097217534
 30
0.0
 40
65.0
  0
LINE
  5
1BC
330
2
100
AcDbEntity
  8
MITTE
 48
10.0
100
AcDbLine
 10
820.0304727227491
 20
394.3990968364521
 30
0.0
 11
820.0304727227491
 21
209.1141177884451
 31
0.0
  0
CIRCLE
  5
1BD
330
2
100
AcDbEntity
  8
0
100
AcDbCircle
 10
820.0304727227491
 20
290.4597097217534
 30
0.0
 40
55.0
  0
CIRCLE
  5
1BE
330
2
100
AcDbEntity
  8
0
100
AcDbCircle
 10
820.0304727227491
 20
290.4597097217534
 30
0.0
 40
79.0
  0
LINE
  5
1BF
330
2
100
AcDbEntity
  8
0
100
AcDbLine
 10
644.4755745544726
 20
322.7770318431101
 30
0.0
 11
644.4755745544726
 21
259.2097097217534
 31
0.0
1001
ACAD
1000
ASC_BOUNDS
1002
{
1070
    19
1002
}
  0
LINE
  5
1C0
330
2
100
AcDbEntity
  8
0
100
AcDbLine
 10
716.4755745544725
 20
381.7097097217534
 30
0.0
 11
716.4755745544725
 21
260.7097097217534
 31
0.0
1001
ACAD
1000
ASC_BOUNDS
1002
{
1070
    19
1002
}
  0
DIMENSION
  5
1C1
330
2
100
AcDbEntity
  8
BEM
100
AcDbDimension
  2
*D20
 10
848.2913550866914
 20
305.5969043462502
 30
0.0
 11
1047.26981959676
 21
266.7508558587663
 31
0.0
 70
   163
 71
     5
 42
158.0000000000001
  3
ISO-25
100
AcDbDiametricDimension
 15
1003.363794145347
 25
275.3225150972563
 35
0.0
 40
0.0
1001
ACAD
1000
DSTYLE
1002
{
1070
   144
1040
1.0
1002
}
  0
LINE
  5
1CD
330
2
100
AcDbEntity
  8
MITTE
 48
10.0
100
AcDbLine
 10
901.2293575156233
 20
290.4597097217534
 30
0.0
 11
738.7988244380028
 21
290.4597097217534
 31
0.0
  0
LINE
  5
1CE
330
2
100
AcDbEntity
  8
MITTE
 48
3.0
100
AcDbLine
 10
781.1515752333159
 20
251.5808122323201
 30
0.0
 11
768.1809024220012
 21
238.6101394210054
 31
0.0
  0
LINE
  5
1CF
330
2
100
AcDbEntity
  8
0
100
AcDbLine
 10
762.5304727227492
 20
224.7097097217535
 30
0.0
 11
776.2362093997977
 21
224.7097097217535
 31
0.0
1001
ACAD
1000
ASC_BOUNDS
1002
{
1070
    19
1005
0
1002
}
  0
ARC
  5
1D0
330
2
100
AcDbEntity
  8
0
100
AcDbCircle
 10
771.7804727227492
 20
248.3597097217534
 30
0.0
 40
23.65000000000001
100
AcDbArc
 50
250.1483977684151
 51
279.6362623934384
  0
CIRCLE
  5
1D1
330
2
100
AcDbEntity
  8
0
100
AcDbCircle
 10
774.0685319456235
 20
244.4977689446279
 30
0.0
 40
4.5
  0
LINE
  5
1D3
330
2
100
AcDbEntity
  8
BEM
100
AcDbLine
 10
711.4755745544726
 20
255.7097097217534
 30
0.0
 11
730.4317972734868
 21
255.7097097217534
 31
0.0
  0
MTEXT
  5
1D4
330
2
100
AcDbEntity
  8
BEM
 48
10.0
100
AcDbMText
 10
613.0433420937672
 20
186.1266045212951
 30
0.0
 40
10.0
 41
0.0
 71
     4
 72
     1
  1
\A1;
 73
     1
 44
1.0
  0
LEADER
  5
1D5
330
2
100
AcDbEntity
  8
BEM
100
AcDbLeader
  3
ISO-25
 74
     0
 40
10.0
 76
     2
 10
681.4755745544726
 20
244.7097097217534
 30
0.0
 10
731.694162065991
 20
177.1266045212951
 30
0.0
1001
ACAD
1000
DSTYLE
1002
{
1070
   144
1040
1.0
1002
}
  0
ARC
  5
1D6
330
2
100
AcDbEntity
  8
0
100
AcDbCircle
 10
711.4755745544726
 20
260.7097097217534
 30
0.0
 40
5.0
100
AcDbArc
 50
270.0
 51
0.0
1001
ACAD
1000
ASC_BOUNDS
1002
{
1070
    19
1002
}
  0
DIMENSION
  5
1D7
330
2
100
AcDbEntity
  8
BEM
100
AcDbDimension
  2
*D21
 10
608.4755745544725
 20
178.4310104296751
 30
0.0
 11
644.9755745544726
 21
187.4310104296751
 31
0.0
 70
    32
 71
     5
 42
73.0
  3
ISO-25
100
AcDbAlignedDimension
 13
681.4755745544726
 23
240.6105789983051
 33
0.0
 14
608.4755745544725
 24
222.5005755861861
 34
0.0
100
AcDbRotatedDimension
1001
ACAD
1000
DSTYLE
1002
{
1070
   144
1040
1.0
1002
}
  0
MTEXT
  5
1E4
330
2
100
AcDbEntity
  8
BEM
 48
10.0
100
AcDbMText
 10
457.9302800175508
 20
202.179276141615
 30
0.0
 40
10.0
 41
0.0
 71
     6
 72
     1
  1
\A1;
 73
     1
 44
1.0
  0
LEADER
  5
1E5
330
2
100
AcDbEntity
  8
BEM
100
AcDbLeader
  3
ISO-25
 40
10.0
 76
     2
 10
608.4755745544725
 20
225.7097097217535
 30
0.0
 10
584.5810999897746
 20
193.179276141615
 30
0.0
1001
ACAD
1000
DSTYLE
1002
{
1070
   144
1040
1.0
1002
}
  0
MTEXT
  5
1E6
330
2
100
AcDbEntity
  8
BEM
100
AcDbMText
 10
558.0924749161568
 20
203.0071137217508
 30
0.0
 40
10.0
 41
0.0
 71
     4
 72
     1
  1
G 1"
 73
     1
 44
1.0
  0
LINE
  5
1E7
330
2
100
AcDbEntity
  8
BEM
100
AcDbLine
 10
584.5810999897746
 20
193.179276141615
 30
0.0
 11
557.6449048643024
 21
193.179276141615
 31
0.0
  0
LINE
  5
1E8
330
2
100
AcDbEntity
  8
0
100
AcDbLine
 10
568.9755745544726
 20
256.7097097217533
 30
0.0
 11
651.4755745544724
 21
256.7097097217533
 31
0.0
1001
ACAD
1000
ASC_BOUNDS
1002
{
1070
    19
1002
}
  0
ARC
  5
1E9
330
2
100
AcDbEntity
  8
0
100
AcDbCircle
 10
571.044077071951
 20
254.7097097217535
 30
0.0
 40
10.0
100
AcDbArc
 50
90.0
 51
131.4096221092711
1001
ACAD
1000
ASC_BOUNDS
1002
{
1070
    19
1002
}
  0
LINE
  5
1EA
330
2
100
AcDbEntity
  8
0
100
AcDbLine
 10
568.4755745544726
 20
258.2097097217534
 30
0.0
 11
568.4755745544726
 21
264.3742218572783
 31
0.0
  0
ARC
  5
1EB
330
2
100
AcDbEntity
  8
0
100
AcDbCircle
 10
580.4755745544725
 20
260.7097097217534
 30
0.0
 40
4.0
100
AcDbArc
 50
0.0000000000001018
 51
90.0
1001
ACAD
1000
ASC_BOUNDS
1002
{
1070
    19
1002
}
  0
LINE
  5
1EC
330
2
100
AcDbEntity
  8
0
100
AcDbLine
 10
629.4666560899595
 20
225.7097097217535
 30
0.0
 11
587.4844930189855
 21
225.7097097217535
 31
0.0
  0
ARC
  5
1ED
330
2
100
AcDbEntity
  8
0
100
AcDbCircle
 10
590.667218789556
 20
233.7579777800876
 30
0.0
 40
8.048268058334087
100
AcDbArc
 50
234.3425218101842
 51
305.6574781898167
  0
LINE
  5
1EE
330
2
100
AcDbEntity
  8
0
100
AcDbLine
 10
630.9755745544726
 20
256.7097097217535
 30
0.0
 11
585.9755745544726
 21
256.7097097217533
 31
0.0
1001
ACAD
1000
ASC_BOUNDS
1002
{
1070
    19
1002
}
  0
LINE
  5
1EF
330
2
100
AcDbEntity
  8
0
100
AcDbLine
 10
630.9755745544726
 20
246.8644102601327
 30
0.0
 11
585.9755745544726
 21
246.8644102601327
 31
0.0
  0
ARC
  5
1F0
330
2
100
AcDbEntity
  8
0
100
AcDbCircle
 10
590.667218789556
 20
238.8161422017986
 30
0.0
 40
8.048268058334087
100
AcDbArc
 50
54.34252181018327
 51
125.6574781898158
  0
LINE
  5
1F1
330
2
100
AcDbEntity
  8
0
100
AcDbLine
 10
585.9755745544726
 20
227.2186281862664
 30
0.0
 11
585.9755745544726
 21
245.3554917956198
 31
0.0
  0
LINE
  5
1F2
330
2
100
AcDbEntity
  8
0
100
AcDbLine
 10
585.9755745544726
 20
227.2186281862664
 30
0.0
 11
587.4844930189855
 21
225.7097097217535
 31
0.0
1001
ACAD
1000
ASC_BOUNDS
1002
{
1070
    19
1002
}
  0
ARC
  5
1F3
330
2
100
AcDbEntity
  8
0
100
AcDbCircle
 10
557.8153205166281
 20
269.7097097217534
 30
0.0
 40
10.0
100
AcDbArc
 50
270.0
 51
311.409622109271
1001
ACAD
1000
ASC_BOUNDS
1002
{
1070
    19
1002
}
  0
ARC
  5
1F4
330
2
100
AcDbEntity
  8
0
100
AcDbCircle
 10
570.9755745544725
 20
258.2097097217534
 30
0.0
 40
2.5
100
AcDbArc
 50
180.0
 51
216.8698976458442
  0
LINE
  5
1F5
330
2
100
AcDbEntity
  8
0
100
AcDbLine
 10
585.9755745544726
 20
246.8644102601328
 30
0.0
 11
585.9755745544726
 21
256.7097097217533
 31
0.0
1001
ACAD
1000
ASC_BOUNDS
1002
{
1070
    19
1002
}
  0
LINE
  5
1F6
330
2
100
AcDbEntity
  8
0
100
AcDbLine
 10
585.9755745544726
 20
245.3554917956198
 30
0.0
 11
587.4844930189855
 21
246.8644102601327
 31
0.0
1001
ACAD
1000
ASC_BOUNDS
1002
{
1070
    19
1002
}
  0
ARC
  5
1F7
330
2
100
AcDbEntity
  8
0
100
AcDbCircle
 10
588.4755745544727
 20
259.7097097217534
 30
0.0
 40
4.0
100
AcDbArc
 50
180.0
 51
228.590377890729
1001
ACAD
1000
ASC_BOUNDS
1002
{
1070
    19
1002
}
  0
LINE
  5
1F8
330
2
100
AcDbEntity
  8
0
100
AcDbLine
 10
584.4755745544727
 20
259.7097097217534
 30
0.0
 11
584.4755745544725
 21
260.7097097217534
 31
0.0
1001
ACAD
1000
ASC_BOUNDS
1002
{
1070
    19
1002
}
  0
LINE
  5
1F9
330
2
100
AcDbEntity
  8
MITTE
 48
8.0
100
AcDbLine
 10
608.4755745544725
 20
262.235679318053
 30
0.0
 11
608.4755745544725
 21
222.5005755861861
 31
0.0
  0
LINE
  5
1FA
330
2
100
AcDbEntity
  8
0
100
AcDbLine
 10
599.2019560589768
 20
226.9432783118374
 30
0.0
 11
599.2019560589768
 21
245.630841670049
 31
0.0
  0
LINE
  5
1FB
330
2
100
AcDbEntity
  8
0
100
AcDbLine
 10
595.3588630246395
 20
227.2186281862664
 30
0.0
 11
595.3588630246395
 21
245.3554917956198
 31
0.0
  0
LINE
  5
1FC
330
2
100
AcDbEntity
  8
0
100
AcDbLine
 10
621.5922860843057
 20
227.2186281862664
 30
0.0
 11
621.5922860843058
 21
245.3554917956198
 31
0.0
  0
LINE
  5
1FD
330
2
100
AcDbEntity
  8
0
100
AcDbLine
 10
617.7491930499683
 20
226.9432783118374
 30
0.0
 11
617.7491930499682
 21
245.6308416700493
 31
0.0
  0
LINE
  5
1FE
330
2
100
AcDbEntity
  8
0
100
AcDbLine
 10
630.9755745544726
 20
227.2186281862665
 30
0.0
 11
630.9755745544726
 21
245.3554917956198
 31
0.0
  0
ARC
  5
1FF
330
2
100
AcDbEntity
  8
0
100
AcDbCircle
 10
608.4755745544725
 20
261.1847097217535
 30
0.0
 40
35.475
100
AcDbArc
 50
254.8460917587445
 51
285.1539082412555
  0
LINE
  5
200
330
2
100
AcDbEntity
  8
0
100
AcDbLine
 10
595.3588630246395
 20
227.2186281862664
 30
0.0
 11
599.2019560589768
 21
227.2186281862664
 31
0.0
  0
ARC
  5
201
330
2
100
AcDbEntity
  8
0
100
AcDbCircle
 10
626.2839303193891
 20
233.7579777800876
 30
0.0
 40
8.048268058334087
100
AcDbArc
 50
234.3425218101833
 51
305.6574781898158
  0
LINE
  5
202
330
2
100
AcDbEntity
  8
0
100
AcDbLine
 10
630.9755745544726
 20
227.2186281862665
 30
0.0
 11
629.4666560899595
 21
225.7097097217535
 31
0.0
1001
ACAD
1000
ASC_BOUNDS
1002
{
1070
    19
1002
}
  0
LINE
  5
203
330
2
100
AcDbEntity
  8
0
100
AcDbLine
 10
621.5922860843057
 20
227.2186281862664
 30
0.0
 11
617.7491930499683
 21
227.2186281862664
 31
0.0
  0
ARC
  5
204
330
2
100
AcDbEntity
  8
0
100
AcDbCircle
 10
608.4755745544725
 20
211.3894102601327
 30
0.0
 40
35.475
100
AcDbArc
 50
74.8460917587445
 51
105.1539082412555
  0
LINE
  5
205
330
2
100
AcDbEntity
  8
0
100
AcDbLine
 10
595.3588630246395
 20
245.3554917956198
 30
0.0
 11
599.2019560589768
 21
245.3554917956198
 31
0.0
  0
LINE
  5
206
330
2
100
AcDbEntity
  8
0
100
AcDbLine
 10
630.9755745544726
 20
246.8644102601327
 30
0.0
 11
630.9755745544726
 21
256.7097097217533
 31
0.0
1001
ACAD
1000
ASC_BOUNDS
1002
{
1070
    19
1002
}
  0
ARC
  5
207
330
2
100
AcDbEntity
  8
0
100
AcDbCircle
 10
626.2839303193891
 20
238.8161422017986
 30
0.0
 40
8.048268058334087
100
AcDbArc
 50
54.34252181018422
 51
125.6574781898167
  0
LINE
  5
208
330
2
100
AcDbEntity
  8
0
100
AcDbLine
 10
621.5922860843057
 20
245.3554917956198
 30
0.0
 11
617.7491930499683
 21
245.3554917956198
 31
0.0
  0
LINE
  5
209
330
2
100
AcDbEntity
  8
0
100
AcDbLine
 10
630.9755745544726
 20
245.3554917956198
 30
0.0
 11
629.4666560899598
 21
246.8644102601327
 31
0.0
1001
ACAD
1000
ASC_BOUNDS
1002
{
1070
    19
1002
}
  0
LINE
  5
20A
330
2
100
AcDbEntity
  8
0
100
AcDbLine
 10
571.044077071951
 20
264.7097097217535
 30
0.0
 11
580.4755745544725
 21
264.7097097217534
 31
0.0
1001
ACAD
1000
ASC_BOUNDS
1002
{
1070
    19
1002
}
  0
HATCH
  5
20B
330
2
100
AcDbEntity
  8
LINIE
 48
10.0
100
AcDbHatch
 10
0.0
 20
0.0
 30
0.0
210
0.0
220
0.0
230
1.0
  2
ANSI31
 70
     0
 71
     0
 91
        4
 92
        5
 93
        6
 72
     1
 10
698.1000745544725
 20
244.7097097217534
 11
701.9250642972557
 21
244.7097097217534
 72
     2
 10
699.4755745544726
 20
245.2097097217529
 40
2.499999999999964
 50
348.4630409671946
 51
360.0
 73
     1
 72
     1
 10
701.9755745544724
 20
245.2097097217529
 11
701.9755745544724
 21
253.2097097217534
 72
     2
 10
704.4755745544724
 20
253.2097097217534
 40
2.499999999999997
 50
179.9999999999987
 51
215.7188059857673
 73
     0
 72
     4
 94
        3
 73
     0
 74
     0
 95
        9
 96
        5
 40
41.68509778057305
 40
41.68509778057305
 40
41.68509778057305
 40
41.68509778057305
 40
43.97539401037382
 40
46.09696782555253
 40
46.09696782555253
 40
46.09696782555253
 40
46.09696782555253
 10
702.445844680629
 20
254.6692290396207
 10
701.6988069628355
 20
254.8381358183248
 10
700.2597645862563
 20
255.1635062868531
 10
698.8033238990502
 20
255.2756418605027
 10
698.1000745544718
 20
255.2951851763784
 72
     1
 10
698.1000745544727
 20
255.2951851763783
 11
698.1000745544725
 21
244.7097097217534
 97
        0
 92
        5
 93
        4
 72
     4
 94
        3
 73
     0
 74
     0
 95
        8
 96
        4
 40
40.20165906937324
 40
40.20165906937324
 40
40.20165906937324
 40
40.20165906937324
 40
41.68509778057305
 40
41.68509778057305
 40
41.68509778057305
 40
41.68509778057305
 10
698.1000745544717
 20
255.2951851763784
 10
697.6083512432628
 20
255.3088501787968
 10
697.1152207654281
 20
255.3057065507078
 10
696.6210745544724
 20
255.2908577755476
 72
     1
 10
696.6210745544725
 20
255.2908577755476
 11
696.6210745544724
 21
246.1887097217535
 72
     1
 10
696.6210745544724
 20
246.1887097217535
 11
698.1000745544725
 21
244.7097097217533
 72
     1
 10
698.1000745544725
 20
244.7097097217533
 11
698.1000745544726
 21
255.2951851763783
 97
        0
 92
        5
 93
        4
 72
     1
 10
664.8510745544724
 20
244.7097097217534
 11
666.3300745544724
 21
246.1887097217533
 72
     1
 10
666.3300745544724
 20
246.1887097217533
 11
666.3300745544725
 21
255.8474984061118
 72
     4
 94
        3
 73
     0
 74
     0
 95
        8
 96
        4
 40
8.357331474458055
 40
8.357331474458055
 40
8.357331474458055
 40
8.357331474458055
 40
9.859576091809559
 40
9.859576091809559
 40
9.859576091809559
 40
9.859576091809559
 10
666.3300745544754
 20
255.8474984061124
 10
665.8346099449688
 20
255.7516828608555
 10
665.3414033443854
 20
255.645093753609
 10
664.8510745544765
 20
255.5278992303737
 72
     1
 10
664.8510745544726
 20
255.5278992303728
 11
664.8510745544724
 21
244.7097097217534
 97
        0
 92
        5
 93
        5
 72
     4
 94
        3
 73
     0
 74
     0
 95
        9
 96
        5
 40
0.0
 40
0.0
 40
0.0
 40
0.0
 40
3.505619563075807
 40
8.357331474458055
 40
8.357331474458055
 40
8.357331474458055
 40
8.357331474458055
 10
664.8510745544765
 20
255.5278992303737
 10
663.7068493208562
 20
255.254415532317
 10
661.0163983186676
 20
254.4647529909174
 10
658.4597783848239
 20
253.3590019764743
 10
656.9755745544725
 20
252.717076334995
 72
     1
 10
656.9755745544725
 20
252.7170763349951
 11
656.9755745544726
 21
245.2097097217535
 72
     2
 10
659.4755745544725
 20
245.2097097217535
 40
2.500000000000019
 50
180.0000000000006
 51
191.5369590328181
 73
     1
 72
     1
 10
657.0260848116894
 20
244.7097097217534
 11
664.8510745544723
 21
244.7097097217534
 72
     1
 10
664.8510745544723
 20
244.7097097217534
 11
664.8510745544726
 21
255.5278992303726
 97
        0
 75
     0
 76
     1
 52
0.0
 41
25.0
 77
     0
 78
     1
 53
45.0
 43
122.6508199722238
 44
0.0
 45
-2.20970869120796
 46
2.209708691207961
 79
     0
 47
0.3395931865206437
 98
        4
 10
699.1202549868578
 20
248.496418323273
 10
697.7614213185654
 20
249.1756042188308
 10
665.4891280317035
 20
249.8547916240261
 10
661.7523354438987
 20
249.1756042188308
  0
SPLINE
  5
20C
330
2
100
AcDbEntity
  8
LINIE
 48
10.0
100
AcDbSpline
210
0.0
220
0.0
230
1.0
 70
     8
 71
     3
 72
    12
 73
     8
 74
     6
 42
0.0000000001
 43
0.0000000001
 44
0.0000000001
 40
0.0
 40
0.0
 40
0.0
 40
0.0
 40
4.851711911382247
 40
18.01859907913513
 40
32.66528729343511
 40
43.80667159575175
 40
46.09696782555252
 40
46.09696782555252
 40
46.09696782555252
 40
46.09696782555252
 10
656.9755745544725
 20
252.717076334995
 30
0.0
 10
658.4597783848239
 20
253.3590019764743
 30
0.0
 10
663.9719098261156
 20
255.7430266225578
 30
0.0
 10
675.0924523694941
 20
257.4012684275043
 30
0.0
 10
687.8221564024492
 20
253.7678857370367
 30
0.0
 10
697.31772654176
 20
255.8287071958365
 30
0.0
 10
701.6988069628355
 20
254.8381358183248
 30
0.0
 10
702.445844680629
 20
254.6692290396207
 30
0.0
 11
656.9755745544725
 21
252.717076334995
 31
0.0
 11
661.4732896966663
 21
254.5363253478374
 31
0.0
 11
674.5035306617362
 21
256.4283449250486
 31
0.0
 11
689.0624616153302
 21
254.8274060956746
 31
0.0
 11
700.2000429079178
 21
255.1184853338743
 31
0.0
 11
702.445844680629
 21
254.6692290396207
 31
0.0
  0
LINE
  5
20D
330
2
100
AcDbEntity
  8
0
100
AcDbLine
 10
657.0260848116894
 20
244.7097097217534
 30
0.0
 11
701.9250642972556
 21
244.7097097217534
 31
0.0
1001
ACAD
1000
ASC_BOUNDS
1002
{
1070
    19
1005
0
1002
}
  0
LINE
  5
20E
330
2
100
AcDbEntity
  8
0
100
AcDbLine
 10
666.3300745544725
 20
246.1887097217534
 30
0.0
 11
696.6210745544726
 21
246.1887097217534
 31
0.0
1001
ACAD
1000
ASC_BOUNDS
1002
{
1070
    19
1002
}
  0
LINE
  5
20F
330
2
100
AcDbEntity
  8
0
100
AcDbLine
 10
665.6537074037376
 20
255.7097097217534
 30
0.0
 11
651.4755745544723
 21
255.7097097217534
 31
0.0
1001
ACAD
1000
ASC_BOUNDS
1002
{
1070
    19
1002
}
  0
ARC
  5
210
330
2
100
AcDbEntity
  8
0
100
AcDbCircle
 10
654.4755745544724
 20
253.2097097217534
 30
0.0
 40
2.5
100
AcDbArc
 50
0.0000000000001018
 51
90.0
1001
ACAD
1000
ASC_BOUNDS
1002
{
1070
    19
1002
}
  0
ARC
  5
211
330
2
100
AcDbEntity
  8
0
100
AcDbCircle
 10
641.9755745544725
 20
259.2097097217534
 30
0.0
 40
2.5
100
AcDbArc
 50
270.0
 51
0.0
1001
ACAD
1000
ASC_BOUNDS
1002
{
1070
    19
1002
}
  0
LINE
  5
212
330
2
100
AcDbEntity
  8
0
100
AcDbLine
 10
651.4755745544724
 20
256.7097097217533
 30
0.0
 11
651.4755745544723
 21
255.7097097217534
 31
0.0
1001
ACAD
1000
ASC_BOUNDS
1002
{
1070
    19
1002
}
  0
LINE
  5
213
330
2
100
AcDbEntity
  8
LINIE
 48
10.0
100
AcDbLine
 10
664.8510745544726
 20
255.5278992303887
 30
0.0
 11
664.8510745544724
 21
244.7097097217534
 31
0.0
1001
ACAD
1000
ASC_BOUNDS
1002
{
1070
    19
1002
}
  0
LINE
  5
214
330
2
100
AcDbEntity
  8
0
100
AcDbLine
 10
656.9755745544725
 20
253.2097097217534
 30
0.0
 11
656.9755745544726
 21
245.2097097217534
 31
0.0
1001
ACAD
1000
ASC_BOUNDS
1002
{
1070
    19
1002
}
  0
LINE
  5
215
330
2
100
AcDbEntity
  8
0
100
AcDbLine
 10
666.3300745544725
 20
255.8474984061272
 30
0.0
 11
666.3300745544724
 21
246.1887097217533
 31
0.0
1001
ACAD
1000
ASC_BOUNDS
1002
{
1070
    19
1002
}
  0
ARC
  5
216
330
2
100
AcDbEntity
  8
0
100
AcDbCircle
 10
659.4755745544725
 20
245.2097097217534
 30
0.0
 40
2.5
100
AcDbArc
 50
180.0000000000001
 51
191.5369590328155
1001
ACAD
1000
ASC_BOUNDS
1002
{
1070
    19
1002
}
  0
LINE
  5
217
330
2
100
AcDbEntity
  8
0
100
AcDbLine
 10
666.3300745544725
 20
246.1887097217534
 30
0.0
 11
664.8510745544724
 21
244.7097097217534
 31
0.0
1001
ACAD
1000
ASC_BOUNDS
1002
{
1070
    19
1002
}
  0
LINE
  5
218
330
2
100
AcDbEntity
  8
0
100
AcDbLine
 10
711.4755745544726
 20
255.7097097217534
 30
0.0
 11
680.5887221800634
 21
255.7097097217534
 31
0.0
1001
ACAD
1000
ASC_BOUNDS
1002
{
1070
    19
1002
}
  0
LINE
  5
219
330
2
100
AcDbEntity
  8
MITTE
 48
10.0
100
AcDbLine
 10
681.4755745544726
 20
261.4110540488145
 30
0.0
 11
681.4755745544726
 21
240.6105789983051
 31
0.0
  0
LINE
  5
21A
330
2
100
AcDbEntity
  8
LINIE
 48
10.0
100
AcDbLine
 10
698.1000745544726
 20
255.2951851763874
 30
0.0
 11
698.1000745544725
 21
244.7097097217533
 31
0.0
1001
ACAD
1000
ASC_BOUNDS
1002
{
1070
    19
1002
}
  0
LINE
  5
21B
330
2
100
AcDbEntity
  8
0
100
AcDbLine
 10
701.9755745544724
 20
253.2097097217534
 30
0.0
 11
701.9755745544724
 21
245.2097097217533
 31
0.0
1001
ACAD
1000
ASC_BOUNDS
1002
{
1070
    19
1002
}
  0
LINE
  5
21C
330
2
100
AcDbEntity
  8
0
100
AcDbLine
 10
696.6210745544725
 20
255.29085777555
 30
0.0
 11
696.6210745544724
 21
246.1887097217534
 31
0.0
1001
ACAD
1000
ASC_BOUNDS
1002
{
1070
    19
1002
}
  0
LINE
  5
21D
330
2
100
AcDbEntity
  8
0
100
AcDbLine
 10
696.6210745544725
 20
246.1887097217534
 30
0.0
 11
698.1000745544725
 21
244.7097097217533
 31
0.0
1001
ACAD
1000
ASC_BOUNDS
1002
{
1070
    19
1002
}
  0
ARC
  5
21E
330
2
100
AcDbEntity
  8
0
100
AcDbCircle
 10
699.4755745544725
 20
245.2097097217533
 30
0.0
 40
2.5
100
AcDbArc
 50
348.4630409671844
 51
0.0000000000001145
1001
ACAD
1000
ASC_BOUNDS
1002
{
1070
    19
1002
}
  0
ARC
  5
21F
330
2
100
AcDbEntity
  8
0
100
AcDbCircle
 10
704.4755745544724
 20
253.2097097217534
 30
0.0
 40
2.5
100
AcDbArc
 50
90.0
 51
180.0000000000001
1001
ACAD
1000
ASC_BOUNDS
1002
{
1070
    19
1002
}
  0
LINE
  5
223
330
2
100
AcDbEntity
  8
BEM
100
AcDbLine
 10
731.694162065991
 20
177.1266045212951
 30
0.0
 11
761.2203764046601
 21
177.1266045212951
 31
0.0
  0
MTEXT
  5
224
330
2
100
AcDbEntity
  8
BEM
100
AcDbMText
 10
726.9616954959802
 20
186.9544408113852
 30
0.0
 40
10.0
 41
0.0
 71
     4
 72
     1
  1
G 1"
 73
     1
 44
1.0
  0
LINE
  5
225
330
2
100
AcDbEntity
  8
BEM
100
AcDbLine
 10
744.7628246453407
 20
255.7097097217534
 30
0.0
 11
765.5833714626198
 21
255.7097097217534
 31
0.0
  0
LINE
  5
226
330
2
100
AcDbEntity
  8
0
100
AcDbLine
 10
761.5304727227492
 20
225.7097097217535
 30
0.0
 11
761.5304727227492
 21
237.3678082677651
 31
0.0
1001
ACAD
1000
ASC_BOUNDS
1002
{
1070
    19
1002
}
  0
LINE
  5
227
330
2
100
AcDbEntity
  8
0
100
AcDbLine
 10
763.7492835206447
 20
226.1151036339847
 30
0.0
 11
763.7492835206447
 21
235.0212055752948
 31
0.0
  0
LINE
  5
228
330
2
100
AcDbEntity
  8
0
100
AcDbLine
 10
763.7492835206447
 20
226.1151036339847
 30
0.0
 11
761.5304727227492
 21
225.7097097217535
 31
0.0
  0
LINE
  5
229
330
2
100
AcDbEntity
  8
0
100
AcDbLine
 10
761.5304727227492
 20
225.7097097217535
 30
0.0
 11
762.5304727227492
 21
224.7097097217535
 31
0.0
1001
ACAD
1000
ASC_BOUNDS
1002
{
1070
    19
1002
}
  0
DIMENSION
  5
22A
330
2
100
AcDbEntity
  8
BEM
100
AcDbDimension
  2
*D22
 10
967.4022860959347
 20
245.4988778766149
 30
0.0
 11
1008.382412257498
 21
236.1477435831774
 31
0.0
 70
   163
 71
     5
 42
8.999999999999886
  3
ISO-25
100
AcDbDiametricDimension
 15
976.176744690354
 25
243.4966600126401
 35
0.0
 40
0.0
1001
ACAD
1000
DSTYLE
1002
{
1070
   144
1040
1.0
1002
}
  0
ARC
  5
236
330
2
100
AcDbEntity
  8
0
100
AcDbCircle
 10
820.0304727227491
 20
290.4597097217534
 30
0.0
 40
14.0
100
AcDbArc
 50
106.6015495990206
 51
73.3984504009794
  0
CIRCLE
  5
237
330
2
100
AcDbEntity
  8
0
100
AcDbCircle
 10
820.0304727227491
 20
290.4597097217534
 30
0.0
 40
12.0
  0
CIRCLE
  5
238
330
2
100
AcDbEntity
  8
0
100
AcDbCircle
 10
820.0304727227491
 20
290.4597097217534
 30
0.0
 40
11.0
  0
LINE
  5
239
330
2
100
AcDbEntity
  8
0
100
AcDbLine
 10
816.0304727227492
 20
305.3597097217533
 30
0.0
 11
824.0304727227492
 21
305.3597097217533
 31
0.0
  0
LINE
  5
23A
330
2
100
AcDbEntity
  8
0
100
AcDbLine
 10
816.0304727227492
 20
305.3597097217533
 30
0.0
 11
816.0304727227492
 21
301.7734182207381
 31
0.0
  0
LINE
  5
23B
330
2
100
AcDbEntity
  8
0
100
AcDbLine
 10
824.0304727227492
 20
305.3597097217533
 30
0.0
 11
824.0304727227492
 21
301.7734182207381
 31
0.0
  0
LINE
  5
23C
330
2
100
AcDbEntity
  8
0
100
AcDbLine
 10
863.8247360457006
 20
224.7097097217535
 30
0.0
 11
877.5304727227492
 21
224.7097097217535
 31
0.0
1001
ACAD
1000
ASC_BOUNDS
1002
{
1070
    19
1002
}
  0
ARC
  5
23D
330
2
100
AcDbEntity
  8
0
100
AcDbCircle
 10
868.2804727227491
 20
248.3597097217534
 30
0.0
 40
23.65000000000001
100
AcDbArc
 50
260.3637376065616
 51
289.8516022315849
  0
LINE
  5
23E
330
2
100
AcDbEntity
  8
0
100
AcDbLine
 10
878.5304727227492
 20
225.7097097217535
 30
0.0
 11
878.5304727227492
 21
237.3678082677651
 31
0.0
1001
ACAD
1000
ASC_BOUNDS
1002
{
1070
    19
1002
}
  0
LINE
  5
23F
330
2
100
AcDbEntity
  8
0
100
AcDbLine
 10
876.3116619248537
 20
226.1151036339847
 30
0.0
 11
876.3116619248537
 21
235.0212055752948
 31
0.0
  0
LINE
  5
240
330
2
100
AcDbEntity
  8
0
100
AcDbLine
 10
878.5304727227492
 20
225.7097097217535
 30
0.0
 11
877.5304727227492
 21
224.7097097217535
 31
0.0
1001
ACAD
1000
ASC_BOUNDS
1002
{
1070
    19
1002
}
  0
LINE
  5
241
330
2
100
AcDbEntity
  8
0
100
AcDbLine
 10
878.5304727227492
 20
225.7097097217535
 30
0.0
 11
876.3116619248537
 21
226.1151036339847
 31
0.0
  0
LINE
  5
242
330
2
100
AcDbEntity
  8
MITTE
 48
3.0
100
AcDbLine
 10
860.3621480959434
 20
250.128034348559
 30
0.0
 11
870.6482382464114
 21
239.8419441980908
 31
0.0
  0
CIRCLE
  5
243
330
2
100
AcDbEntity
  8
0
100
AcDbCircle
 10
865.9924134998746
 20
244.4977689446276
 30
0.0
 40
4.5
  0
LINE
  5
244
330
2
100
AcDbEntity
  8
MITTE
 48
3.0
100
AcDbLine
 10
768.700516153638
 20
341.789666290863
 30
0.0
 11
779.6534741610916
 21
330.8367082834099
 31
0.0
  0
ARC
  5
245
330
2
100
AcDbEntity
  8
0
100
AcDbCircle
 10
820.0304727227491
 20
325.7097097217534
 30
0.0
 40
61.0
100
AcDbArc
 50
17.280142017802
 51
162.719857982198
1001
ACAD
1000
ASC_BOUNDS
1002
{
1070
    19
1005
0
1002
}
  0
CIRCLE
  5
246
330
2
100
AcDbEntity
  8
0
100
AcDbCircle
 10
774.068531945623
 20
336.4216504988783
 30
0.0
 40
4.5
  0
ARC
  5
247
330
2
100
AcDbEntity
  8
0
100
AcDbCircle
 10
711.4755745544726
 20
381.7097097217534
 30
0.0
 40
5.0
100
AcDbArc
 50
0.0000000000000254
 51
90.0
1001
ACAD
1000
ASC_BOUNDS
1002
{
1070
    19
1002
}
  0
LINE
  5
248
330
2
100
AcDbEntity
  8
0
100
AcDbLine
 10
571.044077071951
 20
386.7097097217532
 30
0.0
 11
711.4755745544726
 21
386.7097097217534
 31
0.0
1001
ACAD
1000
ASC_BOUNDS
1002
{
1070
    19
1002
}
  0
ARC
  5
249
330
2
100
AcDbEntity
  8
0
100
AcDbCircle
 10
560.8153205166281
 20
320.7097097217534
 30
0.0
 40
10.0
100
AcDbArc
 50
48.59037789072893
 51
90.0
  0
ARC
  5
24A
330
2
100
AcDbEntity
  8
0
100
AcDbCircle
 10
557.8153205166281
 20
381.7097097217533
 30
0.0
 40
10.0
100
AcDbArc
 50
48.59037789072893
 51
90.0
1001
ACAD
1000
ASC_BOUNDS
1002
{
1070
    19
1002
}
  0
ARC
  5
24B
330
2
100
AcDbEntity
  8
0
100
AcDbCircle
 10
571.044077071951
 20
396.7097097217532
 30
0.0
 40
10.0
100
AcDbArc
 50
228.5903778907289
 51
270.0
1001
ACAD
1000
ASC_BOUNDS
1002
{
1070
    19
1002
}
  0
ARC
  5
24C
330
2
100
AcDbEntity
  8
0
100
AcDbCircle
 10
646.9755745544725
 20
322.7770318431101
 30
0.0
 40
2.5
100
AcDbArc
 50
90.0
 51
180.0
1001
ACAD
1000
ASC_BOUNDS
1002
{
1070
    19
1002
}
  0
ARC
  5
24D
330
2
100
AcDbEntity
  8
0
100
AcDbCircle
 10
820.0304727227491
 20
324.9597097217534
 30
0.0
 40
55.0
100
AcDbArc
 50
32.26219197885936
 51
147.7378080211406
  0
ARC
  5
24E
330
2
100
AcDbEntity
  8
0
100
AcDbCircle
 10
820.0304727227491
 20
383.7097097217533
 30
0.0
 40
8.0
100
AcDbArc
 50
18.40505542230692
 51
161.5949445776931
  0
LINE
  5
24F
330
2
100
AcDbEntity
  8
MITTE
 48
3.0
100
AcDbLine
 10
871.6583040658004
 20
342.0875410648045
 30
0.0
 11
860.8835858238423
 21
331.3128228228466
 31
0.0
  0
CIRCLE
  5
250
330
2
100
AcDbEntity
  8
0
100
AcDbCircle
 10
865.9924134998746
 20
336.421650498879
 30
0.0
 40
4.5
  0
MTEXT
  5
683
330
2
100
AcDbEntity
  8
BEM
100
AcDbMText
 10
95.77019048510397
 20
164.7249311337799
 30
0.0
 40
8.0
 41
161.8643881791417
 71
     1
 72
     5
  1
Zuluft\Pair inlet\PBrachement de l'air\PAria in entrata
 73
     1
 44
1.0
  0
MTEXT
  5
684
330
2
100
AcDbEntity
  8
BEM
100
AcDbMText
 10
724.0226987989536
 20
167.6241219626205
 30
0.0
 40
8.0
 41
161.8643881791417
 71
     1
 72
     5
  1
Abluft\Pexhaust air\PSortie de l'air\PAria in uscita
 73
     1
 44
1.0
  0
ENDSEC
  0
SECTION
  2
OBJECTS
  0
DICTIONARY
  5
1B
330
0
100
AcDbDictionary
281
     1
  3
ACAD_COLOR
350
2AF
  3
ACAD_GROUP
350
19
  3
ACAD_LAYOUT
350
2B2
  3
ACAD_MATERIAL
350
2AE
  3
ACAD_MLEADERSTYLE
350
412
  3
ACAD_MLINESTYLE
350
1A
  3
ACAD_PLOTSETTINGS
350
2B3
  3
ACAD_PLOTSTYLENAME
350
2AC
  3
ACAD_SCALELIST
350
3F0
  3
ACAD_TABLESTYLE
350
2B0
  3
ACAD_VISUALSTYLE
350
3DF
  3
ACDB_RECOMPOSE_DATA
350
601
  3
ACDBVARIABLEDICTIONARY
350
273
  3
ACMDICTIONARY
350
251
  3
AMG
350
2BC
  3
AMGSNAPSETTINGS
350
3BD
  3
ASE_INDEX_DICTIONARY
350
646
  0
DICTIONARY
  5
5E2
330
5
100
AcDbDictionary
280
     1
281
     1
  3
ADSK_XREC_LAYER_RECONCILED
360
5E3
  0
DICTIONARY
  5
5E4
330
21
100
AcDbDictionary
280
     1
281
     1
  3
ADSK_XREC_LAYER_RECONCILED
360
5E5
  0
DICTIONARY
  5
5E6
330
4F
100
AcDbDictionary
280
     1
281
     1
  3
ADSK_XREC_LAYER_RECONCILED
360
5E7
  0
DICTIONARY
  5
5E8
330
4B
100
AcDbDictionary
280
     1
281
     1
  3
ADSK_XREC_LAYER_RECONCILED
360
5E9
  0
DICTIONARY
  5
3
330
2
100
AcDbDictionary
280
     1
281
     1
  3
ACAD_SORTENTS
360
677
  0
DICTIONARY
  5
6A0
330
59C
100
AcDbDictionary
280
     1
281
     1
  3
ACAD_MTEXT_2008_RT
360
6A1
  0
DICTIONARY
  5
6A2
330
5CA
100
AcDbDictionary
280
     1
281
     1
  3
ACAD_MTEXT_2008_RT
360
6A3
  0
DICTIONARY
  5
6A4
330
5DB
100
AcDbDictionary
280
     1
281
     1
  3
ACAD_MTEXT_2008_RT
360
6A5
  0
DICTIONARY
  5
2AF
102
{ACAD_REACTORS
330
1B
102
}
330
1B
100
AcDbDictionary
281
     1
  0
DICTIONARY
  5
19
102
{ACAD_REACTORS
330
1B
102
}
330
1B
100
AcDbDictionary
281
     1
  0
DICTIONARY
  5
2B2
102
{ACAD_REACTORS
330
1B
102
}
330
1B
100
AcDbDictionary
281
     1
  3
Layout1
350
2B5
  3
Model
350
2B4
  0
DICTIONARY
  5
2AE
102
{ACAD_REACTORS
330
1B
102
}
330
1B
100
AcDbDictionary
281
     1
  3
ByBlock
350
3CF
  3
ByLayer
350
3C7
  3
Global
350
3D7
  0
DICTIONARY
  5
412
102
{ACAD_REACTORS
330
1B
102
}
330
1B
100
AcDbDictionary
281
     1
  3
Standard
350
413
  0
DICTIONARY
  5
1A
102
{ACAD_REACTORS
330
1B
102
}
330
1B
100
AcDbDictionary
281
     1
  3
STANDARD
350
1C
  0
DICTIONARY
  5
2B3
102
{ACAD_REACTORS
330
1B
102
}
330
1B
100
AcDbDictionary
281
     1
  0
ACDBDICTIONARYWDFLT
  5
2AC
102
{ACAD_REACTORS
330
1B
102
}
330
1B
100
AcDbDictionary
281
     1
  3
Normal
350
2AD
100
AcDbDictionaryWithDefault
340
2AD
  0
DICTIONARY
  5
3F0
102
{ACAD_REACTORS
330
1B
102
}
330
1B
100
AcDbDictionary
281
     1
  3
A0
350
3F1
  3
A1
350
3F2
  3
A2
350
3F3
  3
A3
350
3F4
  3
A4
350
3F5
  3
A5
350
3F6
  3
A6
350
3F7
  3
A7
350
3F8
  3
A8
350
3F9
  3
A9
350
3FA
  3
B0
350
3FB
  3
B1
350
3FC
  3
B2
350
3FD
  3
B3
350
3FE
  3
B4
350
3FF
  3
B5
350
400
  3
B6
350
401
  3
B7
350
402
  3
B8
350
403
  3
B9
350
404
  3
C0
350
405
  3
C1
350
406
  3
C2
350
407
  3
C3
350
408
  3
C4
350
409
  3
C5
350
40A
  3
C6
350
40B
  3
C7
350
40C
  3
C8
350
40D
  3
C9
350
40E
  3
D0
350
40F
  3
D1
350
410
  3
D2
350
411
  0
DICTIONARY
  5
2B0
102
{ACAD_REACTORS
330
1B
102
}
330
1B
100
AcDbDictionary
281
     1
  3
Standard
350
2B1
  0
DICTIONARY
  5
3DF
102
{ACAD_REACTORS
330
1B
102
}
330
1B
100
AcDbDictionary
281
     1
  3
2dWireframe
350
3E5
  3
3D Hidden
350
3E7
  3
3dWireframe
350
3E6
  3
Basic
350
3E4
  3
Brighten
350
3EB
  3
ColorChange
350
3EF
  3
Conceptual
350
3E8
  3
Dim
350
3EA
  3
Facepattern
350
3EE
  3
Flat
350
3E0
  3
FlatWithEdges
350
3E1
  3
Gouraud
350
3E2
  3
GouraudWithEdges
350
3E3
  3
Linepattern
350
3ED
  3
Realistic
350
3E9
  3
Thicken
350
3EC
  0
XRECORD
  5
601
102
{ACAD_REACTORS
330
1B
102
}
330
1B
100
AcDbXrecord
280
     1
 90
        1
330
2B1
  0
DICTIONARY
  5
273
102
{ACAD_REACTORS
330
1B
102
}
330
1B
100
AcDbDictionary
281
     1
  3
CANNOSCALE
350
604
  3
CMLEADERSTYLE
350
602
  3
CTABLESTYLE
350
3C5
  3
INDEXCTL
350
274
  3
LIGHTINGUNITS
350
605
  3
MSLTSCALE
350
603
  0
DICTIONARY
  5
251
102
{ACAD_REACTORS
330
1B
102
}
330
1B
100
AcDbDictionary
280
     1
281
     1
  3
ACMSTDDICTIONARY
360
252
  3
AMDTSECTSYM_ARROWCOLOR
360
326
  0
DICTIONARY
  5
2BC
102
{ACAD_REACTORS
330
1B
102
}
330
1B
100
AcDbDictionary
281
     1
  0
DICTIONARY
  5
3BD
102
{ACAD_REACTORS
330
1B
102
}
330
1B
100
AcDbDictionary
281
     1
  0
DICTIONARY
  5
646
102
{ACAD_REACTORS
330
1B
102
}
330
1B
100
AcDbDictionary
281
     1
  3
ASEBlockHierarchyIndexRecord
350
647
1001
DCO15
1040
1729318804.049
  0
XRECORD
  5
5E3
102
{ACAD_REACTORS
330
5E2
102
}
330
5E2
100
AcDbXrecord
280
     1
290
     1
  0
XRECORD
  5
5E5
102
{ACAD_REACTORS
330
5E4
102
}
330
5E4
100
AcDbXrecord
280
     1
290
     1
  0
XRECORD
  5
5E7
102
{ACAD_REACTORS
330
5E6
102
}
330
5E6
100
AcDbXrecord
280
     1
290
     1
  0
XRECORD
  5
5E9
102
{ACAD_REACTORS
330
5E8
102
}
330
5E8
100
AcDbXrecord
280
     1
290
     1
  0
SORTENTSTABLE
  5
677
102
{ACAD_REACTORS
330
3
102
}
330
3
100
AcDbSortentsTable
330
2
331
239
  5
239
331
16E
  5
16E
331
13C
  5
13C
331
1EC
  5
1EC
331
9B
  5
9B
331
20E
  5
20E
331
24A
  5
24A
331
1D3
  5
1D3
331
12B
  5
12B
331
111
  5
111
331
E7
  5
E7
331
C5
  5
C5
331
1FD
  5
1FD
331
21F
  5
21F
331
D6
  5
D6
331
AC
  5
AC
331
85
  5
85
331
53
  5
53
331
1C0
  5
1C0
331
16C
  5
16C
331
13A
  5
13A
331
1EA
  5
1EA
331
20C
  5
20C
331
248
  5
248
331
1D1
  5
1D1
331
129
  5
129
331
10F
  5
10F
331
E5
  5
E5
331
C3
  5
C3
331
83
  5
83
331
1FB
  5
1FB
331
21D
  5
21D
331
D4
  5
D4
331
AA
  5
AA
331
72
  5
72
331
51
  5
51
331
1BE
  5
1BE
331
16A
  5
16A
331
138
  5
138
331
1E8
  5
1E8
331
97
  5
97
331
20A
  5
20A
331
246
  5
246
331
1CF
  5
1CF
331
127
  5
127
331
10D
  5
10D
331
E3
  5
E3
331
C1
  5
C1
331
1F9
  5
1F9
331
21B
  5
21B
331
D2
  5
D2
331
A8
  5
A8
331
1BC
  5
1BC
331
168
  5
168
331
1E6
  5
1E6
331
95
  5
95
331
208
  5
208
331
22A
  5
22A
331
244
  5
244
331
1CD
  5
1CD
331
1AB
  5
1AB
331
125
  5
125
331
10B
  5
10B
331
E1
  5
E1
331
1F7
  5
1F7
331
219
  5
219
331
136
  5
136
331
D0
  5
D0
331
A6
  5
A6
331
7F
  5
7F
331
4D
  5
4D
331
1BA
  5
1BA
331
1E4
  5
1E4
331
206
  5
206
331
242
  5
242
331
228
  5
228
331
177
  5
177
331
123
  5
123
331
DF
  5
DF
331
1F5
  5
1F5
331
A4
  5
A4
331
93
  5
93
331
217
  5
217
331
166
  5
166
331
134
  5
134
331
F0
  5
F0
331
CE
  5
CE
331
8E
  5
8E
331
204
  5
204
331
240
  5
240
331
226
  5
226
331
175
  5
175
331
143
  5
143
331
121
  5
121
331
DD
  5
DD
331
BB
  5
BB
331
91
  5
91
331
1F3
  5
1F3
331
A2
  5
A2
331
215
  5
215
331
237
  5
237
331
164
  5
164
331
132
  5
132
331
EE
  5
EE
331
CC
  5
CC
331
8C
  5
8C
331
30
  5
30
331
202
  5
202
331
23E
  5
23E
331
224
  5
224
331
173
  5
173
331
141
  5
141
331
11F
  5
11F
331
DB
  5
DB
331
1F1
  5
1F1
331
A0
  5
A0
331
213
  5
213
331
24F
  5
24F
331
184
  5
184
331
162
  5
162
331
130
  5
130
331
EC
  5
EC
331
CA
  5
CA
331
8A
  5
8A
331
200
  5
200
331
23C
  5
23C
331
683
  5
683
331
171
  5
171
331
13F
  5
13F
331
11D
  5
11D
331
D9
  5
D9
331
1EF
  5
1EF
331
9E
  5
9E
331
211
  5
211
331
24D
  5
24D
331
12E
  5
12E
331
EA
  5
EA
331
C8
  5
C8
331
88
  5
88
331
1D6
  5
1D6
331
3D
  5
3D
331
23A
  5
23A
331
16F
  5
16F
331
13D
  5
13D
331
11B
  5
11B
331
1ED
  5
1ED
331
9C
  5
9C
331
20F
  5
20F
331
24B
  5
24B
331
1D4
  5
1D4
331
12C
  5
12C
331
112
  5
112
331
E8
  5
E8
331
C6
  5
C6
331
1FE
  5
1FE
331
D7
  5
D7
331
AD
  5
AD
331
86
  5
86
331
54
  5
54
331
238
  5
238
331
1C1
  5
1C1
331
16D
  5
16D
331
13B
  5
13B
331
1EB
  5
1EB
331
20D
  5
20D
331
249
  5
249
331
12A
  5
12A
331
110
  5
110
331
E6
  5
E6
331
C4
  5
C4
331
1FC
  5
1FC
331
21E
  5
21E
331
D5
  5
D5
331
AB
  5
AB
331
9A
  5
9A
331
52
  5
52
331
1BF
  5
1BF
331
16B
  5
16B
331
139
  5
139
331
1E9
  5
1E9
331
20B
  5
20B
331
247
  5
247
331
1D0
  5
1D0
331
152
  5
152
331
128
  5
128
331
10E
  5
10E
331
E4
  5
E4
331
C2
  5
C2
331
1FA
  5
1FA
331
21C
  5
21C
331
D3
  5
D3
331
A9
  5
A9
331
82
  5
82
331
1BD
  5
1BD
331
169
  5
169
331
1E7
  5
1E7
331
96
  5
96
331
209
  5
209
331
245
  5
245
331
1CE
  5
1CE
331
126
  5
126
331
10C
  5
10C
331
E2
  5
E2
331
C0
  5
C0
331
1F8
  5
1F8
331
21A
  5
21A
331
137
  5
137
331
D1
  5
D1
331
A7
  5
A7
331
80
  5
80
331
4E
  5
4E
331
1BB
  5
1BB
331
191
  5
191
331
1E5
  5
1E5
331
207
  5
207
331
243
  5
243
331
229
  5
229
331
178
  5
178
331
124
  5
124
331
E0
  5
E0
331
94
  5
94
331
1F6
  5
1F6
331
A5
  5
A5
331
218
  5
218
331
167
  5
167
331
135
  5
135
331
F1
  5
F1
331
CF
  5
CF
331
8F
  5
8F
331
65
  5
65
331
4C
  5
4C
331
205
  5
205
331
241
  5
241
331
227
  5
227
331
176
  5
176
331
122
  5
122
331
DE
  5
DE
331
BC
  5
BC
331
1F4
  5
1F4
331
92
  5
92
331
216
  5
216
331
165
  5
165
331
133
  5
133
331
EF
  5
EF
331
CD
  5
CD
331
8D
  5
8D
331
4A
  5
4A
331
20
  5
20
331
203
  5
203
331
225
  5
225
331
23F
  5
23F
331
19E
  5
19E
331
174
  5
174
331
120
  5
120
331
FE
  5
FE
331
DC
  5
DC
331
BA
  5
BA
331
1F2
  5
1F2
331
A1
  5
A1
331
90
  5
90
331
214
  5
214
331
250
  5
250
331
236
  5
236
331
163
  5
163
331
131
  5
131
331
ED
  5
ED
331
CB
  5
CB
331
8B
  5
8B
331
201
  5
201
331
23D
  5
23D
331
223
  5
223
331
684
  5
684
331
172
  5
172
331
140
  5
140
331
11E
  5
11E
331
DA
  5
DA
331
1F0
  5
1F0
331
9F
  5
9F
331
212
  5
212
331
24E
  5
24E
331
1D7
  5
1D7
331
161
  5
161
331
12F
  5
12F
331
EB
  5
EB
331
C9
  5
C9
331
89
  5
89
331
57
  5
57
331
23B
  5
23B
331
170
  5
170
331
13E
  5
13E
331
11C
  5
11C
331
D8
  5
D8
331
1EE
  5
1EE
331
9D
  5
9D
331
210
  5
210
331
24C
  5
24C
331
1FF
  5
1FF
331
1D5
  5
1D5
331
12D
  5
12D
331
E9
  5
E9
331
C7
  5
C7
331
87
  5
87
331
55
  5
55
  0
XRECORD
  5
6A1
102
{ACAD_REACTORS
330
6A0
102
}
330
6A0
100
AcDbXrecord
280
     1
 40
5712.0
  1
\A1;\U+2205130
  0
XRECORD
  5
6A3
102
{ACAD_REACTORS
330
6A2
102
}
330
6A2
100
AcDbXrecord
280
     1
 40
5850.0
  1
\A1;\U+2205158
  0
XRECORD
  5
6A5
102
{ACAD_REACTORS
330
6A4
102
}
330
6A4
100
AcDbXrecord
280
     1
 40
4473.0
  1
\A1;\U+22059
  0
LAYOUT
  5
2B5
102
{ACAD_REACTORS
330
2B2
102
}
330
2B2
100
AcDbPlotSettings
  1

  2
Basyouni CAD 1
  4

  6

 40
0.0
 41
0.0
 42
0.0
 43
0.0
 44
0.0
 45
0.0
 46
0.0
 47
0.0
 48
0.0
 49
0.0
140
0.0
141
0.0
142
1.0
143
1.0
 70
   688
 72
     0
 73
     0
 74
     5
  7
Zeich.ctb
 75
    16
147
1.0
 76
     0
 77
     2
 78
   300
148
0.0
149
0.0
100
AcDbLayout
  1
Layout1
 70
     0
 71
     1
 10
0.0
 20
0.0
 11
420.0
 21
297.0
 12
0.0
 22
0.0
 32
0.0
 14
1.000000000000000E+20
 24
1.000000000000000E+20
 34
1.000000000000000E+20
 15
-1.000000000000000E+20
 25
-1.000000000000000E+20
 35
-1.000000000000000E+20
146
0.0
 13
0.0
 23
0.0
 33
0.0
 16
1.0
 26
0.0
 36
0.0
 17
0.0
 27
1.0
 37
0.0
 76
     0
330
8
  0
LAYOUT
  5
2B4
102
{ACAD_REACTORS
330
2B2
102
}
330
2B2
100
AcDbPlotSettings
  1

  2
Konstruktion
  4
A4
  6

 40
7.143749713897705
 41
7.186082363128662
 42
7.059066772460937
 43
5.027069091796875
 44
209.9733276367187
 45
296.9683227539062
 46
30.80723619274103
 47
0.0
 48
0.0
 49
0.0
140
0.0
141
0.0
142
1.0
143
3.611216886180196
 70
  3764
 72
     1
 73
     1
 74
     1
  7
Zeich.ctb
 75
     0
147
0.2769149656524122
 76
     0
 77
     2
 78
   300
148
-39.99786637723218
149
-45.32814176674946
100
AcDbLayout
  1
Model
 70
     1
 71
     0
 10
0.0
 20
0.0
 11
12.0
 21
9.0
 12
0.0
 22
0.0
 32
0.0
 14
0.0
 24
0.0
 34
0.0
 15
0.0
 25
0.0
 35
0.0
146
0.0
 13
0.0
 23
0.0
 33
0.0
 16
1.0
 26
0.0
 36
0.0
 17
0.0
 27
1.0
 37
0.0
 76
     0
330
2
331
3C4
1001
ACAD_PSEXT
1000
Konstruktion
1000
Kyocera FS-1030D
1000
IP_192.168.10.181
1000

1070
     0
  0
MATERIAL
  5
3CF
102
{ACAD_XDICTIONARY
360
3D0
102
}
102
{ACAD_REACTORS
330
2AE
102
}
330
2AE
100
AcDbMaterial
  1
ByBlock
 72
     0
 43
0.0208333333333333
 43
0.0
 43
0.0
 43
0.0
 43
0.0
 43
0.0208333333333333
 43
0.0
 43
0.0
 43
0.0
 43
0.0
 43
1.0
 43
0.0
 43
0.0
 43
0.0
 43
0.0
 43
1.0
 77
     0
 47
0.0208333333333333
 47
0.0
 47
0.0
 47
0.0
 47
0.0
 47
0.0208333333333333
 47
0.0
 47
0.0
 47
0.0
 47
0.0
 47
1.0
 47
0.0
 47
0.0
 47
0.0
 47
0.0
 47
1.0
171
     0
 49
0.0208333333333333
 49
0.0
 49
0.0
 49
0.0
 49
0.0
 49
0.0208333333333333
 49
0.0
 49
0.0
 49
0.0
 49
0.0
 49
1.0
 49
0.0
 49
0.0
 49
0.0
 49
0.0
 49
1.0
175
     0
142
0.0208333333333333
142
0.0
142
0.0
142
0.0
142
0.0
142
0.0208333333333333
142
0.0
142
0.0
142
0.0
142
0.0
142
1.0
142
0.0
142
0.0
142
0.0
142
0.0
142
1.0
179
     0
144
0.0208333333333333
144
0.0
144
0.0
144
0.0
144
0.0
144
0.0208333333333333
144
0.0
144
0.0
144
0.0
144
0.0
144
1.0
144
0.0
144
0.0
144
0.0
144
0.0
144
1.0
147
0.0208333333333333
147
0.0
147
0.0
147
0.0
147
0.0
147
0.0208333333333333
147
0.0
147
0.0
147
0.0
147
0.0
147
1.0
147
0.0
147
0.0
147
0.0
147
0.0
147
1.0
  0
MATERIAL
  5
3C7
102
{ACAD_XDICTIONARY
360
3C8
102
}
102
{ACAD_REACTORS
330
2AE
102
}
330
2AE
100
AcDbMaterial
  1
ByLayer
 72
     0
 43
0.0208333333333333
 43
0.0
 43
0.0
 43
0.0
 43
0.0
 43
0.0208333333333333
 43
0.0
 43
0.0
 43
0.0
 43
0.0
 43
1.0
 43
0.0
 43
0.0
 43
0.0
 43
0.0
 43
1.0
 77
     0
 47
0.0208333333333333
 47
0.0
 47
0.0
 47
0.0
 47
0.0
 47
0.0208333333333333
 47
0.0
 47
0.0
 47
0.0
 47
0.0
 47
1.0
 47
0.0
 47
0.0
 47
0.0
 47
0.0
 47
1.0
171
     0
 49
0.0208333333333333
 49
0.0
 49
0.0
 49
0.0
 49
0.0
 49
0.0208333333333333
 49
0.0
 49
0.0
 49
0.0
 49
0.0
 49
1.0
 49
0.0
 49
0.0
 49
0.0
 49
0.0
 49
1.0
175
     0
142
0.0208333333333333
142
0.0
142
0.0
142
0.0
142
0.0
142
0.0208333333333333
142
0.0
142
0.0
142
0.0
142
0.0
142
1.0
142
0.0
142
0.0
142
0.0
142
0.0
142
1.0
179
     0
144
0.0208333333333333
144
0.0
144
0.0
144
0.0
144
0.0
144
0.0208333333333333
144
0.0
144
0.0
144
0.0
144
0.0
144
1.0
144
0.0
144
0.0
144
0.0
144
0.0
144
1.0
147
0.0208333333333333
147
0.0
147
0.0
147
0.0
147
0.0
147
0.0208333333333333
147
0.0
147
0.0
147
0.0
147
0.0
147
1.0
147
0.0
147
0.0
147
0.0
147
0.0
147
1.0
  0
MATERIAL
  5
3D7
102
{ACAD_XDICTIONARY
360
3D8
102
}
102
{ACAD_REACTORS
330
2AE
102
}
330
2AE
100
AcDbMaterial
  1
Global
 72
     0
 43
0.0208333333333333
 43
0.0
 43
0.0
 43
0.0
 43
0.0
 43
0.0208333333333333
 43
0.0
 43
0.0
 43
0.0
 43
0.0
 43
1.0
 43
0.0
 43
0.0
 43
0.0
 43
0.0
 43
1.0
 77
     0
 47
0.0208333333333333
 47
0.0
 47
0.0
 47
0.0
 47
0.0
 47
0.0208333333333333
 47
0.0
 47
0.0
 47
0.0
 47
0.0
 47
1.0
 47
0.0
 47
0.0
 47
0.0
 47
0.0
 47
1.0
171
     0
 49
0.0208333333333333
 49
0.0
 49
0.0
 49
0.0
 49
0.0
 49
0.0208333333333333
 49
0.0
 49
0.0
 49
0.0
 49
0.0
 49
1.0
 49
0.0
 49
0.0
 49
0.0
 49
0.0
 49
1.0
175
     0
142
0.0208333333333333
142
0.0
142
0.0
142
0.0
142
0.0
142
0.0208333333333333
142
0.0
142
0.0
142
0.0
142
0.0
142
1.0
142
0.0
142
0.0
142
0.0
142
0.0
142
1.0
179
     0
144
0.0208333333333333
144
0.0
144
0.0
144
0.0
144
0.0
144
0.0208333333333333
144
0.0
144
0.0
144
0.0
144
0.0
144
1.0
144
0.0
144
0.0
144
0.0
144
0.0
144
1.0
147
0.0208333333333333
147
0.0
147
0.0
147
0.0
147
0.0
147
0.0208333333333333
147
0.0
147
0.0
147
0.0
147
0.0
147
1.0
147
0.0
147
0.0
147
0.0
147
0.0
147
1.0
  0
MLEADERSTYLE
  5
413
102
{ACAD_REACTORS
330
412
102
}
330
412
100
AcDbMLeaderStyle
170
     2
171
     1
172
     0
 90
        2
 40
0.0
 41
0.0
173
     1
 91
-1056964608
340
F
 92
       -2
290
     1
 42
0.09
291
     1
 43
0.36
  3
Standard
 44
0.18
300

342
D
174
     1
178
     6
175
     1
176
     0
 93
-1056964608
 45
0.18
292
     0
297
     0
 46
0.18
 94
-1056964608
 47
1.0
 49
1.0
140
1.0
293
     1
141
0.0
294
     1
177
     0
142
1.0
295
     0
296
     0
143
0.125
1001
ACAD_MLEADERVER
1070
     2
  0
MLINESTYLE
  5
1C
102
{ACAD_REACTORS
330
1A
102
}
330
1A
100
AcDbMlineStyle
  2
STANDARD
 70
     0
  3

 62
     0
 51
90.0
 52
90.0
 71
     2
 49
0.5
 62
   256
  6
BYLAYER
 49
-0.5
 62
   256
  6
BYLAYER
  0
ACDBPLACEHOLDER
  5
2AD
102
{ACAD_REACTORS
330
2AC
102
}
330
2AC
  0
SCALE
  5
3F1
102
{ACAD_REACTORS
330
3F0
102
}
330
3F0
100
AcDbScale
 70
     0
300
1:1
140
1.0
141
1.0
290
     1
  0
SCALE
  5
3F2
102
{ACAD_REACTORS
330
3F0
102
}
330
3F0
100
AcDbScale
 70
     0
300
1:2
140
1.0
141
2.0
290
     0
  0
SCALE
  5
3F3
102
{ACAD_REACTORS
330
3F0
102
}
330
3F0
100
AcDbScale
 70
     0
300
1:4
140
1.0
141
4.0
290
     0
  0
SCALE
  5
3F4
102
{ACAD_REACTORS
330
3F0
102
}
330
3F0
100
AcDbScale
 70
     0
300
1:5
140
1.0
141
5.0
290
     0
  0
SCALE
  5
3F5
102
{ACAD_REACTORS
330
3F0
102
}
330
3F0
100
AcDbScale
 70
     0
300
1:8
140
1.0
141
8.0
290
     0
  0
SCALE
  5
3F6
102
{ACAD_REACTORS
330
3F0
102
}
330
3F0
100
AcDbScale
 70
     0
300
1:10
140
1.0
141
10.0
290
     0
  0
SCALE
  5
3F7
102
{ACAD_REACTORS
330
3F0
102
}
330
3F0
100
AcDbScale
 70
     0
300
1:16
140
1.0
141
16.0
290
     0
  0
SCALE
  5
3F8
102
{ACAD_REACTORS
330
3F0
102
}
330
3F0
100
AcDbScale
 70
     0
300
1:20
140
1.0
141
20.0
290
     0
  0
SCALE
  5
3F9
102
{ACAD_REACTORS
330
3F0
102
}
330
3F0
100
AcDbScale
 70
     0
300
1:30
140
1.0
141
30.0
290
     0
  0
SCALE
  5
3FA
102
{ACAD_REACTORS
330
3F0
102
}
330
3F0
100
AcDbScale
 70
     0
300
1:40
140
1.0
141
40.0
290
     0
  0
SCALE
  5
3FB
102
{ACAD_REACTORS
330
3F0
102
}
330
3F0
100
AcDbScale
 70
     0
300
1:50
140
1.0
141
50.0
290
     0
  0
SCALE
  5
3FC
102
{ACAD_REACTORS
330
3F0
102
}
330
3F0
100
AcDbScale
 70
     0
300
1:100
140
1.0
141
100.0
290
     0
  0
SCALE
  5
3FD
102
{ACAD_REACTORS
330
3F0
102
}
330
3F0
100
AcDbScale
 70
     0
300
2:1
140
2.0
141
1.0
290
     0
  0
SCALE
  5
3FE
102
{ACAD_REACTORS
330
3F0
102
}
330
3F0
100
AcDbScale
 70
     0
300
4:1
140
4.0
141
1.0
290
     0
  0
SCALE
  5
3FF
102
{ACAD_REACTORS
330
3F0
102
}
330
3F0
100
AcDbScale
 70
     0
300
8:1
140
8.0
141
1.0
290
     0
  0
SCALE
  5
400
102
{ACAD_REACTORS
330
3F0
102
}
330
3F0
100
AcDbScale
 70
     0
300
10:1
140
10.0
141
1.0
290
     0
  0
SCALE
  5
401
102
{ACAD_REACTORS
330
3F0
102
}
330
3F0
100
AcDbScale
 70
     0
300
100:1
140
100.0
141
1.0
290
     0
  0
SCALE
  5
402
102
{ACAD_REACTORS
330
3F0
102
}
330
3F0
100
AcDbScale
 70
     0
300
1/128" = 1'-0"
140
0.0078125
141
12.0
290
     0
  0
SCALE
  5
403
102
{ACAD_REACTORS
330
3F0
102
}
330
3F0
100
AcDbScale
 70
     0
300
1/64" = 1'-0"
140
0.015625
141
12.0
290
     0
  0
SCALE
  5
404
102
{ACAD_REACTORS
330
3F0
102
}
330
3F0
100
AcDbScale
 70
     0
300
1/32" = 1'-0"
140
0.03125
141
12.0
290
     0
  0
SCALE
  5
405
102
{ACAD_REACTORS
330
3F0
102
}
330
3F0
100
AcDbScale
 70
     0
300
1/16" = 1'-0"
140
0.0625
141
12.0
290
     0
  0
SCALE
  5
406
102
{ACAD_REACTORS
330
3F0
102
}
330
3F0
100
AcDbScale
 70
     0
300
3/32" = 1'-0"
140
0.09375
141
12.0
290
     0
  0
SCALE
  5
407
102
{ACAD_REACTORS
330
3F0
102
}
330
3F0
100
AcDbScale
 70
     0
300
1/8" = 1'-0"
140
0.125
141
12.0
290
     0
  0
SCALE
  5
408
102
{ACAD_REACTORS
330
3F0
102
}
330
3F0
100
AcDbScale
 70
     0
300
3/16" = 1'-0"
140
0.1875
141
12.0
290
     0
  0
SCALE
  5
409
102
{ACAD_REACTORS
330
3F0
102
}
330
3F0
100
AcDbScale
 70
     0
300
1/4" = 1'-0"
140
0.25
141
12.0
290
     0
  0
SCALE
  5
40A
102
{ACAD_REACTORS
330
3F0
102
}
330
3F0
100
AcDbScale
 70
     0
300
3/8" = 1'-0"
140
0.375
141
12.0
290
     0
  0
SCALE
  5
40B
102
{ACAD_REACTORS
330
3F0
102
}
330
3F0
100
AcDbScale
 70
     0
300
1/2" = 1'-0"
140
0.5
141
12.0
290
     0
  0
SCALE
  5
40C
102
{ACAD_REACTORS
330
3F0
102
}
330
3F0
100
AcDbScale
 70
     0
300
3/4" = 1'-0"
140
0.75
141
12.0
290
     0
  0
SCALE
  5
40D
102
{ACAD_REACTORS
330
3F0
102
}
330
3F0
100
AcDbScale
 70
     0
300
1" = 1'-0"
140
1.0
141
12.0
290
     0
  0
SCALE
  5
40E
102
{ACAD_REACTORS
330
3F0
102
}
330
3F0
100
AcDbScale
 70
     0
300
1-1/2" = 1'-0"
140
1.5
141
12.0
290
     0
  0
SCALE
  5
40F
102
{ACAD_REACTORS
330
3F0
102
}
330
3F0
100
AcDbScale
 70
     0
300
3" = 1'-0"
140
3.0
141
12.0
290
     0
  0
SCALE
  5
410
102
{ACAD_REACTORS
330
3F0
102
}
330
3F0
100
AcDbScale
 70
     0
300
6" = 1'-0"
140
6.0
141
12.0
290
     0
  0
SCALE
  5
411
102
{ACAD_REACTORS
330
3F0
102
}
330
3F0
100
AcDbScale
 70
     0
300
1'-0" = 1'-0"
140
12.0
141
12.0
290
     0
  0
TABLESTYLE
  5
2B1
102
{ACAD_XDICTIONARY
360
5FF
102
}
102
{ACAD_REACTORS
330
2B0
102
}
330
2B0
100
AcDbTableStyle
  3
Standard
 70
     0
 71
     0
 40
0.06
 41
0.06
280
     0
281
     0
  7
STANDARD
140
0.18
170
     2
 62
     0
 63
     7
283
     0
274
    -2
284
     1
 64
     0
275
    -2
285
     1
 65
     0
276
    -2
286
     1
 66
     0
277
    -2
287
     1
 67
     0
278
    -2
288
     1
 68
     0
279
    -2
289
     1
 69
     0
  7
STANDARD
140
0.25
170
     5
 62
     0
 63
     7
283
     0
274
    -2
284
     1
 64
     0
275
    -2
285
     1
 65
     0
276
    -2
286
     1
 66
     0
277
    -2
287
     1
 67
     0
278
    -2
288
     1
 68
     0
279
    -2
289
     1
 69
     0
  7
STANDARD
140
0.18
170
     5
 62
     0
 63
     7
283
     0
274
    -2
284
     1
 64
     0
275
    -2
285
     1
 65
     0
276
    -2
286
     1
 66
     0
277
    -2
287
     1
 67
     0
278
    -2
288
     1
 68
     0
279
    -2
289
     1
 69
     0
  0
VISUALSTYLE
  5
3E5
102
{ACAD_REACTORS
330
3DF
102
}
330
3DF
100
AcDbVisualStyle
  2
2dWireframe
 70
     4
 71
     0
 72
     2
 73
     0
 90
        0
 40
-0.6
 41
-30.0
 62
     5
 63
     7
421
 16777215
 74
     1
 91
        4
 64
     7
 65
   257
 75
     1
175
     1
 42
1.0
 92
        0
 66
   257
 43
1.0
 76
     1
 77
     6
 78
     2
 67
     7
 79
     5
170
     0
171
     0
290
     0
174
     0
 93
        1
 44
0.0
173
     0
291
     0
 45
0.0
1001
ACAD
1000
AcDbSavedByObjectVersion
1070
     0
  0
VISUALSTYLE
  5
3E7
102
{ACAD_REACTORS
330
3DF
102
}
330
3DF
100
AcDbVisualStyle
  2
3D Hidden
 70
     6
 71
     1
 72
     2
 73
     2
 90
        0
 40
-0.6
 41
-30.0
 62
     5
 63
     7
421
 16777215
 74
     2
 91
        2
 64
     7
 65
   257
 75
     2
175
     1
 42
40.0
 92
        0
 66
   257
 43
1.0
 76
     1
 77
     6
 78
     2
 67
     7
 79
     3
170
     0
171
     0
290
     0
174
     0
 93
        1
 44
0.0
173
     0
291
     0
 45
0.0
1001
ACAD
1000
AcDbSavedByObjectVersion
1070
     0
  0
VISUALSTYLE
  5
3E6
102
{ACAD_REACTORS
330
3DF
102
}
330
3DF
100
AcDbVisualStyle
  2
3dWireframe
 70
     5
 71
     0
 72
     2
 73
     0
 90
        0
 40
-0.6
 41
-30.0
 62
     5
 63
     7
421
 16777215
 74
     1
 91
        4
 64
     7
 65
   257
 75
     1
175
     1
 42
1.0
 92
        0
 66
   257
 43
1.0
 76
     1
 77
     6
 78
     2
 67
     7
 79
     5
170
     0
171
     0
290
     0
174
     0
 93
        1
 44
0.0
173
     0
291
     0
 45
0.0
1001
ACAD
1000
AcDbSavedByObjectVersion
1070
     0
  0
VISUALSTYLE
  5
3E4
102
{ACAD_REACTORS
330
3DF
102
}
330
3DF
100
AcDbVisualStyle
  2
Basic
 70
     7
 71
     1
 72
     0
 73
     1
 90
        0
 40
-0.6
 41
-30.0
 62
     5
 63
     7
421
 16777215
 74
     0
 91
        4
 64
     7
 65
   257
 75
     1
175
     1
 42
1.0
 92
        8
 66
     7
 43
1.0
 76
     1
 77
     6
 78
     2
 67
     7
 79
     5
170
     0
171
     0
290
     0
174
     0
 93
        1
 44
0.0
173
     0
291
     1
 45
0.0
1001
ACAD
1000
AcDbSavedByObjectVersion
1070
     0
  0
VISUALSTYLE
  5
3EB
102
{ACAD_REACTORS
330
3DF
102
}
330
3DF
100
AcDbVisualStyle
  2
Brighten
 70
    12
 71
     2
 72
     2
 73
     0
 90
        0
 40
-0.6
 41
-30.0
 62
     5
 63
     7
421
 16777215
 74
     1
 91
        4
 64
     7
 65
   257
 75
     1
175
     1
 42
1.0
 92
        8
 66
     7
 43
1.0
 76
     1
 77
     6
 78
     2
 67
     7
 79
     5
170
     0
171
     0
290
     0
174
     0
 93
        1
 44
50.0
173
     0
291
     1
 45
0.0
1001
ACAD
1000
AcDbSavedByObjectVersion
1070
     0
  0
VISUALSTYLE
  5
3EF
102
{ACAD_REACTORS
330
3DF
102
}
330
3DF
100
AcDbVisualStyle
  2
ColorChange
 70
    16
 71
     2
 72
     2
 73
     3
 90
        0
 40
-0.6
 41
-30.0
 62
     5
 63
     8
421
  8421504
 74
     1
 91
        4
 64
     7
 65
   257
 75
     1
175
     1
 42
1.0
 92
        8
 66
     8
424
  8421504
 43
1.0
 76
     1
 77
     6
 78
     2
 67
     7
 79
     5
170
     0
171
     0
290
     0
174
     0
 93
        1
 44
0.0
173
     0
291
     1
 45
0.0
1001
ACAD
1000
AcDbSavedByObjectVersion
1070
     0
  0
VISUALSTYLE
  5
3E8
102
{ACAD_REACTORS
330
3DF
102
}
330
3DF
100
AcDbVisualStyle
  2
Conceptual
 70
     9
 71
     3
 72
     2
 73
     0
 90
        0
 40
-0.6
 41
-30.0
 62
     5
 63
     7
421
 16777215
 74
     2
 91
        2
 64
     7
 65
   257
 75
     1
175
     1
 42
40.0
 92
        8
 66
     7
 43
1.0
 76
     1
 77
     6
 78
     2
 67
     7
 79
     3
170
     0
171
     0
290
     0
174
     0
 93
        1
 44
0.0
173
     0
291
     0
 45
0.0
1001
ACAD
1000
AcDbSavedByObjectVersion
1070
     0
  0
VISUALSTYLE
  5
3EA
102
{ACAD_REACTORS
330
3DF
102
}
330
3DF
100
AcDbVisualStyle
  2
Dim
 70
    11
 71
     2
 72
     2
 73
     0
 90
        0
 40
-0.6
 41
-30.0
 62
     5
 63
     7
421
 16777215
 74
     1
 91
        4
 64
     7
 65
   257
 75
     1
175
     1
 42
1.0
 92
        8
 66
     7
 43
1.0
 76
     1
 77
     6
 78
     2
 67
     7
 79
     5
170
     0
171
     0
290
     0
174
     0
 93
        1
 44
-50.0
173
     0
291
     1
 45
0.0
1001
ACAD
1000
AcDbSavedByObjectVersion
1070
     0
  0
VISUALSTYLE
  5
3EE
102
{ACAD_REACTORS
330
3DF
102
}
330
3DF
100
AcDbVisualStyle
  2
Facepattern
 70
    15
 71
     2
 72
     2
 73
     0
 90
        0
 40
-0.6
 41
-30.0
 62
     5
 63
     7
421
 16777215
 74
     1
 91
        4
 64
     7
 65
   257
 75
     1
175
     1
 42
1.0
 92
        8
 66
     7
 43
1.0
 76
     1
 77
     6
 78
     2
 67
     7
 79
     5
170
     0
171
     0
290
     0
174
     0
 93
        1
 44
0.0
173
     0
291
     1
 45
0.0
1001
ACAD
1000
AcDbSavedByObjectVersion
1070
     0
  0
VISUALSTYLE
  5
3E0
102
{ACAD_REACTORS
330
3DF
102
}
330
3DF
100
AcDbVisualStyle
  2
Flat
 70
     0
 71
     2
 72
     1
 73
     1
 90
        2
 40
-0.6
 41
30.0
 62
     5
 63
     7
421
 16777215
 74
     0
 91
        4
 64
     7
 65
   257
 75
     1
175
     1
 42
1.0
 92
        8
 66
     7
 43
1.0
 76
     1
 77
     6
 78
     2
 67
     7
 79
     5
170
     0
171
     0
290
     0
174
     0
 93
       13
 44
0.0
173
     0
291
     1
 45
0.0
1001
ACAD
1000
AcDbSavedByObjectVersion
1070
     0
  0
VISUALSTYLE
  5
3E1
102
{ACAD_REACTORS
330
3DF
102
}
330
3DF
100
AcDbVisualStyle
  2
FlatWithEdges
 70
     1
 71
     2
 72
     1
 73
     1
 90
        2
 40
-0.6
 41
30.0
 62
     5
 63
     7
421
 16777215
 74
     1
 91
        4
 64
     7
 65
   257
 75
     1
175
     1
 42
1.0
 92
        0
 66
   257
 43
1.0
 76
     1
 77
     6
 78
     2
 67
     7
 79
     5
170
     0
171
     0
290
     0
174
     0
 93
       13
 44
0.0
173
     0
291
     1
 45
0.0
1001
ACAD
1000
AcDbSavedByObjectVersion
1070
     0
  0
VISUALSTYLE
  5
3E2
102
{ACAD_REACTORS
330
3DF
102
}
330
3DF
100
AcDbVisualStyle
  2
Gouraud
 70
     2
 71
     2
 72
     2
 73
     1
 90
        2
 40
-0.6
 41
30.0
 62
     5
 63
     7
421
 16777215
 74
     0
 91
        4
 64
     7
 65
   257
 75
     1
175
     1
 42
1.0
 92
        0
 66
     7
 43
1.0
 76
     1
 77
     6
 78
     2
 67
     7
 79
     5
170
     0
171
     0
290
     0
174
     0
 93
       13
 44
0.0
173
     0
291
     1
 45
0.0
1001
ACAD
1000
AcDbSavedByObjectVersion
1070
     0
  0
VISUALSTYLE
  5
3E3
102
{ACAD_REACTORS
330
3DF
102
}
330
3DF
100
AcDbVisualStyle
  2
GouraudWithEdges
 70
     3
 71
     2
 72
     2
 73
     1
 90
        2
 40
-0.6
 41
30.0
 62
     5
 63
     7
421
 16777215
 74
     1
 91
        4
 64
     7
 65
   257
 75
     1
175
     1
 42
1.0
 92
        0
 66
   257
 43
1.0
 76
     1
 77
     6
 78
     2
 67
     7
 79
     5
170
     0
171
     0
290
     0
174
     0
 93
       13
 44
0.0
173
     0
291
     1
 45
0.0
1001
ACAD
1000
AcDbSavedByObjectVersion
1070
     0
  0
VISUALSTYLE
  5
3ED
102
{ACAD_REACTORS
330
3DF
102
}
330
3DF
100
AcDbVisualStyle
  2
Linepattern
 70
    14
 71
     2
 72
     2
 73
     0
 90
        0
 40
-0.6
 41
-30.0
 62
     5
 63
     7
421
 16777215
 74
     1
 91
        4
 64
     7
 65
   257
 75
     7
175
     7
 42
1.0
 92
        8
 66
     7
 43
1.0
 76
     1
 77
     6
 78
     2
 67
     7
 79
     5
170
     0
171
     0
290
     0
174
     0
 93
        1
 44
0.0
173
     0
291
     1
 45
0.0
1001
ACAD
1000
AcDbSavedByObjectVersion
1070
     0
  0
VISUALSTYLE
  5
3E9
102
{ACAD_REACTORS
330
3DF
102
}
330
3DF
100
AcDbVisualStyle
  2
Realistic
 70
     8
 71
     2
 72
     2
 73
     0
 90
        0
 40
-0.6
 41
-30.0
 62
     5
 63
     7
421
 16777215
 74
     1
 91
        0
 64
     7
 65
   257
 75
     1
175
     1
 42
1.0
 92
        8
 66
     8
424
  7895160
 43
1.0
 76
     1
 77
     6
 78
     2
 67
     7
 79
     5
170
     0
171
     0
290
     0
174
     0
 93
       13
 44
0.0
173
     0
291
     0
 45
0.0
1001
ACAD
1000
AcDbSavedByObjectVersion
1070
     0
  0
VISUALSTYLE
  5
3EC
102
{ACAD_REACTORS
330
3DF
102
}
330
3DF
100
AcDbVisualStyle
  2
Thicken
 70
    13
 71
     2
 72
     2
 73
     0
 90
        0
 40
-0.6
 41
-30.0
 62
     5
 63
     7
421
 16777215
 74
     1
 91
        4
 64
     7
 65
   257
 75
     1
175
     1
 42
1.0
 92
       12
 66
     7
 43
1.0
 76
     1
 77
     6
 78
     2
 67
     7
 79
     5
170
     0
171
     0
290
     0
174
     0
 93
        1
 44
0.0
173
     0
291
     1
 45
0.0
1001
ACAD
1000
AcDbSavedByObjectVersion
1070
     0
  0
DICTIONARYVAR
  5
604
102
{ACAD_REACTORS
330
273
102
}
330
273
100
DictionaryVariables
280
     0
  1
1:1
  0
DICTIONARYVAR
  5
602
102
{ACAD_REACTORS
330
273
102
}
330
273
100
DictionaryVariables
280
     0
  1
STANDARD
  0
DICTIONARYVAR
  5
3C5
102
{ACAD_REACTORS
330
273
102
}
330
273
100
DictionaryVariables
280
     0
  1
STANDARD
  0
DICTIONARYVAR
  5
274
102
{ACAD_REACTORS
330
273
102
}
330
273
100
DictionaryVariables
280
     0
  1
1
  0
DICTIONARYVAR
  5
605
102
{ACAD_REACTORS
330
273
102
}
330
273
100
DictionaryVariables
280
     0
  1
0
  0
DICTIONARYVAR
  5
603
102
{ACAD_REACTORS
330
273
102
}
330
273
100
DictionaryVariables
280
     0
  1
0
  0
DICTIONARY
  5
252
102
{ACAD_REACTORS
330
251
102
}
330
251
100
AcDbDictionary
281
     1
  0
XRECORD
  5
326
102
{ACAD_REACTORS
330
251
102
}
330
251
100
AcDbXrecord
280
     1
 90
-1023410169
  0
XRECORD
  5
647
102
{ACAD_REACTORS
330
646
102
}
330
646
100
AcDbXrecord
280
     1
  0
DICTIONARY
  5
3D0
330
3CF
100
AcDbDictionary
280
     1
281
     1
  3
ACAD_XREC_ROUNDTRIP
360
69E
  3
BUMPTILE
360
3D2
  3
DIFFUSETILE
360
3D1
  3
OPACITYTILE
360
3D5
  3
REFLECTIONTILE
360
3D4
  3
REFRACTIONTILE
360
3D6
  3
SPECULARTILE
360
3D3
  0
DICTIONARY
  5
3C8
330
3C7
100
AcDbDictionary
280
     1
281
     1
  3
ACAD_XREC_ROUNDTRIP
360
69D
  3
BUMPTILE
360
3CA
  3
DIFFUSETILE
360
3C9
  3
OPACITYTILE
360
3CD
  3
REFLECTIONTILE
360
3CC
  3
REFRACTIONTILE
360
3CE
  3
SPECULARTILE
360
3CB
  0
DICTIONARY
  5
3D8
330
3D7
100
AcDbDictionary
280
     1
281
     1
  3
ACAD_XREC_ROUNDTRIP
360
69F
  3
BUMPTILE
360
3DA
  3
DIFFUSETILE
360
3D9
  3
OPACITYTILE
360
3DD
  3
REFLECTIONTILE
360
3DC
  3
REFRACTIONTILE
360
3DE
  3
SPECULARTILE
360
3DB
  0
DICTIONARY
  5
5FF
330
2B1
100
AcDbDictionary
280
     1
281
     1
  3
ACAD_ROUNDTRIP_2008_TABLESTYLE_CELLSTYLEMAP
360
69B
  3
ACAD_XREC_ROUNDTRIP
360
69C
  0
XRECORD
  5
69E
102
{ACAD_REACTORS
330
3D0
102
}
330
3D0
100
AcDbXrecord
280
     1
102
MATERIAL
148
0.0
149
0.0
149
0.0
 93
        0
 94
      127
282
     0
 72
     0
 77
     0
171
     0
175
     0
179
     0
273
     0
  0
XRECORD
  5
3D2
102
{ACAD_REACTORS
330
3D0
102
}
330
3D0
100
AcDbXrecord
280
     1
270
     1
271
     1
  0
XRECORD
  5
3D1
102
{ACAD_REACTORS
330
3D0
102
}
330
3D0
100
AcDbXrecord
280
     1
270
     1
271
     1
  0
XRECORD
  5
3D5
102
{ACAD_REACTORS
330
3D0
102
}
330
3D0
100
AcDbXrecord
280
     1
270
     1
271
     1
  0
XRECORD
  5
3D4
102
{ACAD_REACTORS
330
3D0
102
}
330
3D0
100
AcDbXrecord
280
     1
270
     1
271
     1
  0
XRECORD
  5
3D6
102
{ACAD_REACTORS
330
3D0
102
}
330
3D0
100
AcDbXrecord
280
     1
270
     1
271
     1
  0
XRECORD
  5
3D3
102
{ACAD_REACTORS
330
3D0
102
}
330
3D0
100
AcDbXrecord
280
     1
270
     1
271
     1
  0
XRECORD
  5
69D
102
{ACAD_REACTORS
330
3C8
102
}
330
3C8
100
AcDbXrecord
280
     1
102
MATERIAL
148
0.0
149
0.0
149
0.0
 93
        0
 94
      127
282
     0
 72
     0
 77
     0
171
     0
175
     0
179
     0
273
     0
  0
XRECORD
  5
3CA
102
{ACAD_REACTORS
330
3C8
102
}
330
3C8
100
AcDbXrecord
280
     1
270
     1
271
     1
  0
XRECORD
  5
3C9
102
{ACAD_REACTORS
330
3C8
102
}
330
3C8
100
AcDbXrecord
280
     1
270
     1
271
     1
  0
XRECORD
  5
3CD
102
{ACAD_REACTORS
330
3C8
102
}
330
3C8
100
AcDbXrecord
280
     1
270
     1
271
     1
  0
XRECORD
  5
3CC
102
{ACAD_REACTORS
330
3C8
102
}
330
3C8
100
AcDbXrecord
280
     1
270
     1
271
     1
  0
XRECORD
  5
3CE
102
{ACAD_REACTORS
330
3C8
102
}
330
3C8
100
AcDbXrecord
280
     1
270
     1
271
     1
  0
XRECORD
  5
3CB
102
{ACAD_REACTORS
330
3C8
102
}
330
3C8
100
AcDbXrecord
280
     1
270
     1
271
     1
  0
XRECORD
  5
69F
102
{ACAD_REACTORS
330
3D8
102
}
330
3D8
100
AcDbXrecord
280
     1
102
MATERIAL
148
0.0
149
0.0
149
0.0
 93
        0
 94
      127
282
     0
 72
     0
 77
     0
171
     0
175
     0
179
     0
273
     0
  0
XRECORD
  5
3DA
102
{ACAD_REACTORS
330
3D8
102
}
330
3D8
100
AcDbXrecord
280
     1
270
     1
271
     1
  0
XRECORD
  5
3D9
102
{ACAD_REACTORS
330
3D8
102
}
330
3D8
100
AcDbXrecord
280
     1
270
     1
271
     1
  0
XRECORD
  5
3DD
102
{ACAD_REACTORS
330
3D8
102
}
330
3D8
100
AcDbXrecord
280
     1
270
     1
271
     1
  0
XRECORD
  5
3DC
102
{ACAD_REACTORS
330
3D8
102
}
330
3D8
100
AcDbXrecord
280
     1
270
     1
271
     1
  0
XRECORD
  5
3DE
102
{ACAD_REACTORS
330
3D8
102
}
330
3D8
100
AcDbXrecord
280
     1
270
     1
271
     1
  0
XRECORD
  5
3DB
102
{ACAD_REACTORS
330
3D8
102
}
330
3D8
100
AcDbXrecord
280
     1
270
     1
271
     1
  0
CELLSTYLEMAP
  5
69B
102
{ACAD_REACTORS
330
5FF
102
}
330
5FF
100
AcDbCellStyleMap
 90
        3
300
CELLSTYLE
  1
TABLEFORMAT_BEGIN
 90
        5
170
     1
 91
        0
 92
    32768
 62
   257
 93
        1
300
CONTENTFORMAT
  1
CONTENTFORMAT_BEGIN
 90
        0
 91
        0
 92
        4
 93
        0
300

 40
0.0
140
1.0
 94
        5
 62
     0
340
D
144
0.25
309
CONTENTFORMAT_END
171
     0
 94
        6
 95
        1
302
GRIDFORMAT
  1
GRIDFORMAT_BEGIN
 90
        0
 91
        1
 62
     0
 92
       -2
340
0
 93
        0
 40
0.045
309
GRIDFORMAT_END
 95
        2
302
GRIDFORMAT
  1
GRIDFORMAT_BEGIN
 90
        0
 91
        1
 62
     0
 92
       -2
340
0
 93
        0
 40
0.045
309
GRIDFORMAT_END
 95
        4
302
GRIDFORMAT
  1
GRIDFORMAT_BEGIN
 90
        0
 91
        1
 62
     0
 92
       -2
340
0
 93
        0
 40
0.045
309
GRIDFORMAT_END
 95
        8
302
GRIDFORMAT
  1
GRIDFORMAT_BEGIN
 90
        0
 91
        1
 62
     0
 92
       -2
340
0
 93
        0
 40
0.045
309
GRIDFORMAT_END
 95
       16
302
GRIDFORMAT
  1
GRIDFORMAT_BEGIN
 90
        0
 91
        1
 62
     0
 92
       -2
340
0
 93
        0
 40
0.045
309
GRIDFORMAT_END
 95
       32
302
GRIDFORMAT
  1
GRIDFORMAT_BEGIN
 90
        0
 91
        1
 62
     0
 92
       -2
340
0
 93
        0
 40
0.045
309
GRIDFORMAT_END
309
TABLEFORMAT_END
  1
CELLSTYLE_BEGIN
 90
        1
 91
        1
300
_TITLE
309
CELLSTYLE_END
300
CELLSTYLE
  1
TABLEFORMAT_BEGIN
 90
        5
170
     1
 91
        0
 92
        0
 62
   257
 93
        1
300
CONTENTFORMAT
  1
CONTENTFORMAT_BEGIN
 90
        0
 91
        0
 92
        4
 93
        0
300

 40
0.0
140
1.0
 94
        5
 62
     0
340
D
144
0.18
309
CONTENTFORMAT_END
171
     0
 94
        6
 95
        1
302
GRIDFORMAT
  1
GRIDFORMAT_BEGIN
 90
        0
 91
        1
 62
     0
 92
       -2
340
0
 93
        0
 40
0.045
309
GRIDFORMAT_END
 95
        2
302
GRIDFORMAT
  1
GRIDFORMAT_BEGIN
 90
        0
 91
        1
 62
     0
 92
       -2
340
0
 93
        0
 40
0.045
309
GRIDFORMAT_END
 95
        4
302
GRIDFORMAT
  1
GRIDFORMAT_BEGIN
 90
        0
 91
        1
 62
     0
 92
       -2
340
0
 93
        0
 40
0.045
309
GRIDFORMAT_END
 95
        8
302
GRIDFORMAT
  1
GRIDFORMAT_BEGIN
 90
        0
 91
        1
 62
     0
 92
       -2
340
0
 93
        0
 40
0.045
309
GRIDFORMAT_END
 95
       16
302
GRIDFORMAT
  1
GRIDFORMAT_BEGIN
 90
        0
 91
        1
 62
     0
 92
       -2
340
0
 93
        0
 40
0.045
309
GRIDFORMAT_END
 95
       32
302
GRIDFORMAT
  1
GRIDFORMAT_BEGIN
 90
        0
 91
        1
 62
     0
 92
       -2
340
0
 93
        0
 40
0.045
309
GRIDFORMAT_END
309
TABLEFORMAT_END
  1
CELLSTYLE_BEGIN
 90
        2
 91
        1
300
_HEADER
309
CELLSTYLE_END
300
CELLSTYLE
  1
TABLEFORMAT_BEGIN
 90
        5
170
     1
 91
        0
 92
        0
 62
   257
 93
        1
300
CONTENTFORMAT
  1
CONTENTFORMAT_BEGIN
 90
        0
 91
        0
 92
        4
 93
        0
300

 40
0.0
140
1.0
 94
        2
 62
     0
340
D
144
0.18
309
CONTENTFORMAT_END
171
     0
 94
        6
 95
        1
302
GRIDFORMAT
  1
GRIDFORMAT_BEGIN
 90
        0
 91
        1
 62
     0
 92
       -2
340
0
 93
        0
 40
0.045
309
GRIDFORMAT_END
 95
        2
302
GRIDFORMAT
  1
GRIDFORMAT_BEGIN
 90
        0
 91
        1
 62
     0
 92
       -2
340
0
 93
        0
 40
0.045
309
GRIDFORMAT_END
 95
        4
302
GRIDFORMAT
  1
GRIDFORMAT_BEGIN
 90
        0
 91
        1
 62
     0
 92
       -2
340
0
 93
        0
 40
0.045
309
GRIDFORMAT_END
 95
        8
302
GRIDFORMAT
  1
GRIDFORMAT_BEGIN
 90
        0
 91
        1
 62
     0
 92
       -2
340
0
 93
        0
 40
0.045
309
GRIDFORMAT_END
 95
       16
302
GRIDFORMAT
  1
GRIDFORMAT_BEGIN
 90
        0
 91
        1
 62
     0
 92
       -2
340
0
 93
        0
 40
0.045
309
GRIDFORMAT_END
 95
       32
302
GRIDFORMAT
  1
GRIDFORMAT_BEGIN
 90
        0
 91
        1
 62
     0
 92
       -2
340
0
 93
        0
 40
0.045
309
GRIDFORMAT_END
309
TABLEFORMAT_END
  1
CELLSTYLE_BEGIN
 90
        3
 91
        2
300
_DATA
309
CELLSTYLE_END
  0
XRECORD
  5
69C
102
{ACAD_REACTORS
330
5FF
102
}
330
5FF
100
AcDbXrecord
280
     1
102
ACAD_ROUNDTRIP_PRE2007_TABLESTYLE
 90
        4
 91
        0
  1

 92
        4
 93
        0
  2

 94
        4
 95
        0
  3

  0
ENDSEC
  0
EOF
