  0
SECTION
  2
HEADER
  9
$ACADVER
  1
AC1018
  9
$ACADMAINTVER
 70
   104
  9
$DWGCODEPAGE
  3
ANSI_1252
  9
$LASTSAVEDBY
  1
ibasyouni
  9
$INSBASE
 10
0.0
 20
0.0
 30
0.0
  9
$EXTMIN
 10
190.4048596876728
 20
138.5498063039847
 30
-0.0000000349181948
  9
$EXTMAX
 10
921.7042615419822
 20
328.378678478043
 30
0.0000000814935746
  9
$LIMMIN
 10
0.0
 20
0.0
  9
$LIMMAX
 10
1100.0
 20
500.0
  9
$ORTHOMODE
 70
     1
  9
$REGENMODE
 70
     1
  9
$FILLMODE
 70
     1
  9
$QTEXTMODE
 70
     0
  9
$MIRRTEXT
 70
     1
  9
$LTSCALE
 40
1.0
  9
$ATTMODE
 70
     1
  9
$TEXTSIZE
 40
10.0
  9
$TRACEWID
 40
1.0
  9
$TEXTSTYLE
  7
STANDARD
  9
$CLAYER
  8
0
  9
$CELTYPE
  6
BYLAYER
  9
$CECOLOR
 62
   256
  9
$CELTSCALE
 40
10.0
  9
$DISPSILH
 70
     0
  9
$DIMSCALE
 40
0.0
  9
$DIMASZ
 40
7.0
  9
$DIMEXO
 40
0.0
  9
$DIMDLI
 40
7.0
  9
$DIMRND
 40
0.0
  9
$DIMDLE
 40
0.0
  9
$DIMEXE
 40
1.25
  9
$DIMTP
 40
0.0
  9
$DIMTM
 40
0.0
  9
$DIMTXT
 40
10.0
  9
$DIMCEN
 40
0.0
  9
$DIMTSZ
 40
0.0
  9
$DIMTOL
 70
     0
  9
$DIMLIM
 70
     0
  9
$DIMTIH
 70
     0
  9
$DIMTOH
 70
     0
  9
$DIMSE1
 70
     0
  9
$DIMSE2
 70
     0
  9
$DIMTAD
 70
     1
  9
$DIMZIN
 70
     8
  9
$DIMBLK
  1

  9
$DIMASO
 70
     1
  9
$DIMSHO
 70
     1
  9
$DIMPOST
  1

  9
$DIMAPOST
  1

  9
$DIMALT
 70
     0
  9
$DIMALTD
 70
     2
  9
$DIMALTF
 40
25.4
  9
$DIMLFAC
 40
1.0
  9
$DIMTOFL
 70
     1
  9
$DIMTVP
 40
0.0
  9
$DIMTIX
 70
     0
  9
$DIMSOXD
 70
     0
  9
$DIMSAH
 70
     0
  9
$DIMBLK1
  1

  9
$DIMBLK2
  1

  9
$DIMSTYLE
  2
ISO-25
  9
$DIMCLRD
 70
   256
  9
$DIMCLRE
 70
   256
  9
$DIMCLRT
 70
   256
  9
$DIMTFAC
 40
1.0
  9
$DIMGAP
 40
4.0
  9
$DIMJUST
 70
     0
  9
$DIMSD1
 70
     0
  9
$DIMSD2
 70
     0
  9
$DIMTOLJ
 70
     1
  9
$DIMTZIN
 70
     8
  9
$DIMALTZ
 70
     0
  9
$DIMALTTZ
 70
     0
  9
$DIMUPT
 70
     1
  9
$DIMDEC
 70
     4
  9
$DIMTDEC
 70
     4
  9
$DIMALTU
 70
     2
  9
$DIMALTTD
 70
     2
  9
$DIMTXSTY
  7
STANDARD
  9
$DIMAUNIT
 70
     0
  9
$DIMADEC
 70
     0
  9
$DIMALTRND
 40
0.0
  9
$DIMAZIN
 70
     0
  9
$DIMDSEP
 70
    46
  9
$DIMATFIT
 70
     0
  9
$DIMFRAC
 70
     0
  9
$DIMLDRBLK
  1

  9
$DIMLUNIT
 70
     2
  9
$DIMLWD
 70
    -2
  9
$DIMLWE
 70
    -2
  9
$DIMTMOVE
 70
     0
  9
$LUNITS
 70
     2
  9
$LUPREC
 70
     4
  9
$SKETCHINC
 40
1.0
  9
$FILLETRAD
 40
2.5
  9
$AUNITS
 70
     0
  9
$AUPREC
 70
     0
  9
$MENU
  1
.
  9
$ELEVATION
 40
0.0
  9
$PELEVATION
 40
0.0
  9
$THICKNESS
 40
0.0
  9
$LIMCHECK
 70
     0
  9
$CHAMFERA
 40
2.0
  9
$CHAMFERB
 40
2.0
  9
$CHAMFERC
 40
0.0
  9
$CHAMFERD
 40
0.0
  9
$SKPOLY
 70
     0
  9
$TDCREATE
 40
2450848.795139884
  9
$TDUCREATE
 40
2450848.711806551
  9
$TDUPDATE
 40
2455831.429903680
  9
$TDUUPDATE
 40
2455831.346570347
  9
$TDINDWG
 40
1.6890715046
  9
$TDUSRTIMER
 40
1.6890715046
  9
$USRTIMER
 70
     1
  9
$ANGBASE
 50
0.0
  9
$ANGDIR
 70
     0
  9
$PDMODE
 70
     0
  9
$PDSIZE
 40
0.0
  9
$PLINEWID
 40
0.5
  9
$SPLFRAME
 70
     0
  9
$SPLINETYPE
 70
     6
  9
$SPLINESEGS
 70
     8
  9
$HANDSEED
  5
7F1
  9
$SURFTAB1
 70
     6
  9
$SURFTAB2
 70
     6
  9
$SURFTYPE
 70
     6
  9
$SURFU
 70
     6
  9
$SURFV
 70
     6
  9
$UCSBASE
  2

  9
$UCSNAME
  2

  9
$UCSORG
 10
0.0
 20
0.0
 30
0.0
  9
$UCSXDIR
 10
1.0
 20
0.0
 30
0.0
  9
$UCSYDIR
 10
0.0
 20
1.0
 30
0.0
  9
$UCSORTHOREF
  2

  9
$UCSORTHOVIEW
 70
     0
  9
$UCSORGTOP
 10
0.0
 20
0.0
 30
0.0
  9
$UCSORGBOTTOM
 10
0.0
 20
0.0
 30
0.0
  9
$UCSORGLEFT
 10
0.0
 20
0.0
 30
0.0
  9
$UCSORGRIGHT
 10
0.0
 20
0.0
 30
0.0
  9
$UCSORGFRONT
 10
0.0
 20
0.0
 30
0.0
  9
$UCSORGBACK
 10
0.0
 20
0.0
 30
0.0
  9
$PUCSBASE
  2

  9
$PUCSNAME
  2

  9
$PUCSORG
 10
0.0
 20
0.0
 30
0.0
  9
$PUCSXDIR
 10
1.0
 20
0.0
 30
0.0
  9
$PUCSYDIR
 10
0.0
 20
1.0
 30
0.0
  9
$PUCSORTHOREF
  2

  9
$PUCSORTHOVIEW
 70
     0
  9
$PUCSORGTOP
 10
0.0
 20
0.0
 30
0.0
  9
$PUCSORGBOTTOM
 10
0.0
 20
0.0
 30
0.0
  9
$PUCSORGLEFT
 10
0.0
 20
0.0
 30
0.0
  9
$PUCSORGRIGHT
 10
0.0
 20
0.0
 30
0.0
  9
$PUCSORGFRONT
 10
0.0
 20
0.0
 30
0.0
  9
$PUCSORGBACK
 10
0.0
 20
0.0
 30
0.0
  9
$USERI1
 70
     0
  9
$USERI2
 70
     0
  9
$USERI3
 70
     0
  9
$USERI4
 70
     0
  9
$USERI5
 70
     0
  9
$USERR1
 40
0.0
  9
$USERR2
 40
0.0
  9
$USERR3
 40
0.0
  9
$USERR4
 40
0.0
  9
$USERR5
 40
0.0
  9
$WORLDVIEW
 70
     1
  9
$SHADEDGE
 70
     3
  9
$SHADEDIF
 70
    70
  9
$TILEMODE
 70
     1
  9
$MAXACTVP
 70
    16
  9
$PINSBASE
 10
0.0
 20
0.0
 30
0.0
  9
$PLIMCHECK
 70
     0
  9
$PEXTMIN
 10
1.000000000000000E+20
 20
1.000000000000000E+20
 30
1.000000000000000E+20
  9
$PEXTMAX
 10
-1.000000000000000E+20
 20
-1.000000000000000E+20
 30
-1.000000000000000E+20
  9
$PLIMMIN
 10
0.0
 20
0.0
  9
$PLIMMAX
 10
420.0
 20
297.0
  9
$UNITMODE
 70
     0
  9
$VISRETAIN
 70
     0
  9
$PLINEGEN
 70
     0
  9
$PSLTSCALE
 70
     0
  9
$TREEDEPTH
 70
  3020
  9
$CMLSTYLE
  2
STANDARD
  9
$CMLJUST
 70
     0
  9
$CMLSCALE
 40
1.0
  9
$PROXYGRAPHICS
 70
     1
  9
$MEASUREMENT
 70
     0
  9
$CELWEIGHT
370
    -1
  9
$ENDCAPS
280
     0
  9
$JOINSTYLE
280
     0
  9
$LWDISPLAY
290
     0
  9
$INSUNITS
 70
     0
  9
$HYPERLINKBASE
  1

  9
$STYLESHEET
  1
Zeich.ctb
  9
$XEDIT
290
     1
  9
$CEPSNTYPE
380
     0
  9
$PSTYLEMODE
290
     1
  9
$FINGERPRINTGUID
  2
{7DE4C0EF-9D2A-4744-9B6C-24B65F7B5C52}
  9
$VERSIONGUID
  2
{7A95BC14-4A7F-4FAB-A35F-5B73C95A55DF}
  9
$EXTNAMES
290
     1
  9
$PSVPSCALE
 40
0.0
  9
$OLESTARTUP
290
     0
  9
$SORTENTS
280
   127
  9
$INDEXCTL
280
     0
  9
$HIDETEXT
280
     0
  9
$XCLIPFRAME
290
     0
  9
$HALOGAP
280
     0
  9
$OBSCOLOR
 70
   257
  9
$OBSLTYPE
280
     0
  9
$INTERSECTIONDISPLAY
280
     0
  9
$INTERSECTIONCOLOR
 70
   257
  9
$DIMASSOC
280
     1
  9
$PROJECTNAME
  1

  0
ENDSEC
  0
SECTION
  2
CLASSES
  0
CLASS
  1
IDBUFFER
  2
AcDbIdBuffer
  3
ObjectDBX Classes
 90
        0
 91
        0
280
     0
281
     0
  0
CLASS
  1
DICTIONARYVAR
  2
AcDbDictionaryVar
  3
ObjectDBX Classes
 90
        0
 91
        6
280
     0
281
     0
  0
CLASS
  1
ACMESTATEMGR
  2
AcMeStateMgr
  3
AcMeServices
 90
     1024
 91
        1
280
     0
281
     0
  0
CLASS
  1
ACMESCOPE
  2
AcMeScope
  3
AcMeServices
 90
     1024
 91
        1
280
     0
281
     0
  0
CLASS
  1
ACMECOMMANDHISTORY
  2
AcMeCommandHistory
  3
AcMeServices
 90
     1024
 91
        1
280
     0
281
     0
  0
CLASS
  1
ACRFINSADJUSTERMGR
  2
AcRfInsAdjusterMgr
  3
AcMeServices
 90
     1024
 91
        1
280
     0
281
     0
  0
CLASS
  1
ACMEDRAWINGMAN
  2
AcMeDrawingMan
  3
AcMeServices
 90
     1024
 91
        1
280
     0
281
     0
  0
CLASS
  1
AMATTR
  2
AcMeAttribute
  3
AcMeServices
 90
     1024
 91
        0
280
     0
281
     0
  0
CLASS
  1
ACMEBOMCOLUMN
  2
AcMeBOMColumn
  3
AcMeServices
 90
     1024
 91
        0
280
     0
281
     0
  0
CLASS
  1
ACMEBOMCONF
  2
AcMeBOMConf
  3
AcMeServices
 90
     1024
 91
        0
280
     0
281
     0
  0
CLASS
  1
ACMEBOMTABLE
  2
AcMeBOMTable
  3
AcMeServices
 90
     1024
 91
        0
280
     0
281
     0
  0
CLASS
  1
ACMEBOMENTRY
  2
AcMeBOMEntry
  3
AcMeServices
 90
     1024
 91
        0
280
     0
281
     0
  0
CLASS
  1
ACMEVIEW
  2
AcMeView
  3
AcMeServices
 90
     1024
 91
        0
280
     0
281
     0
  0
CLASS
  1
LAYER_INDEX
  2
AcDbLayerIndex
  3
ObjectDBX Classes
 90
        0
 91
        0
280
     0
281
     0
  0
CLASS
  1
ACIMSYSVARMAN
  2
AcImSysVarManager
  3
AcMeServices
 90
     1024
 91
        5
280
     0
281
     0
  0
CLASS
  1
ACIMINTSYSVAR
  2
AcImIntSysVar
  3
AcMeServices
 90
     1024
 91
       28
280
     0
281
     0
  0
CLASS
  1
ACIMSTRSYSVAR
  2
AcImStrSysVar
  3
AcMeServices
 90
     1024
 91
        5
280
     0
281
     0
  0
CLASS
  1
ACMSTANDARDJIS
  2
AcmStandardJIS
  3
"Amdt_StdImp|Product Description: AutoCAD Mechanical|Company: Autodesk, Inc."
 90
     1024
 91
        1
280
     0
281
     0
  0
CLASS
  1
ACMSTANDARDANSI
  2
AcmStandardANSI
  3
"Amdt_StdImp|Product Description: AutoCAD Mechanical|Company: Autodesk, Inc."
 90
     1024
 91
        1
280
     0
281
     0
  0
CLASS
  1
ACMSTANDARDBSI
  2
AcmStandardBSI
  3
"Amdt_StdImp|Product Description: AutoCAD Mechanical|Company: Autodesk, Inc."
 90
     1024
 91
        1
280
     0
281
     0
  0
CLASS
  1
ACMSTANDARDDIN
  2
AcmStandardDIN
  3
"Amdt_StdImp|Product Description: AutoCAD Mechanical|Company: Autodesk, Inc."
 90
     1024
 91
        1
280
     0
281
     0
  0
CLASS
  1
ACMSTANDARDISO
  2
AcmStandardISO
  3
"Amdt_StdImp|Product Description: AutoCAD Mechanical|Company: Autodesk, Inc."
 90
     1024
 91
        1
280
     0
281
     0
  0
CLASS
  1
ACDBDICTIONARYWDFLT
  2
AcDbDictionaryWithDefault
  3
ObjectDBX Classes
 90
        0
 91
        1
280
     0
281
     0
  0
CLASS
  1
MATERIAL
  2
AcDbMaterial
  3
ObjectDBX Classes
 90
     1153
 91
        3
280
     0
281
     0
  0
CLASS
  1
VISUALSTYLE
  2
AcDbVisualStyle
  3
ObjectDBX Classes
 90
     4095
 91
       16
280
     0
281
     0
  0
CLASS
  1
TABLESTYLE
  2
AcDbTableStyle
  3
ObjectDBX Classes
 90
     4095
 91
        1
280
     0
281
     0
  0
CLASS
  1
SCALE
  2
AcDbScale
  3
ObjectDBX Classes
 90
     1153
 91
       33
280
     0
281
     0
  0
CLASS
  1
MLEADERSTYLE
  2
AcDbMLeaderStyle
  3
ACDB_MLEADERSTYLE_CLASS
 90
     4095
 91
        1
280
     0
281
     0
  0
CLASS
  1
ACME_DOCUMENT
  2
AcMeDbDoc
  3
AcMeServices
 90
     1024
 91
        2
280
     0
281
     0
  0
CLASS
  1
AMGSETTINGSOBJ
  2
AmgSettingsObj
  3
"AcadM|Product Description: AutoCAD Mechanical|Company: Autodesk, Inc."
 90
     1024
 91
        2
280
     0
281
     0
  0
CLASS
  1
ACDBENTITYCACHE
  2
AcMeEntityCache
  3
AcMeServices
 90
     1024
 91
        1
280
     0
281
     0
  0
CLASS
  1
GSMANAGER
  2
AcMeGSManager
  3
AcMeServices
 90
     1024
 91
        1
280
     0
281
     0
  0
CLASS
  1
AMDTINTERNALREACTOR
  2
AmdtInternalReactor
  3
AcMeServices
 90
     1024
 91
        2
280
     0
281
     0
  0
CLASS
  1
ACGREFMASTER
  2
AcGrefMaster
  3
AcAttribServices
 90
     1024
 91
        1
280
     0
281
     0
  0
CLASS
  1
AM_DRAWING_MGR
  2
AcDmDwgMgr
  3
AcMechDwgViewMgmt
 90
     1024
 91
        1
280
     0
281
     0
  0
CLASS
  1
AM_DWG_DOCUMENT
  2
AcDmDwgDocument
  3
AcMechDwgViewMgmt
 90
     1024
 91
        1
280
     0
281
     0
  0
CLASS
  1
AM_DWG_SHEET
  2
AcDmSheet
  3
AcMechDwgViewMgmt
 90
     1024
 91
        1
280
     0
281
     0
  0
CLASS
  1
AM_VIEWDIMPARMAP
  2
AcDmViewDimParMap
  3
AcMechDwgViewMgmt
 90
     1024
 91
        1
280
     0
281
     0
  0
CLASS
  1
ACIMREALSYSVAR
  2
AcImRealSysVar
  3
AcMeServices
 90
     1024
 91
        1
280
     0
281
     0
  0
CLASS
  1
AM_DWGMGR_NAME
  2
AcDmDwgMgrName
  3
AcMechDwgViewMgmt
 90
     1024
 91
        1
280
     0
281
     0
  0
CLASS
  1
ACME_DATABASE
  2
AcMeDbDatabase
  3
AcMeServices
 90
     1024
 91
        2
280
     0
281
     0
  0
CLASS
  1
ACGREFACADMASTER
  2
AcGrefacadMaster
  3
AcGrefServices
 90
     1024
 91
        1
280
     0
281
     0
  0
CLASS
  1
AMDTMENUSTATEMGR
  2
AmdtMenuStateMgr
  3
McadcomServices
 90
     1024
 91
        1
280
     0
281
     0
  0
CLASS
  1
AMDTMCOMMENUSTATE
  2
AmdtMcomMenuState
  3
McadcomServices
 90
     1024
 91
        1
280
     0
281
     0
  0
CLASS
  1
AMIMASTER
  2
AmiMaster
  3
AmiServices
 90
     1024
 91
        1
280
     0
281
     0
  0
CLASS
  1
MAPIAMMOUDLE
  2
MApiAmModule
  3
MApiAmServices
 90
     1024
 91
        1
280
     0
281
     0
  0
CLASS
  1
AMDTADMENUSTATE
  2
AmdtAdMenuState
  3
DesignerServices
 90
     1024
 91
        1
280
     0
281
     0
  0
CLASS
  1
ADAPPL
  2
AcAdAppl
  3
DesignerServices
 90
     1024
 91
        1
280
     0
281
     0
  0
CLASS
  1
DEPMGR
  2
AcAdDepMgr
  3
DesignerServices
 90
     1024
 91
        1
280
     0
281
     0
  0
CLASS
  1
PARAMMGR
  2
AcAdParamMgr
  3
DesignerServices
 90
     1024
 91
        1
280
     0
281
     0
  0
CLASS
  1
PARAMSCOPE
  2
AcAdParamScope
  3
DesignerServices
 90
     1024
 91
        1
280
     0
281
     0
  0
CLASS
  1
NAMEDAPPL
  2
AcAdNamedAppl
  3
DesignerServices
 90
     1024
 91
        1
280
     0
281
     0
  0
CLASS
  1
AMDTDMMENUSTATE
  2
AmdtDmMenuState
  3
AcMechDwgViewMgmt
 90
     1024
 91
        1
280
     0
281
     0
  0
CLASS
  1
AMDTAMMENUSTATE
  2
AmdtAmMenuState
  3
DesignerAssemblies
 90
     1024
 91
        1
280
     0
281
     0
  0
CLASS
  1
ACAMPROJECT
  2
AcAmProject
  3
DesignerAssemblies
 90
     1024
 91
        1
280
     0
281
     0
  0
CLASS
  1
ACAMGRCOMPDEF
  2
AcAmGrCompDef
  3
DesignerAssemblies
 90
     1024
 91
        1
280
     0
281
     0
  0
CLASS
  1
ACCMCONTEXT
  2
AcCmContext
  3
DesignerAssemblies
 90
     1024
 91
        1
280
     0
281
     0
  0
CLASS
  1
ACAMCOMPDEF
  2
AcAmCompDef
  3
DesignerAssemblies
 90
     1024
 91
        1
280
     0
281
     0
  0
CLASS
  1
ACAMCOMPDEFMGR
  2
AcAmCompDefMgr
  3
DesignerAssemblies
 90
     1024
 91
        1
280
     0
281
     0
  0
CLASS
  1
AMCONTEXTMGR
  2
AcAmContextMgr
  3
DesignerAssemblies
 90
     1024
 91
        1
280
     0
281
     0
  0
CLASS
  1
ACAMCONTEXTMODELER
  2
AcAmContextModeler
  3
DesignerAssemblies
 90
     1024
 91
        1
280
     0
281
     0
  0
CLASS
  1
ACMDATADICTIONARY
  2
AcmDataDictionary
  3
"AcmSymBB|Product Description: AutoCAD Mechanical|Company: Autodesk, Inc."
 90
     1024
 91
        1
280
     0
281
     0
  0
CLASS
  1
ACMSURFSTANDARDJIS2003
  2
AcmSurfTextStdJIS2003
  3
"Amdt_StdImp|Product Description: AutoCAD Mechanical|Company: Autodesk, Inc."
 90
     1024
 91
        1
280
     0
281
     0
  0
CLASS
  1
ACMFCFSTANDARDJIS98
  2
AcmFCFStdJIS98
  3
"Amdt_StdImp|Product Description: AutoCAD Mechanical|Company: Autodesk, Inc."
 90
     1024
 91
        1
280
     0
281
     0
  0
CLASS
  1
ACMWELDSTANDARDJIS
  2
AcmWeldingStdJIS
  3
"Amdt_StdImp|Product Description: AutoCAD Mechanical|Company: Autodesk, Inc."
 90
     1024
 91
        1
280
     0
281
     0
  0
CLASS
  1
ACMIDSTANDARDJIS
  2
AcmIdStdJIS
  3
"Amdt_StdImp|Product Description: AutoCAD Mechanical|Company: Autodesk, Inc."
 90
     1024
 91
        1
280
     0
281
     0
  0
CLASS
  1
AMGOBJPROPCFG
  2
AmgObjPropCfg
  3
"AmgLay|Product Description: AutoCAD Mechanical|Company: Autodesk, Inc."
 90
     1025
 91
        1
280
     0
281
     0
  0
CLASS
  1
ACMDATUMSTANDARDJIS
  2
AcmDatumStdJIS
  3
"Amdt_StdImp|Product Description: AutoCAD Mechanical|Company: Autodesk, Inc."
 90
     1024
 91
        1
280
     0
281
     0
  0
CLASS
  1
ACMBOMSTANDARDJIS
  2
AcmBOMStdJIS
  3
"Amdt_StdImp|Product Description: AutoCAD Mechanical|Company: Autodesk, Inc."
 90
     1024
 91
        1
280
     0
281
     0
  0
CLASS
  1
ACMDETAILSTANDARDJIS
  2
AmdtDetailSymStdJIS
  3
"Amdt_StdImp|Product Description: AutoCAD Mechanical|Company: Autodesk, Inc."
 90
     1024
 91
        1
280
     0
281
     0
  0
CLASS
  1
ACMSECTIONSTANDARDJIS
  2
AmdtSectionSymStdJIS
  3
"Amdt_StdImp|Product Description: AutoCAD Mechanical|Company: Autodesk, Inc."
 90
     1024
 91
        1
280
     0
281
     0
  0
CLASS
  1
ACMCENTERLINESTANDARDJIS
  2
AmdtCenterLineStdJIS
  3
"Amdt_StdImp|Product Description: AutoCAD Mechanical|Company: Autodesk, Inc."
 90
     1024
 91
        1
280
     0
281
     0
  0
CLASS
  1
ACMTHREADLINESTANDARDJIS
  2
AmdtThreadLineStdJIS
  3
"Amdt_StdImp|Product Description: AutoCAD Mechanical|Company: Autodesk, Inc."
 90
     1024
 91
        1
280
     0
281
     0
  0
CLASS
  1
ACMNOTESTANDARDJIS
  2
AmdtNoteStdJIS
  3
"Amdt_StdImp|Product Description: AutoCAD Mechanical|Company: Autodesk, Inc."
 90
     1024
 91
        1
280
     0
281
     0
  0
CLASS
  1
AMDTNOTETEMPLATEDB
  2
AmdtNoteTemplateDB
  3
AcmSymBB|Product Description: AutoCAD Mechanical|Company: Autodesk, Inc.
 90
     1024
 91
       30
280
     0
281
     0
  0
CLASS
  1
ACMTAPERSTANDARDJIS
  2
AcmTaperStdJIS
  3
"Amdt_StdImp|Product Description: AutoCAD Mechanical|Company: Autodesk, Inc."
 90
     1024
 91
        1
280
     0
281
     0
  0
CLASS
  1
ACMANOOTATIONVIEWSTANDARDJIS
  2
AmdtAnViewStdJIS
  3
"Amdt_StdImp|Product Description: AutoCAD Mechanical|Company: Autodesk, Inc."
 90
     1024
 91
        1
280
     0
281
     0
  0
CLASS
  1
ACAMGTITLESTD
  2
AcAmgTitleStd
  3
"AmgTitle|Product Description: AutoCAD Mechanical|Company: Autodesk, Inc."
 90
     4095
 91
        5
280
     0
281
     0
  0
CLASS
  1
ACMSURFSTANDARDANSI
  2
AcmSurfTextStdANSI
  3
"Amdt_StdImp|Product Description: AutoCAD Mechanical|Company: Autodesk, Inc."
 90
     1024
 91
        1
280
     0
281
     0
  0
CLASS
  1
ACMFCFSTANDARDANSI
  2
AcmFCFStdANSI
  3
"Amdt_StdImp|Product Description: AutoCAD Mechanical|Company: Autodesk, Inc."
 90
     1024
 91
        1
280
     0
281
     0
  0
CLASS
  1
ACMWELDSTANDARDANSI
  2
AcmWeldingStdANSI
  3
"Amdt_StdImp|Product Description: AutoCAD Mechanical|Company: Autodesk, Inc."
 90
     1024
 91
        1
280
     0
281
     0
  0
CLASS
  1
ACMIDSTANDARDANSI
  2
AcmIdStdANSI
  3
"Amdt_StdImp|Product Description: AutoCAD Mechanical|Company: Autodesk, Inc."
 90
     1024
 91
        1
280
     0
281
     0
  0
CLASS
  1
ACMDATUMSTANDARDANSI
  2
AcmDatumStdANSI
  3
"Amdt_StdImp|Product Description: AutoCAD Mechanical|Company: Autodesk, Inc."
 90
     1024
 91
        1
280
     0
281
     0
  0
CLASS
  1
ACMBOMSTANDARDANSI
  2
AcmBOMStdANSI
  3
"Amdt_StdImp|Product Description: AutoCAD Mechanical|Company: Autodesk, Inc."
 90
     1024
 91
        1
280
     0
281
     0
  0
CLASS
  1
ACMDETAILSTANDARDANSI
  2
AmdtDetailSymStdANSI
  3
"Amdt_StdImp|Product Description: AutoCAD Mechanical|Company: Autodesk, Inc."
 90
     1024
 91
        1
280
     0
281
     0
  0
CLASS
  1
ACMSECTIONSTANDARDANSI
  2
AmdtSectionSymStdANSI
  3
"Amdt_StdImp|Product Description: AutoCAD Mechanical|Company: Autodesk, Inc."
 90
     1024
 91
        1
280
     0
281
     0
  0
CLASS
  1
ACMCENTERLINESTANDARDANSI
  2
AmdtCenterLineStdANSI
  3
"Amdt_StdImp|Product Description: AutoCAD Mechanical|Company: Autodesk, Inc."
 90
     1024
 91
        1
280
     0
281
     0
  0
CLASS
  1
ACMTHREADLINESTANDARDANSI
  2
AmdtThreadLineStdANSI
  3
"Amdt_StdImp|Product Description: AutoCAD Mechanical|Company: Autodesk, Inc."
 90
     1024
 91
        1
280
     0
281
     0
  0
CLASS
  1
ACMNOTESTANDARDANSI
  2
AmdtNoteStdANSI
  3
"Amdt_StdImp|Product Description: AutoCAD Mechanical|Company: Autodesk, Inc."
 90
     1024
 91
        1
280
     0
281
     0
  0
CLASS
  1
ACMTAPERSTANDARDANSI
  2
AcmTaperStdANSI
  3
"Amdt_StdImp|Product Description: AutoCAD Mechanical|Company: Autodesk, Inc."
 90
     1024
 91
        1
280
     0
281
     0
  0
CLASS
  1
ACMANOOTATIONVIEWSTANDARDANSI
  2
AmdtAnViewStdANSI
  3
"Amdt_StdImp|Product Description: AutoCAD Mechanical|Company: Autodesk, Inc."
 90
     1024
 91
        1
280
     0
281
     0
  0
CLASS
  1
ACMSURFSTANDARDBSI2002
  2
AcmSurfTextStdBSI2002
  3
"Amdt_StdImp|Product Description: AutoCAD Mechanical|Company: Autodesk, Inc."
 90
     1024
 91
        1
280
     0
281
     0
  0
CLASS
  1
ACMFCFSTANDARDBSI
  2
AcmFCFStdBSI
  3
"Amdt_StdImp|Product Description: AutoCAD Mechanical|Company: Autodesk, Inc."
 90
     1024
 91
        1
280
     0
281
     0
  0
CLASS
  1
ACMWELDSTANDARDBSI
  2
AcmWeldingStdBSI
  3
"Amdt_StdImp|Product Description: AutoCAD Mechanical|Company: Autodesk, Inc."
 90
     1024
 91
        1
280
     0
281
     0
  0
CLASS
  1
ACMIDSTANDARDBSI
  2
AcmIdStdBSI
  3
"Amdt_StdImp|Product Description: AutoCAD Mechanical|Company: Autodesk, Inc."
 90
     1024
 91
        1
280
     0
281
     0
  0
CLASS
  1
ACMDATUMSTANDARDBSI
  2
AcmDatumStdBSI
  3
"Amdt_StdImp|Product Description: AutoCAD Mechanical|Company: Autodesk, Inc."
 90
     1024
 91
        1
280
     0
281
     0
  0
CLASS
  1
ACMBOMSTANDARDBSI
  2
AcmBOMStdBSI
  3
"Amdt_StdImp|Product Description: AutoCAD Mechanical|Company: Autodesk, Inc."
 90
     1024
 91
        1
280
     0
281
     0
  0
CLASS
  1
ACMDETAILSTANDARDBSI
  2
AmdtDetailSymStdBSI
  3
"Amdt_StdImp|Product Description: AutoCAD Mechanical|Company: Autodesk, Inc."
 90
     1024
 91
        1
280
     0
281
     0
  0
CLASS
  1
ACMSECTIONSTANDARDBSI2001
  2
AmdtSectionSymStdBSI2001
  3
"Amdt_StdImp|Product Description: AutoCAD Mechanical|Company: Autodesk, Inc."
 90
     1024
 91
        1
280
     0
281
     0
  0
CLASS
  1
ACMCENTERLINESTANDARDBSI
  2
AmdtCenterLineStdBSI
  3
"Amdt_StdImp|Product Description: AutoCAD Mechanical|Company: Autodesk, Inc."
 90
     1024
 91
        1
280
     0
281
     0
  0
CLASS
  1
ACMTHREADLINESTANDARDBSI
  2
AmdtThreadLineStdBSI
  3
"Amdt_StdImp|Product Description: AutoCAD Mechanical|Company: Autodesk, Inc."
 90
     1024
 91
        1
280
     0
281
     0
  0
CLASS
  1
ACMNOTESTANDARDBSI
  2
AmdtNoteStdBSI
  3
"Amdt_StdImp|Product Description: AutoCAD Mechanical|Company: Autodesk, Inc."
 90
     1024
 91
        1
280
     0
281
     0
  0
CLASS
  1
ACMTAPERSTANDARDBSI
  2
AcmTaperStdBSI
  3
"Amdt_StdImp|Product Description: AutoCAD Mechanical|Company: Autodesk, Inc."
 90
     1024
 91
        1
280
     0
281
     0
  0
CLASS
  1
ACMANOOTATIONVIEWSTANDARDBSI
  2
AmdtAnViewStdBSI
  3
"Amdt_StdImp|Product Description: AutoCAD Mechanical|Company: Autodesk, Inc."
 90
     1024
 91
        1
280
     0
281
     0
  0
CLASS
  1
AMDTEDGESTANDARDDIN13715
  2
AmdtEdgeStdDIN13715
  3
"Amdt_StdImp|Product Description: AutoCAD Mechanical|Company: Autodesk, Inc."
 90
     1024
 91
        1
280
     0
281
     0
  0
CLASS
  1
ACMSURFSTANDARDDIN2002
  2
AcmSurfTextStdDIN2002
  3
"Amdt_StdImp|Product Description: AutoCAD Mechanical|Company: Autodesk, Inc."
 90
     1024
 91
        1
280
     0
281
     0
  0
CLASS
  1
ACMFCFSTANDARDDIN
  2
AcmFCFStdDIN
  3
"Amdt_StdImp|Product Description: AutoCAD Mechanical|Company: Autodesk, Inc."
 90
     1024
 91
        1
280
     0
281
     0
  0
CLASS
  1
ACMWELDSTANDARDDIN
  2
AcmWeldingStdDIN
  3
"Amdt_StdImp|Product Description: AutoCAD Mechanical|Company: Autodesk, Inc."
 90
     1024
 91
        1
280
     0
281
     0
  0
CLASS
  1
ACMIDSTANDARDDIN
  2
AcmIdStdDIN
  3
"Amdt_StdImp|Product Description: AutoCAD Mechanical|Company: Autodesk, Inc."
 90
     1024
 91
        1
280
     0
281
     0
  0
CLASS
  1
ACMDATUMSTANDARDDIN
  2
AcmDatumStdDIN
  3
"Amdt_StdImp|Product Description: AutoCAD Mechanical|Company: Autodesk, Inc."
 90
     1024
 91
        1
280
     0
281
     0
  0
CLASS
  1
ACMBOMSTANDARDDIN
  2
AcmBOMStdDIN
  3
"Amdt_StdImp|Product Description: AutoCAD Mechanical|Company: Autodesk, Inc."
 90
     1024
 91
        1
280
     0
281
     0
  0
CLASS
  1
ACMDETAILSTANDARDDIN
  2
AmdtDetailSymStdDIN
  3
"Amdt_StdImp|Product Description: AutoCAD Mechanical|Company: Autodesk, Inc."
 90
     1024
 91
        1
280
     0
281
     0
  0
CLASS
  1
ACMSECTIONSTANDARDDIN
  2
AmdtSectionSymStdDIN
  3
"Amdt_StdImp|Product Description: AutoCAD Mechanical|Company: Autodesk, Inc."
 90
     1024
 91
        1
280
     0
281
     0
  0
CLASS
  1
ACMCENTERLINESTANDARDDIN
  2
AmdtCenterLineStdDIN
  3
"Amdt_StdImp|Product Description: AutoCAD Mechanical|Company: Autodesk, Inc."
 90
     1024
 91
        1
280
     0
281
     0
  0
CLASS
  1
ACMTHREADLINESTANDARDDIN
  2
AmdtThreadLineStdDIN
  3
"Amdt_StdImp|Product Description: AutoCAD Mechanical|Company: Autodesk, Inc."
 90
     1024
 91
        1
280
     0
281
     0
  0
CLASS
  1
ACMNOTESTANDARDDIN
  2
AmdtNoteStdDIN
  3
"Amdt_StdImp|Product Description: AutoCAD Mechanical|Company: Autodesk, Inc."
 90
     1024
 91
        1
280
     0
281
     0
  0
CLASS
  1
ACMTAPERSTANDARDDIN
  2
AcmTaperStdDIN
  3
"Amdt_StdImp|Product Description: AutoCAD Mechanical|Company: Autodesk, Inc."
 90
     1024
 91
        1
280
     0
281
     0
  0
CLASS
  1
ACMANOOTATIONVIEWSTANDARDDIN
  2
AmdtAnViewStdDIN
  3
"Amdt_StdImp|Product Description: AutoCAD Mechanical|Company: Autodesk, Inc."
 90
     1024
 91
        1
280
     0
281
     0
  0
CLASS
  1
AMDTEDGESTANDARDISO13715
  2
AmdtEdgeStdISO13715
  3
"Amdt_StdImp|Product Description: AutoCAD Mechanical|Company: Autodesk, Inc."
 90
     1024
 91
        1
280
     0
281
     0
  0
CLASS
  1
ACMSURFSTANDARDISO2002
  2
AcmSurfTextStdISO2002
  3
"Amdt_StdImp|Product Description: AutoCAD Mechanical|Company: Autodesk, Inc."
 90
     1024
 91
        1
280
     0
281
     0
  0
CLASS
  1
ACMFCFSTANDARDISO
  2
AcmFCFStdISO
  3
"Amdt_StdImp|Product Description: AutoCAD Mechanical|Company: Autodesk, Inc."
 90
     1024
 91
        1
280
     0
281
     0
  0
CLASS
  1
ACMWELDSTANDARDISO
  2
AcmWeldingStdISO
  3
"Amdt_StdImp|Product Description: AutoCAD Mechanical|Company: Autodesk, Inc."
 90
     1024
 91
        1
280
     0
281
     0
  0
CLASS
  1
ACMIDSTANDARDISO
  2
AcmIdStdISO
  3
"Amdt_StdImp|Product Description: AutoCAD Mechanical|Company: Autodesk, Inc."
 90
     1024
 91
        1
280
     0
281
     0
  0
CLASS
  1
ACMDATUMSTANDARDISO
  2
AcmDatumStdISO
  3
"Amdt_StdImp|Product Description: AutoCAD Mechanical|Company: Autodesk, Inc."
 90
     1024
 91
        1
280
     0
281
     0
  0
CLASS
  1
ACMBOMSTANDARDISO
  2
AcmBOMStdISO
  3
"Amdt_StdImp|Product Description: AutoCAD Mechanical|Company: Autodesk, Inc."
 90
     1024
 91
        1
280
     0
281
     0
  0
CLASS
  1
ACMDETAILSTANDARDISO
  2
AmdtDetailSymStdISO
  3
"Amdt_StdImp|Product Description: AutoCAD Mechanical|Company: Autodesk, Inc."
 90
     1024
 91
        1
280
     0
281
     0
  0
CLASS
  1
ACMSECTIONSTANDARDISO2001
  2
AmdtSectionSymStdISO2001
  3
"Amdt_StdImp|Product Description: AutoCAD Mechanical|Company: Autodesk, Inc."
 90
     1024
 91
        1
280
     0
281
     0
  0
CLASS
  1
ACMCENTERLINESTANDARDISO
  2
AmdtCenterLineStdISO
  3
"Amdt_StdImp|Product Description: AutoCAD Mechanical|Company: Autodesk, Inc."
 90
     1024
 91
        1
280
     0
281
     0
  0
CLASS
  1
ACMTHREADLINESTANDARDISO
  2
AmdtThreadLineStdISO
  3
"Amdt_StdImp|Product Description: AutoCAD Mechanical|Company: Autodesk, Inc."
 90
     1024
 91
        1
280
     0
281
     0
  0
CLASS
  1
ACMNOTESTANDARDISO
  2
AmdtNoteStdISO
  3
"Amdt_StdImp|Product Description: AutoCAD Mechanical|Company: Autodesk, Inc."
 90
     1024
 91
        1
280
     0
281
     0
  0
CLASS
  1
ACMTAPERSTANDARDISO
  2
AcmTaperStdISO
  3
"Amdt_StdImp|Product Description: AutoCAD Mechanical|Company: Autodesk, Inc."
 90
     1024
 91
        1
280
     0
281
     0
  0
CLASS
  1
ACMANOOTATIONVIEWSTANDARDISO
  2
AmdtAnViewStdISO
  3
"Amdt_StdImp|Product Description: AutoCAD Mechanical|Company: Autodesk, Inc."
 90
     1024
 91
        1
280
     0
281
     0
  0
CLASS
  1
ACAMGLAYSTD
  2
AcAmgLayStd
  3
"AmgLay|Product Description: AutoCAD Mechanical|Company: Autodesk, Inc."
 90
     1024
 91
        5
280
     0
281
     0
  0
CLASS
  1
ACAMGDIMSTD
  2
AcAmgDimStd
  3
"AmgDim|Product Description: AutoCAD Mechanical|Company: Autodesk, Inc."
 90
     1024
 91
        5
280
     0
281
     0
  0
CLASS
  1
ACAMGHOLECHARTSTDANSI
  2
AcAmgHoleChartStdANSI
  3
AmgDim|Product Description: AutoCAD Mechanical|Company: Autodesk, Inc.
 90
     1024
 91
        1
280
     0
281
     0
  0
CLASS
  1
ACAMGHOLECHARTSTDBSI
  2
AcAmgHoleChartStdBSI
  3
AmgDim|Product Description: AutoCAD Mechanical|Company: Autodesk, Inc.
 90
     1024
 91
        1
280
     0
281
     0
  0
CLASS
  1
ACAMGHOLECHARTSTDDIN
  2
AcAmgHoleChartStdDIN
  3
AmgDim|Product Description: AutoCAD Mechanical|Company: Autodesk, Inc.
 90
     1024
 91
        1
280
     0
281
     0
  0
CLASS
  1
ACAMGHOLECHARTSTDISO
  2
AcAmgHoleChartStdISO
  3
AmgDim|Product Description: AutoCAD Mechanical|Company: Autodesk, Inc.
 90
     1024
 91
        1
280
     0
281
     0
  0
CLASS
  1
ACAMGHOLECHARTSTDJIS
  2
AcAmgHoleChartStdJIS
  3
AmgDim|Product Description: AutoCAD Mechanical|Company: Autodesk, Inc.
 90
     1024
 91
        1
280
     0
281
     0
  0
CLASS
  1
CATALOGSTATE
  2
AcAmCatalogState
  3
DesignerAssemblies
 90
     1024
 91
        1
280
     0
281
     0
  0
CLASS
  1
ACAMGRCOMPDEFSET
  2
AcAmGrCompDefSet
  3
DesignerAssemblies
 90
     1024
 91
        1
280
     0
281
     0
  0
CLASS
  1
AMDTBROWSERDBTAB
  2
AmdtBrowserDbTab
  3
McadcomServices
 90
     1024
 91
        1
280
     0
281
     0
  0
CLASS
  1
CBROWSERAPPOBJECT
  2
CBrowserAppObject
  3
McadcomServices
 90
     1024
 91
        3
280
     0
281
     0
  0
CLASS
  1
DM_PLACEHOLDER
  2
AcDmSelsetPlaceholder
  3
AcMechDwgViewMgmt
 90
     1024
 91
        1
280
     0
281
     0
  0
CLASS
  1
CAMSSTRUCTBTNSTATE
  2
StructBtnState
  3
DesignerAssemblies
 90
     1024
 91
        1
280
     0
281
     0
  0
CLASS
  1
CELLSTYLEMAP
  2
AcDbCellStyleMap
  3
ObjectDBX Classes
 90
     1152
 91
        5
280
     0
281
     0
  0
CLASS
  1
SORTENTSTABLE
  2
AcDbSortentsTable
  3
ObjectDBX Classes
 90
        0
 91
        2
280
     0
281
     0
  0
CLASS
  1
ACAMGFILTERDAT
  2
AcAmgFilterDat
  3
"AcadM|Product Description: AutoCAD Mechanical|Company: Autodesk, Inc."
 90
     1024
 91
        6
280
     0
281
     0
  0
ENDSEC
  0
SECTION
  2
TABLES
  0
TABLE
  2
VPORT
  5
12
330
0
100
AcDbSymbolTable
 70
     1
  0
VPORT
  5
2D2
330
12
100
AcDbSymbolTableRecord
100
AcDbViewportTableRecord
  2
*ACTIVE
 70
     0
 10
0.0
 20
0.0
 11
1.0
 21
1.0
 12
571.5842882663032
 22
222.4670007519859
 13
0.0
 23
0.0
 14
10.0
 24
10.0
 15
10.0
 25
10.0
 16
0.0
 26
0.0
 36
1.0
 17
0.0
 27
0.0
 37
0.0
 40
566.3928014171244
 41
1.529529529529529
 42
50.0
 43
0.0
 44
0.0
 50
0.0
 51
0.0
 71
     0
 72
   100
 73
     1
 74
     0
 75
     0
 76
     0
 77
     0
 78
     0
281
     0
 65
     1
110
0.0
120
0.0
130
0.0
111
1.0
121
0.0
131
0.0
112
0.0
122
1.0
132
0.0
 79
     0
146
0.0
  0
ENDTAB
  0
TABLE
  2
LTYPE
  5
D
330
0
100
AcDbSymbolTable
 70
    30
  0
LTYPE
  5
E
330
D
100
AcDbSymbolTableRecord
100
AcDbLinetypeTableRecord
  2
BYBLOCK
 70
     0
  3

 72
    65
 73
     0
 40
0.0
  0
LTYPE
  5
F
330
D
100
AcDbSymbolTableRecord
100
AcDbLinetypeTableRecord
  2
BYLAYER
 70
     0
  3

 72
    65
 73
     0
 40
0.0
  0
LTYPE
  5
5
330
D
100
AcDbSymbolTableRecord
100
AcDbLinetypeTableRecord
  2
CONTINUOUS
 70
     0
  3
Solid line
 72
    65
 73
     0
 40
0.0
  0
LTYPE
  5
4B
330
D
100
AcDbSymbolTableRecord
100
AcDbLinetypeTableRecord
  2
MITTE
 70
     0
  3
____ _ ____ _ ____ _ ____ _ ____ _ ____ _ ____ 
 72
    65
 73
     4
 40
2.0
 49
1.25
 74
     0
 49
-0.25
 74
     0
 49
0.25
 74
     0
 49
-0.25
 74
     0
  0
LTYPE
  5
8A
330
D
100
AcDbSymbolTableRecord
100
AcDbLinetypeTableRecord
  2
STRICHLINIE
 70
     0
  3
Strichlinie __ __ __ __ __ __ __ __ __ __ __ __
 72
    65
 73
     2
 40
0.75
 49
0.5
 74
     0
 49
-0.25
 74
     0
  0
LTYPE
  5
293
330
D
100
AcDbSymbolTableRecord
100
AcDbLinetypeTableRecord
  2
ACJISTGB
 70
     0
  3
__ . . __ . .
 72
    65
 73
     6
 40
9.0
 49
4.0
 74
     0
 49
-1.0
 74
     0
 49
1.0
 74
     0
 49
-1.0
 74
     0
 49
1.0
 74
     0
 49
-1.0
 74
     0
  0
LTYPE
  5
294
330
D
100
AcDbSymbolTableRecord
100
AcDbLinetypeTableRecord
  2
ACJISTGL
 70
     0
  3
_ _ _ _ _
 72
    65
 73
     2
 40
3.0
 49
2.0
 74
     0
 49
-1.0
 74
     0
  0
LTYPE
  5
297
330
D
100
AcDbSymbolTableRecord
100
AcDbLinetypeTableRecord
  2
ACANSTGB
 70
     0
  3
__ . . __ . .
 72
    65
 73
     6
 40
0.35433070866
 49
0.15748031496
 74
     0
 49
-0.03937007874
 74
     0
 49
0.03937007874
 74
     0
 49
-0.03937007874
 74
     0
 49
0.03937007874
 74
     0
 49
-0.03937007874
 74
     0
  0
LTYPE
  5
298
330
D
100
AcDbSymbolTableRecord
100
AcDbLinetypeTableRecord
  2
ACANSTGL
 70
     0
  3
_ _ _ _ _
 72
    65
 73
     2
 40
0.11811023622
 49
0.07874015748
 74
     0
 49
-0.03937007874
 74
     0
  0
LTYPE
  5
29B
330
D
100
AcDbSymbolTableRecord
100
AcDbLinetypeTableRecord
  2
ACBSIWELD
 70
     0
  3
_ _ _ _ _
 72
    65
 73
     2
 40
2.0
 49
2.0
 74
     0
 49
-1.0
 74
     0
  0
LTYPE
  5
29C
330
D
100
AcDbSymbolTableRecord
100
AcDbLinetypeTableRecord
  2
ACBSITGB
 70
     0
  3
__ . . __ . .
 72
    65
 73
     6
 40
9.0
 49
4.0
 74
     0
 49
-1.0
 74
     0
 49
1.0
 74
     0
 49
-1.0
 74
     0
 49
1.0
 74
     0
 49
-1.0
 74
     0
  0
LTYPE
  5
29D
330
D
100
AcDbSymbolTableRecord
100
AcDbLinetypeTableRecord
  2
ACBSITGL
 70
     0
  3
_ _ _ _ _
 72
    65
 73
     2
 40
3.0
 49
2.0
 74
     0
 49
-1.0
 74
     0
  0
LTYPE
  5
2A0
330
D
100
AcDbSymbolTableRecord
100
AcDbLinetypeTableRecord
  2
ACDINWELD
 70
     0
  3
_ _ _ _ _
 72
    65
 73
     2
 40
2.0
 49
2.0
 74
     0
 49
-1.0
 74
     0
  0
LTYPE
  5
2A1
330
D
100
AcDbSymbolTableRecord
100
AcDbLinetypeTableRecord
  2
ACDINTGB
 70
     0
  3
__ . . __ . .
 72
    65
 73
     6
 40
9.0
 49
4.0
 74
     0
 49
-1.0
 74
     0
 49
1.0
 74
     0
 49
-1.0
 74
     0
 49
1.0
 74
     0
 49
-1.0
 74
     0
  0
LTYPE
  5
2A2
330
D
100
AcDbSymbolTableRecord
100
AcDbLinetypeTableRecord
  2
ACDINTGL
 70
     0
  3
_ _ _ _ _
 72
    65
 73
     2
 40
3.0
 49
2.0
 74
     0
 49
-1.0
 74
     0
  0
LTYPE
  5
2A5
330
D
100
AcDbSymbolTableRecord
100
AcDbLinetypeTableRecord
  2
ACISOWELD
 70
     0
  3
_ _ _ _ _
 72
    65
 73
     2
 40
2.0
 49
2.0
 74
     0
 49
-1.0
 74
     0
  0
LTYPE
  5
2A6
330
D
100
AcDbSymbolTableRecord
100
AcDbLinetypeTableRecord
  2
ACISOTGB
 70
     0
  3
__ . . __ . .
 72
    65
 73
     6
 40
9.0
 49
4.0
 74
     0
 49
-1.0
 74
     0
 49
1.0
 74
     0
 49
-1.0
 74
     0
 49
1.0
 74
     0
 49
-1.0
 74
     0
  0
LTYPE
  5
2A7
330
D
100
AcDbSymbolTableRecord
100
AcDbLinetypeTableRecord
  2
ACISOTGL
 70
     0
  3
_ _ _ _ _
 72
    65
 73
     2
 40
3.0
 49
2.0
 74
     0
 49
-1.0
 74
     0
  0
LTYPE
  5
35E
330
D
100
AcDbSymbolTableRecord
100
AcDbLinetypeTableRecord
  2
HIDDEN
 70
     0
  3
Verdeckt
 72
    65
 73
     2
 40
0.375
 49
0.25
 74
     0
 49
-0.125
 74
     0
  0
LTYPE
  5
35F
330
D
100
AcDbSymbolTableRecord
100
AcDbLinetypeTableRecord
  2
PHANTOM2
 70
     0
  3
Phantom (.5x) ___ _ _ ___ _ _ ___ _ _ ___ _ _
 72
    65
 73
     6
 40
1.25
 49
0.625
 74
     0
 49
-0.125
 74
     0
 49
0.125
 74
     0
 49
-0.125
 74
     0
 49
0.125
 74
     0
 49
-0.125
 74
     0
  0
LTYPE
  5
360
330
D
100
AcDbSymbolTableRecord
100
AcDbLinetypeTableRecord
  2
CENTER
 70
     0
  3
Mitte ____ _ ____ _ ____ _ ____ _ ____ _ ____
 72
    65
 73
     4
 40
2.0
 49
1.25
 74
     0
 49
-0.25
 74
     0
 49
0.25
 74
     0
 49
-0.25
 74
     0
  0
LTYPE
  5
38E
330
D
100
AcDbSymbolTableRecord
100
AcDbLinetypeTableRecord
  2
Amconstr
 70
     0
  3
_______________________
 72
    65
 73
     2
 40
9999.0
 49
9999.0
 74
     0
 49
0.0
 74
     0
  0
LTYPE
  5
394
330
D
100
AcDbSymbolTableRecord
100
AcDbLinetypeTableRecord
  2
CENTER2
 70
     0
  3
Center (.5x) ___ _ ___ _ ___ _ ___ _ ___ _ ___
 72
    65
 73
     4
 40
1.125
 49
0.75
 74
     0
 49
-0.125
 74
     0
 49
0.125
 74
     0
 49
-0.125
 74
     0
  0
LTYPE
  5
395
330
D
100
AcDbSymbolTableRecord
100
AcDbLinetypeTableRecord
  2
HIDDEN2
 70
     0
  3
Hidden (.5x) _ _ _ _ _ _ _ _ _ _ _ _ _ _ _ _ _
 72
    65
 73
     2
 40
0.1875
 49
0.125
 74
     0
 49
-0.0625
 74
     0
  0
LTYPE
  5
396
330
D
100
AcDbSymbolTableRecord
100
AcDbLinetypeTableRecord
  2
Amzigzag2
 70
     0
  3
/\/-/\/-/\/-/\/-/\/-/\/
 72
    65
 73
     2
 40
0.4401
 49
0.0001
 74
     4
 75
   136
340
392
 46
0.0016
 50
0.0
 44
0.0
 45
0.0
 49
-0.4400000000000001
 74
     0
  0
ENDTAB
  0
TABLE
  2
LAYER
  5
A
330
0
100
AcDbSymbolTable
 70
     6
  0
LAYER
  5
4
102
{ACAD_XDICTIONARY
360
43D
102
}
330
A
100
AcDbSymbolTableRecord
100
AcDbLayerTableRecord
  2
0
 70
     0
 62
     7
  6
CONTINUOUS
370
    -3
390
2D5
  0
LAYER
  5
21
102
{ACAD_XDICTIONARY
360
43F
102
}
330
A
100
AcDbSymbolTableRecord
100
AcDbLayerTableRecord
  2
BEM
 70
     1
 62
     1
  6
CONTINUOUS
370
    -3
390
2D5
  0
LAYER
  5
4A
102
{ACAD_XDICTIONARY
360
441
102
}
330
A
100
AcDbSymbolTableRecord
100
AcDbLayerTableRecord
  2
MITTE
 70
     0
 62
     6
  6
MITTE
370
    -3
390
2D5
  0
LAYER
  5
87
102
{ACAD_XDICTIONARY
360
443
102
}
330
A
100
AcDbSymbolTableRecord
100
AcDbLayerTableRecord
  2
LINIE
 70
     0
 62
     6
  6
CONTINUOUS
370
    -3
390
2D5
  0
LAYER
  5
2A
330
A
100
AcDbSymbolTableRecord
100
AcDbLayerTableRecord
  2
DEFPOINTS
 70
     0
 62
     7
  6
CONTINUOUS
290
     0
370
    -3
390
2D5
  0
ENDTAB
  0
TABLE
  2
STYLE
  5
B
330
0
100
AcDbSymbolTable
 70
    15
  0
STYLE
  5
C
330
B
100
AcDbSymbolTableRecord
100
AcDbTextStyleTableRecord
  2
STANDARD
 70
     0
 40
0.0
 41
1.0
 50
0.0
 71
     0
 42
10.0
  3
romans.shx
  4

  0
STYLE
  5
291
330
B
100
AcDbSymbolTableRecord
100
AcDbTextStyleTableRecord
  2
ACJISTS
 70
     0
 40
1.0
 41
1.0
 50
0.0
 71
     0
 42
10.0
  3
isocp.shx
  4
bigfont.shx
  0
STYLE
  5
292
330
B
100
AcDbSymbolTableRecord
100
AcDbTextStyleTableRecord
  2
ACJISGDT
 70
     0
 40
0.0
 41
1.0
 50
0.0
 71
     0
 42
10.0
  3
amgdt.shx
  4

  0
STYLE
  5
295
330
B
100
AcDbSymbolTableRecord
100
AcDbTextStyleTableRecord
  2
ACANSTSB
 70
     0
 40
1.0
 41
1.0
 50
0.0
 71
     0
 42
10.0
  3
romans.shx
  4

  0
STYLE
  5
296
330
B
100
AcDbSymbolTableRecord
100
AcDbTextStyleTableRecord
  2
ACANSGDT
 70
     0
 40
0.0
 41
1.0
 50
0.0
 71
     0
 42
10.0
  3
amgdt.shx
  4

  0
STYLE
  5
299
330
B
100
AcDbSymbolTableRecord
100
AcDbTextStyleTableRecord
  2
ACBSITS
 70
     0
 40
1.0
 41
1.0
 50
0.0
 71
     0
 42
10.0
  3
isocp.shx
  4

  0
STYLE
  5
29A
330
B
100
AcDbSymbolTableRecord
100
AcDbTextStyleTableRecord
  2
ACBSIGDT
 70
     0
 40
0.0
 41
1.0
 50
0.0
 71
     0
 42
10.0
  3
amgdt.shx
  4

  0
STYLE
  5
29E
330
B
100
AcDbSymbolTableRecord
100
AcDbTextStyleTableRecord
  2
ACDINTS
 70
     0
 40
1.0
 41
1.0
 50
0.0
 71
     0
 42
10.0
  3
isocp.shx
  4

  0
STYLE
  5
29F
330
B
100
AcDbSymbolTableRecord
100
AcDbTextStyleTableRecord
  2
ACDINGDT
 70
     0
 40
0.0
 41
1.0
 50
0.0
 71
     0
 42
10.0
  3
amgdt.shx
  4

  0
STYLE
  5
2A3
330
B
100
AcDbSymbolTableRecord
100
AcDbTextStyleTableRecord
  2
ACISOTS
 70
     0
 40
1.0
 41
1.0
 50
0.0
 71
     0
 42
10.0
  3
isocp.shx
  4

  0
STYLE
  5
2A4
330
B
100
AcDbSymbolTableRecord
100
AcDbTextStyleTableRecord
  2
ACISOGDT
 70
     0
 40
0.0
 41
1.0
 50
0.0
 71
     0
 42
10.0
  3
amgdt.shx
  4

  0
STYLE
  5
392
330
B
100
AcDbSymbolTableRecord
100
AcDbTextStyleTableRecord
  2

 70
     1
 40
0.0
 41
1.0
 50
0.0
 71
     0
 42
10.0
  3
genltshp.shx
  4

  0
ENDTAB
  0
TABLE
  2
VIEW
  5
10
330
0
100
AcDbSymbolTable
 70
     0
  0
ENDTAB
  0
TABLE
  2
UCS
  5
11
330
0
100
AcDbSymbolTable
 70
     0
  0
ENDTAB
  0
TABLE
  2
APPID
  5
14
330
0
100
AcDbSymbolTable
 70
    13
  0
APPID
  5
15
330
14
100
AcDbSymbolTableRecord
100
AcDbRegAppTableRecord
  2
ACAD
 70
     0
  0
APPID
  5
251
330
14
100
AcDbSymbolTableRecord
100
AcDbRegAppTableRecord
  2
MCAD_NO_VIS
 70
     0
  0
APPID
  5
327
330
14
100
AcDbSymbolTableRecord
100
AcDbRegAppTableRecord
  2
ACAD_MLEADERVER
 70
     0
  0
APPID
  5
337
330
14
100
AcDbSymbolTableRecord
100
AcDbRegAppTableRecord
  2
ACAD_TEMP_GRAPHIC
 70
     0
  0
APPID
  5
362
330
14
100
AcDbSymbolTableRecord
100
AcDbRegAppTableRecord
  2
AD_DRAW
 70
     0
  0
APPID
  5
365
330
14
100
AcDbSymbolTableRecord
100
AcDbRegAppTableRecord
  2
ACATTRIBSERVICES
 70
     0
  0
APPID
  5
384
330
14
100
AcDbSymbolTableRecord
100
AcDbRegAppTableRecord
  2
DESIGNERASSEMBLIES
 70
     0
  0
APPID
  5
437
330
14
100
AcDbSymbolTableRecord
100
AcDbRegAppTableRecord
  2
ACADM_DIM_EDIT
 70
     0
  0
APPID
  5
438
330
14
100
AcDbSymbolTableRecord
100
AcDbRegAppTableRecord
  2
AMDT_DM_ADJ
 70
     0
  0
APPID
  5
454
330
14
100
AcDbSymbolTableRecord
100
AcDbRegAppTableRecord
  2
ACAD_PSEXT
 70
     0
  0
APPID
  5
458
330
14
100
AcDbSymbolTableRecord
100
AcDbRegAppTableRecord
  2
DCO15
 70
     0
  0
APPID
  5
7E9
330
14
100
AcDbSymbolTableRecord
100
AcDbRegAppTableRecord
  2
ACAD_DSTYLE_DIMARC_LENGTH_SYMBOL
 70
     0
  0
APPID
  5
7EA
330
14
100
AcDbSymbolTableRecord
100
AcDbRegAppTableRecord
  2
ACAD_DSTYLE_DIMJOGGED_JOGANGLE_SYMBOL
 70
     0
  0
ENDTAB
  0
TABLE
  2
DIMSTYLE
  5
16
330
0
100
AcDbSymbolTable
 70
    39
100
AcDbDimStyleTable
 71
     1
340
1C
  0
DIMSTYLE
105
1C
102
{ACAD_REACTORS
330
2F
330
130
330
1B3
330
20
330
FB
330
EC
330
3C
330
194
330
1A1
330
187
330
6B
330
DF
330
78
330
16C
330
20A
330
17B
330
216
330
A0
330
5E
330
13F
102
}
330
16
100
AcDbSymbolTableRecord
100
AcDbDimStyleTableRecord
  2
ISO-25
 70
     0
 40
0.0
 41
7.0
 42
0.0
 43
7.0
 44
1.25
 73
     0
 74
     0
 77
     1
 78
     8
140
10.0
141
0.0
147
4.0
172
     1
176
   256
177
   256
178
   256
284
     8
288
     1
289
     0
340
C
  0
DIMSTYLE
105
27C
330
16
100
AcDbSymbolTableRecord
100
AcDbDimStyleTableRecord
  2
STANDARD
 70
     0
  4
"
 41
7.0
 42
0.0
 43
7.0
 44
1.25
 47
0.1
 48
0.1
 73
     0
 74
     0
 77
     1
 78
     8
140
10.0
141
0.0
143
0.0393701
144
0.5
147
4.0
172
     1
176
   256
177
   256
178
   256
271
     2
272
     3
274
     4
283
     0
284
     8
288
     1
340
C
  0
DIMSTYLE
105
3FF
330
16
100
AcDbSymbolTableRecord
100
AcDbDimStyleTableRecord
  2
AM_ANSI
 70
     0
  4
mm
 41
0.1
 42
0.05
 43
0.5
 44
0.1
 47
0.1
 48
0.1
 78
     7
 79
     2
140
0.12
141
0.0
146
0.71
147
0.06
176
   256
177
   256
178
     2
274
     4
284
     7
340
C
371
    -1
372
    -1
1001
ACAD_DSTYLE_DIMARC_LENGTH_SYMBOL
1070
   379
1070
     1
  0
DIMSTYLE
105
400
330
16
100
AcDbSymbolTableRecord
100
AcDbDimStyleTableRecord
  2
AM_ANSI$3
 70
     0
  4
mm
 41
0.1
 42
0.05
 43
0.5
 44
0.1
 47
0.1
 48
0.1
 78
     7
 79
     2
140
0.12
141
0.0
146
0.71
147
0.06
176
   256
177
   256
178
     2
274
     4
284
     7
288
     1
289
     0
340
C
371
    -1
372
    -1
1001
ACAD_DSTYLE_DIMARC_LENGTH_SYMBOL
1070
   379
1070
     1
  0
DIMSTYLE
105
401
330
16
100
AcDbSymbolTableRecord
100
AcDbDimStyleTableRecord
  2
AM_ANSI$4
 70
     0
  4
mm
 41
0.1
 42
0.05
 43
0.5
 44
0.1
 47
0.1
 48
0.1
 78
     7
 79
     2
140
0.12
141
0.0
146
0.71
147
0.06
176
   256
177
   256
178
     2
274
     4
284
     7
288
     1
289
     0
340
C
371
    -1
372
    -1
1001
ACAD_DSTYLE_DIMARC_LENGTH_SYMBOL
1070
   379
1070
     1
  0
DIMSTYLE
105
402
330
16
100
AcDbSymbolTableRecord
100
AcDbDimStyleTableRecord
  2
AM_ANSI$7
 70
     0
  4
mm
 41
0.1
 42
0.05
 43
0.5
 44
0.1
 47
0.1
 48
0.1
 78
     7
 79
     2
140
0.24
141
0.0
146
0.71
147
0.06
176
   256
177
   256
178
     2
274
     4
284
     7
340
C
371
    -1
372
    -1
1001
ACAD_DSTYLE_DIMARC_LENGTH_SYMBOL
1070
   379
1070
     1
  0
DIMSTYLE
105
403
330
16
100
AcDbSymbolTableRecord
100
AcDbDimStyleTableRecord
  2
AM_ANSI$SF
 70
     0
  4
mm
 41
0.1
 42
0.05
 43
0.5
 44
0.1
 47
0.1
 48
0.1
 75
     1
 76
     1
 78
     7
 79
     2
140
0.12
141
0.0
146
0.71
147
0.06
176
   256
177
   256
178
     2
274
     4
284
     7
340
C
371
    -1
372
    -1
1001
ACAD_DSTYLE_DIMARC_LENGTH_SYMBOL
1070
   379
1070
     1
  0
DIMSTYLE
105
408
330
16
100
AcDbSymbolTableRecord
100
AcDbDimStyleTableRecord
  2
AM_ANSI$SH
 70
     0
  4
mm
 41
0.1
 42
0.05
 43
0.5
 44
0.1
 47
0.1
 48
0.1
 75
     1
 76
     1
 78
     7
 79
     2
140
0.12
141
0.0
146
0.71
147
0.06
173
     1
176
   256
177
   256
178
     2
274
     4
284
     7
340
C
343
404
371
    -1
372
    -1
1001
ACAD_DSTYLE_DIMARC_LENGTH_SYMBOL
1070
   379
1070
     1
  0
DIMSTYLE
105
40B
330
16
100
AcDbSymbolTableRecord
100
AcDbDimStyleTableRecord
  2
AM_BSI
 70
     0
  4
mm
 41
0.1574803149606299
 42
0.05
 43
0.5
 44
0.1
 47
0.1
 48
0.1
 73
     0
 74
     0
 77
     1
 78
     7
 79
     2
140
0.12
141
0.0
146
0.71
147
0.06
172
     1
176
   256
177
   256
178
     2
274
     4
283
     0
284
     7
340
C
371
    -1
372
    -1
1001
ACAD_DSTYLE_DIMARC_LENGTH_SYMBOL
1070
   379
1070
     1
  0
DIMSTYLE
105
40C
330
16
100
AcDbSymbolTableRecord
100
AcDbDimStyleTableRecord
  2
AM_BSI$3
 70
     0
  4
mm
 41
0.1574803149606299
 42
0.05
 43
0.5
 44
0.1
 47
0.1
 48
0.1
 73
     0
 77
     1
 78
     7
 79
     2
140
0.12
141
0.0
146
0.71
147
0.06
176
   256
177
   256
178
     2
274
     4
283
     0
284
     7
288
     1
289
     0
340
C
371
    -1
372
    -1
1001
ACAD_DSTYLE_DIMARC_LENGTH_SYMBOL
1070
   379
1070
     1
  0
DIMSTYLE
105
40D
330
16
100
AcDbSymbolTableRecord
100
AcDbDimStyleTableRecord
  2
AM_BSI$4
 70
     0
  4
mm
 41
0.1574803149606299
 42
0.05
 43
0.5
 44
0.1
 47
0.1
 48
0.1
 73
     0
 77
     1
 78
     7
 79
     2
140
0.12
141
0.0
146
0.71
147
0.06
176
   256
177
   256
178
     2
274
     4
283
     0
284
     7
288
     1
289
     0
340
C
371
    -1
372
    -1
1001
ACAD_DSTYLE_DIMARC_LENGTH_SYMBOL
1070
   379
1070
     1
  0
DIMSTYLE
105
40E
330
16
100
AcDbSymbolTableRecord
100
AcDbDimStyleTableRecord
  2
AM_BSI$6
 70
     0
  4
mm
 41
0.1574803149606299
 42
0.05
 43
0.5
 44
0.1
 47
0.1
 48
0.1
 73
     0
 74
     0
 78
     7
 79
     2
140
0.12
141
0.0
146
0.71
147
0.06
172
     1
176
   256
177
   256
178
     2
274
     4
283
     0
284
     7
340
C
371
    -1
372
    -1
1001
ACAD_DSTYLE_DIMARC_LENGTH_SYMBOL
1070
   379
1070
     1
  0
DIMSTYLE
105
40F
330
16
100
AcDbSymbolTableRecord
100
AcDbDimStyleTableRecord
  2
AM_BSI$7
 70
     0
  4
mm
 41
0.1
 42
0.05
 43
0.5
 44
0.1
 47
0.1
 48
0.1
 73
     0
 74
     0
 77
     1
 78
     7
 79
     2
140
0.24
141
0.0
146
0.71
147
0.06
172
     1
176
   256
177
   256
178
     2
274
     4
283
     0
284
     7
340
C
371
    -1
372
    -1
1001
ACAD_DSTYLE_DIMARC_LENGTH_SYMBOL
1070
   379
1070
     1
  0
DIMSTYLE
105
410
330
16
100
AcDbSymbolTableRecord
100
AcDbDimStyleTableRecord
  2
AM_BSI$SF
 70
     0
  4
mm
 41
0.1574803149606299
 42
0.05
 43
0.5
 44
0.1
 47
0.1
 48
0.1
 73
     0
 74
     0
 75
     1
 76
     1
 77
     1
 78
     7
 79
     2
140
0.12
141
0.0
146
0.71
147
0.06
172
     1
176
   256
177
   256
178
     2
274
     4
283
     0
284
     7
340
C
371
    -1
372
    -1
1001
ACAD_DSTYLE_DIMARC_LENGTH_SYMBOL
1070
   379
1070
     1
  0
DIMSTYLE
105
411
330
16
100
AcDbSymbolTableRecord
100
AcDbDimStyleTableRecord
  2
AM_BSI$SH
 70
     0
  4
mm
 41
0.1574803149606299
 42
0.05
 43
0.5
 44
0.1
 47
0.1
 48
0.1
 73
     0
 74
     0
 75
     1
 76
     1
 77
     1
 78
     7
 79
     2
140
0.12
141
0.0
144
2.0
146
0.71
147
0.06
172
     1
173
     1
176
   256
177
   256
178
     2
274
     4
283
     0
284
     7
340
C
343
404
371
    -1
372
    -1
1001
ACAD_DSTYLE_DIMARC_LENGTH_SYMBOL
1070
   379
1070
     1
  0
DIMSTYLE
105
414
330
16
100
AcDbSymbolTableRecord
100
AcDbDimStyleTableRecord
  2
AM_DIN
 70
     0
  4
mm
 41
0.1
 42
0.05
 43
0.5
 44
0.1
 47
0.1
 48
0.1
 73
     0
 74
     0
 77
     1
 78
     7
 79
     2
140
0.12
141
0.0
146
0.71
147
0.06
172
     1
176
   256
177
   256
178
     2
274
     4
283
     0
284
     7
340
C
371
    -1
372
    -1
1001
ACAD_DSTYLE_DIMJOGGED_JOGANGLE_SYMBOL
1070
   384
1040
1.570796326794896
  0
DIMSTYLE
105
415
330
16
100
AcDbSymbolTableRecord
100
AcDbDimStyleTableRecord
  2
AM_DIN$3
 70
     0
  4
mm
 41
0.1
 42
0.05
 43
0.5
 44
0.1
 47
0.1
 48
0.1
 73
     0
 77
     1
 78
     7
 79
     2
140
0.12
141
0.0
146
0.71
147
0.06
176
   256
177
   256
178
     2
274
     4
283
     0
284
     7
288
     1
289
     0
340
C
371
    -1
372
    -1
1001
ACAD_DSTYLE_DIMJOGGED_JOGANGLE_SYMBOL
1070
   384
1040
1.570796326794896
  0
DIMSTYLE
105
416
330
16
100
AcDbSymbolTableRecord
100
AcDbDimStyleTableRecord
  2
AM_DIN$4
 70
     0
  4
mm
 41
0.1
 42
0.05
 43
0.5
 44
0.1
 47
0.1
 48
0.1
 73
     0
 77
     1
 78
     7
 79
     2
140
0.12
141
0.0
146
0.71
147
0.06
176
   256
177
   256
178
     2
274
     4
283
     0
284
     7
288
     1
289
     0
340
C
371
    -1
372
    -1
1001
ACAD_DSTYLE_DIMJOGGED_JOGANGLE_SYMBOL
1070
   384
1040
1.570796326794896
  0
DIMSTYLE
105
417
330
16
100
AcDbSymbolTableRecord
100
AcDbDimStyleTableRecord
  2
AM_DIN$6
 70
     0
  4
mm
 41
0.1
 42
0.05
 43
0.5
 44
0.1
 47
0.1
 48
0.1
 73
     0
 74
     0
 78
     7
 79
     2
140
0.12
141
0.0
146
0.71
147
0.06
172
     1
176
   256
177
   256
178
     2
274
     4
283
     0
284
     7
340
C
371
    -1
372
    -1
1001
ACAD_DSTYLE_DIMJOGGED_JOGANGLE_SYMBOL
1070
   384
1040
1.570796326794896
  0
DIMSTYLE
105
418
330
16
100
AcDbSymbolTableRecord
100
AcDbDimStyleTableRecord
  2
AM_DIN$7
 70
     0
  4
mm
 41
0.1
 42
0.05
 43
0.5
 44
0.1
 47
0.1
 48
0.1
 73
     0
 74
     0
 77
     1
 78
     7
 79
     2
140
0.24
141
0.0
146
0.71
147
0.06
172
     1
176
   256
177
   256
178
     2
274
     4
283
     0
284
     7
340
C
371
    -1
372
    -1
1001
ACAD_DSTYLE_DIMJOGGED_JOGANGLE_SYMBOL
1070
   384
1040
1.570796326794896
  0
DIMSTYLE
105
419
330
16
100
AcDbSymbolTableRecord
100
AcDbDimStyleTableRecord
  2
AM_DIN$SF
 70
     0
  4
mm
 41
0.1
 42
0.05
 43
0.5
 44
0.1
 47
0.1
 48
0.1
 73
     0
 74
     0
 75
     1
 76
     1
 77
     1
 78
     7
 79
     2
140
0.12
141
0.0
146
0.71
147
0.06
172
     1
176
   256
177
   256
178
     2
274
     4
283
     0
284
     7
340
C
371
    -1
372
    -1
1001
ACAD_DSTYLE_DIMJOGGED_JOGANGLE_SYMBOL
1070
   384
1040
1.570796326794896
  0
DIMSTYLE
105
41A
330
16
100
AcDbSymbolTableRecord
100
AcDbDimStyleTableRecord
  2
AM_DIN$SH
 70
     0
  4
mm
 41
0.1
 42
0.05
 43
0.5
 44
0.1
 47
0.1
 48
0.1
 73
     0
 74
     0
 75
     1
 76
     1
 77
     1
 78
     7
 79
     2
140
0.12
141
0.0
144
2.0
146
0.71
147
0.06
172
     1
173
     1
176
   256
177
   256
178
     2
274
     4
283
     0
284
     7
340
C
343
404
371
    -1
372
    -1
1001
ACAD_DSTYLE_DIMJOGGED_JOGANGLE_SYMBOL
1070
   384
1040
1.570796326794896
  0
DIMSTYLE
105
41D
330
16
100
AcDbSymbolTableRecord
100
AcDbDimStyleTableRecord
  2
AM_ISO
 70
     0
  4
mm
 41
0.1
 42
0.05
 43
0.5
 44
0.1
 47
0.1
 48
0.1
 73
     0
 74
     0
 77
     1
 78
     7
 79
     2
140
0.12
141
0.0
146
0.71
147
0.06
172
     1
176
   256
177
   256
178
     2
274
     4
283
     0
284
     7
340
C
371
    -1
372
    -1
1001
ACAD_DSTYLE_DIMARC_LENGTH_SYMBOL
1070
   379
1070
     1
  0
DIMSTYLE
105
41E
330
16
100
AcDbSymbolTableRecord
100
AcDbDimStyleTableRecord
  2
AM_ISO$3
 70
     0
  4
mm
 41
0.1
 42
0.05
 43
0.5
 44
0.1
 47
0.1
 48
0.1
 73
     0
 77
     1
 78
     7
 79
     2
140
0.12
141
0.0
146
0.71
147
0.06
176
   256
177
   256
178
     2
274
     4
283
     0
284
     7
288
     1
289
     0
340
C
371
    -1
372
    -1
1001
ACAD_DSTYLE_DIMARC_LENGTH_SYMBOL
1070
   379
1070
     1
  0
DIMSTYLE
105
41F
330
16
100
AcDbSymbolTableRecord
100
AcDbDimStyleTableRecord
  2
AM_ISO$4
 70
     0
  4
mm
 41
0.1
 42
0.05
 43
0.5
 44
0.1
 47
0.1
 48
0.1
 73
     0
 77
     1
 78
     7
 79
     2
140
0.12
141
0.0
146
0.71
147
0.06
176
   256
177
   256
178
     2
274
     4
283
     0
284
     7
288
     1
289
     0
340
C
371
    -1
372
    -1
1001
ACAD_DSTYLE_DIMARC_LENGTH_SYMBOL
1070
   379
1070
     1
  0
DIMSTYLE
105
420
330
16
100
AcDbSymbolTableRecord
100
AcDbDimStyleTableRecord
  2
AM_ISO$6
 70
     0
  4
mm
 41
0.1
 42
0.05
 43
0.5
 44
0.1
 47
0.1
 48
0.1
 73
     0
 74
     0
 78
     7
 79
     2
140
0.12
141
0.0
146
0.71
147
0.06
172
     1
176
   256
177
   256
178
     2
274
     4
283
     0
284
     7
340
C
371
    -1
372
    -1
1001
ACAD_DSTYLE_DIMARC_LENGTH_SYMBOL
1070
   379
1070
     1
  0
DIMSTYLE
105
421
330
16
100
AcDbSymbolTableRecord
100
AcDbDimStyleTableRecord
  2
AM_ISO$7
 70
     0
  4
mm
 41
0.1
 42
0.05
 43
0.5
 44
0.1
 47
0.1
 48
0.1
 73
     0
 74
     0
 77
     1
 78
     7
 79
     2
140
0.24
141
0.0
146
0.71
147
0.06
172
     1
176
   256
177
   256
178
     2
274
     4
283
     0
284
     7
340
C
371
    -1
372
    -1
1001
ACAD_DSTYLE_DIMARC_LENGTH_SYMBOL
1070
   379
1070
     1
  0
DIMSTYLE
105
422
330
16
100
AcDbSymbolTableRecord
100
AcDbDimStyleTableRecord
  2
AM_ISO$SF
 70
     0
  4
mm
 41
0.1
 42
0.05
 43
0.5
 44
0.1
 47
0.1
 48
0.1
 73
     0
 74
     0
 75
     1
 76
     1
 77
     1
 78
     7
 79
     2
140
0.12
141
0.0
146
0.71
147
0.06
172
     1
176
   256
177
   256
178
     2
274
     4
283
     0
284
     7
340
C
371
    -1
372
    -1
1001
ACAD_DSTYLE_DIMARC_LENGTH_SYMBOL
1070
   379
1070
     1
  0
DIMSTYLE
105
423
330
16
100
AcDbSymbolTableRecord
100
AcDbDimStyleTableRecord
  2
AM_ISO$SH
 70
     0
  4
mm
 41
0.1
 42
0.05
 43
0.5
 44
0.1
 47
0.1
 48
0.1
 73
     0
 74
     0
 75
     1
 76
     1
 77
     1
 78
     7
 79
     2
140
0.12
141
0.0
144
2.0
146
0.71
147
0.06
172
     1
173
     1
176
   256
177
   256
178
     2
274
     4
283
     0
284
     7
340
C
343
404
371
    -1
372
    -1
1001
ACAD_DSTYLE_DIMARC_LENGTH_SYMBOL
1070
   379
1070
     1
  0
DIMSTYLE
105
426
330
16
100
AcDbSymbolTableRecord
100
AcDbDimStyleTableRecord
  2
AM_JIS
 70
     0
  4
mm
 41
0.1
 42
0.05
 43
0.5
 44
0.1
 47
0.1
 48
0.1
 73
     0
 74
     0
 77
     3
 78
     7
 79
     2
140
0.12
141
0.0
146
0.71
147
0.06
172
     1
176
   256
177
   256
178
     2
274
     4
283
     0
284
     7
340
C
341
427
342
427
343
427
344
427
371
    -1
372
    -1
1001
ACAD_DSTYLE_DIMARC_LENGTH_SYMBOL
1070
   379
1070
     1
  0
DIMSTYLE
105
42D
330
16
100
AcDbSymbolTableRecord
100
AcDbDimStyleTableRecord
  2
AM_JIS$3
 70
     0
  4
mm
 41
0.1
 42
0.05
 43
0.5
 44
0.1
 47
0.1
 48
0.1
 73
     0
 77
     3
 78
     7
 79
     2
140
0.12
141
0.0
146
0.71
147
0.06
176
   256
177
   256
178
     2
274
     4
283
     0
284
     7
288
     1
289
     0
340
C
341
427
342
427
343
427
344
427
371
    -1
372
    -1
1001
ACAD_DSTYLE_DIMARC_LENGTH_SYMBOL
1070
   379
1070
     1
  0
DIMSTYLE
105
42E
330
16
100
AcDbSymbolTableRecord
100
AcDbDimStyleTableRecord
  2
AM_JIS$4
 70
     0
  4
mm
 41
0.1
 42
0.05
 43
0.5
 44
0.1
 47
0.1
 48
0.1
 73
     0
 77
     3
 78
     7
 79
     2
140
0.12
141
0.0
146
0.71
147
0.06
176
   256
177
   256
178
     2
274
     4
283
     0
284
     7
288
     1
289
     0
340
C
341
427
342
427
343
427
344
427
371
    -1
372
    -1
1001
ACAD_DSTYLE_DIMARC_LENGTH_SYMBOL
1070
   379
1070
     1
  0
DIMSTYLE
105
42F
330
16
100
AcDbSymbolTableRecord
100
AcDbDimStyleTableRecord
  2
AM_JIS$6
 70
     0
  4
mm
 41
0.1
 42
0.05
 43
0.5
 44
0.1
 47
0.1
 48
0.1
 73
     0
 74
     0
 78
     7
 79
     2
140
0.12
141
0.0
146
0.71
147
0.06
172
     1
176
   256
177
   256
178
     2
274
     4
283
     0
284
     7
340
C
341
427
342
427
343
427
344
427
371
    -1
372
    -1
1001
ACAD_DSTYLE_DIMARC_LENGTH_SYMBOL
1070
   379
1070
     1
  0
DIMSTYLE
105
430
330
16
100
AcDbSymbolTableRecord
100
AcDbDimStyleTableRecord
  2
AM_JIS$7
 70
     0
  4
mm
 41
0.1
 42
0.05
 43
0.5
 44
0.1
 47
0.1
 48
0.1
 73
     0
 74
     0
 77
     3
 78
     7
 79
     2
140
0.24
141
0.0
146
0.71
147
0.06
172
     1
176
   256
177
   256
178
     2
274
     4
283
     0
284
     7
340
C
341
427
342
427
343
427
344
427
371
    -1
372
    -1
1001
ACAD_DSTYLE_DIMARC_LENGTH_SYMBOL
1070
   379
1070
     1
  0
DIMSTYLE
105
431
330
16
100
AcDbSymbolTableRecord
100
AcDbDimStyleTableRecord
  2
AM_JIS$SF
 70
     0
  4
mm
 41
0.1
 42
0.05
 43
0.5
 44
0.1
 47
0.1
 48
0.1
 73
     0
 74
     0
 75
     1
 76
     1
 77
     3
 78
     7
 79
     2
140
0.12
141
0.0
146
0.71
147
0.06
172
     1
176
   256
177
   256
178
     2
274
     4
283
     0
284
     7
340
C
341
427
342
427
343
427
344
427
371
    -1
372
    -1
1001
ACAD_DSTYLE_DIMARC_LENGTH_SYMBOL
1070
   379
1070
     1
  0
DIMSTYLE
105
432
330
16
100
AcDbSymbolTableRecord
100
AcDbDimStyleTableRecord
  2
AM_JIS$SH
 70
     0
  4
mm
 41
0.1
 42
0.05
 43
0.5
 44
0.1
 47
0.1
 48
0.1
 73
     0
 74
     0
 75
     1
 76
     1
 77
     3
 78
     7
 79
     2
140
0.12
141
0.0
144
2.0
146
0.71
147
0.06
172
     1
173
     1
176
   256
177
   256
178
     2
274
     4
283
     0
284
     7
340
C
341
427
342
427
343
404
344
427
371
    -1
372
    -1
1001
ACAD_DSTYLE_DIMARC_LENGTH_SYMBOL
1070
   379
1070
     1
  0
ENDTAB
  0
TABLE
  2
BLOCK_RECORD
  5
1
330
0
100
AcDbSymbolTable
 70
    47
  0
BLOCK_RECORD
  5
2
102
{ACAD_XDICTIONARY
360
270
102
}
330
1
100
AcDbSymbolTableRecord
100
AcDbBlockTableRecord
  2
*MODEL_SPACE
340
32A
  0
BLOCK_RECORD
  5
7
330
1
100
AcDbSymbolTableRecord
100
AcDbBlockTableRecord
  2
*PAPER_SPACE
340
32B
  0
BLOCK_RECORD
  5
404
330
1
100
AcDbSymbolTableRecord
100
AcDbBlockTableRecord
  2
GENAXEH
340
0
  0
BLOCK_RECORD
  5
427
330
1
100
AcDbSymbolTableRecord
100
AcDbBlockTableRecord
  2
_Open30
340
0
  0
BLOCK_RECORD
  5
4A2
330
1
100
AcDbSymbolTableRecord
100
AcDbBlockTableRecord
  2
*D25
340
0
  0
BLOCK_RECORD
  5
4AE
330
1
100
AcDbSymbolTableRecord
100
AcDbBlockTableRecord
  2
*D26
340
0
  0
BLOCK_RECORD
  5
4BA
330
1
100
AcDbSymbolTableRecord
100
AcDbBlockTableRecord
  2
*D27
340
0
  0
BLOCK_RECORD
  5
4C6
330
1
100
AcDbSymbolTableRecord
100
AcDbBlockTableRecord
  2
*D28
340
0
  0
BLOCK_RECORD
  5
4D2
330
1
100
AcDbSymbolTableRecord
100
AcDbBlockTableRecord
  2
*D29
340
0
  0
BLOCK_RECORD
  5
4DE
330
1
100
AcDbSymbolTableRecord
100
AcDbBlockTableRecord
  2
*D30
340
0
  0
BLOCK_RECORD
  5
4EA
330
1
100
AcDbSymbolTableRecord
100
AcDbBlockTableRecord
  2
*D31
340
0
  0
BLOCK_RECORD
  5
4F6
330
1
100
AcDbSymbolTableRecord
100
AcDbBlockTableRecord
  2
*D32
340
0
  0
BLOCK_RECORD
  5
502
330
1
100
AcDbSymbolTableRecord
100
AcDbBlockTableRecord
  2
*D33
340
0
  0
BLOCK_RECORD
  5
50E
330
1
100
AcDbSymbolTableRecord
100
AcDbBlockTableRecord
  2
*D34
340
0
  0
BLOCK_RECORD
  5
516
330
1
100
AcDbSymbolTableRecord
100
AcDbBlockTableRecord
  2
*D35
340
0
  0
BLOCK_RECORD
  5
524
330
1
100
AcDbSymbolTableRecord
100
AcDbBlockTableRecord
  2
*D36
340
0
  0
BLOCK_RECORD
  5
532
330
1
100
AcDbSymbolTableRecord
100
AcDbBlockTableRecord
  2
*D37
340
0
  0
BLOCK_RECORD
  5
540
330
1
100
AcDbSymbolTableRecord
100
AcDbBlockTableRecord
  2
*D38
340
0
  0
BLOCK_RECORD
  5
54B
330
1
100
AcDbSymbolTableRecord
100
AcDbBlockTableRecord
  2
*D39
340
0
  0
BLOCK_RECORD
  5
557
330
1
100
AcDbSymbolTableRecord
100
AcDbBlockTableRecord
  2
*D40
340
0
  0
BLOCK_RECORD
  5
563
330
1
100
AcDbSymbolTableRecord
100
AcDbBlockTableRecord
  2
*D41
340
0
  0
BLOCK_RECORD
  5
56F
330
1
100
AcDbSymbolTableRecord
100
AcDbBlockTableRecord
  2
*D42
340
0
  0
BLOCK_RECORD
  5
57B
330
1
100
AcDbSymbolTableRecord
100
AcDbBlockTableRecord
  2
*D43
340
0
  0
BLOCK_RECORD
  5
586
330
1
100
AcDbSymbolTableRecord
100
AcDbBlockTableRecord
  2
*D44
340
0
  0
ENDTAB
  0
ENDSEC
  0
SECTION
  2
BLOCKS
  0
BLOCK
  5
3
330
2
100
AcDbEntity
  8
0
100
AcDbBlockBegin
  2
*MODEL_SPACE
 70
     0
 10
0.0
 20
0.0
 30
0.0
  3
*MODEL_SPACE
  1

  0
ENDBLK
  5
6
330
2
100
AcDbEntity
  8
0
100
AcDbBlockEnd
  0
BLOCK
  5
8
330
7
100
AcDbEntity
 67
     1
  8
0
100
AcDbBlockBegin
  2
*PAPER_SPACE
 70
     0
 10
0.0
 20
0.0
 30
0.0
  3
*PAPER_SPACE
  1

  0
ENDBLK
  5
9
330
7
100
AcDbEntity
 67
     1
  8
0
100
AcDbBlockEnd
  0
BLOCK
  5
406
330
404
100
AcDbEntity
  8
0
 48
10.0
100
AcDbBlockBegin
  2
GENAXEH
 70
     0
 10
0.0
 20
0.0
 30
0.0
  3
GENAXEH
  1

  0
LINE
  5
405
330
404
100
AcDbEntity
  8
0
100
AcDbLine
 10
-1.0
 20
0.0
 30
0.0
 11
1.0
 21
0.0
 31
0.0
  0
ENDBLK
  5
407
330
404
100
AcDbEntity
  8
0
 48
10.0
100
AcDbBlockEnd
  0
BLOCK
  5
42B
330
427
100
AcDbEntity
  8
0
 48
10.0
100
AcDbBlockBegin
  2
_Open30
 70
     0
 10
0.0
 20
0.0
 30
0.0
  3
_Open30
  1

  0
LINE
  5
428
330
427
100
AcDbEntity
  8
0
  6
ByBlock
 62
     0
370
    -2
100
AcDbLine
 10
-1.0
 20
0.26794919
 30
0.0
 11
0.0
 21
0.0
 31
0.0
  0
LINE
  5
429
330
427
100
AcDbEntity
  8
0
  6
ByBlock
 62
     0
370
    -2
100
AcDbLine
 10
0.0
 20
0.0
 30
0.0
 11
-1.0
 21
-0.26794919
 31
0.0
  0
LINE
  5
42A
330
427
100
AcDbEntity
  8
0
  6
ByBlock
 62
     0
370
    -2
100
AcDbLine
 10
0.0
 20
0.0
 30
0.0
 11
-1.0
 21
0.0
 31
0.0
  0
ENDBLK
  5
42C
330
427
100
AcDbEntity
  8
0
 48
10.0
100
AcDbBlockEnd
  0
BLOCK
  5
4A3
330
4A2
100
AcDbEntity
  8
0
 48
10.0
100
AcDbBlockBegin
  2
*D25
 70
     1
 10
0.0
 20
0.0
 30
0.0
  3
*D25
  1

  0
LINE
  5
6FC
330
4A2
100
AcDbEntity
  8
BEM
370
    -2
100
AcDbLine
 10
622.0343872437979
 20
145.7990924512946
 30
0.0
 11
622.0343872437979
 21
110.0586649425695
 31
0.0
  0
LINE
  5
6FD
330
4A2
100
AcDbEntity
  8
BEM
370
    -2
100
AcDbLine
 10
430.0343872437983
 20
144.3373642346478
 30
0.0
 11
430.0343872437983
 21
110.0586649425695
 31
0.0
  0
LINE
  5
6FE
330
4A2
100
AcDbEntity
  8
BEM
370
    -2
100
AcDbLine
 10
615.0343872437979
 20
111.3086649425695
 30
0.0
 11
437.0343872437983
 21
111.3086649425695
 31
0.0
  0
SOLID
  5
6FF
330
4A2
100
AcDbEntity
  8
BEM
100
AcDbTrace
 10
615.0343872437979
 20
112.4753316092362
 30
0.0
 11
615.0343872437979
 21
110.1419982759028
 31
0.0
 12
622.0343872437979
 22
111.3086649425695
 32
0.0
 13
622.0343872437979
 23
111.3086649425695
 33
0.0
  0
SOLID
  5
700
330
4A2
100
AcDbEntity
  8
BEM
100
AcDbTrace
 10
437.0343872437983
 20
112.4753316092362
 30
0.0
 11
437.0343872437983
 21
110.1419982759028
 31
0.0
 12
430.0343872437983
 22
111.3086649425695
 32
0.0
 13
430.0343872437983
 23
111.3086649425695
 33
0.0
  0
MTEXT
  5
701
330
4A2
100
AcDbEntity
  8
BEM
100
AcDbMText
 10
526.0343872437982
 20
120.3086649425695
 30
0.0
 40
10.0
 41
0.0
 71
     5
 72
     1
  1
\A1;192
 73
     1
 44
1.0
  0
POINT
  5
702
330
4A2
100
AcDbEntity
  8
DEFPOINTS
 62
     0
100
AcDbPoint
 10
622.0343872437979
 20
145.7990924512946
 30
0.0
  0
POINT
  5
703
330
4A2
100
AcDbEntity
  8
DEFPOINTS
 62
     0
100
AcDbPoint
 10
430.0343872437983
 20
144.3373642346478
 30
0.0
  0
POINT
  5
704
330
4A2
100
AcDbEntity
  8
DEFPOINTS
 62
     0
100
AcDbPoint
 10
430.0343872437983
 20
111.3086649425695
 30
0.0
  0
ENDBLK
  5
4A4
330
4A2
100
AcDbEntity
  8
0
 48
10.0
100
AcDbBlockEnd
  0
BLOCK
  5
4AF
330
4AE
100
AcDbEntity
  8
0
 48
10.0
100
AcDbBlockBegin
  2
*D26
 70
     1
 10
0.0
 20
0.0
 30
0.0
  3
*D26
  1

  0
LINE
  5
705
330
4AE
100
AcDbEntity
  8
BEM
370
    -2
100
AcDbLine
 10
430.0343872437966
 20
302.3373642346478
 30
0.0
 11
430.0343872437966
 21
418.1536304801349
 31
0.0
  0
LINE
  5
706
330
4AE
100
AcDbEntity
  8
BEM
370
    -2
100
AcDbLine
 10
730.0343872437979
 20
314.5873642346478
 30
0.0
 11
730.0343872437979
 21
418.1536304801349
 31
0.0
  0
LINE
  5
707
330
4AE
100
AcDbEntity
  8
BEM
370
    -2
100
AcDbLine
 10
437.0343872437965
 20
416.903630480135
 30
0.0
 11
723.0343872437979
 21
416.903630480135
 31
0.0
  0
SOLID
  5
708
330
4AE
100
AcDbEntity
  8
BEM
100
AcDbTrace
 10
437.0343872437965
 20
418.0702971468017
 30
0.0
 11
437.0343872437965
 21
415.7369638134682
 31
0.0
 12
430.0343872437966
 22
416.903630480135
 32
0.0
 13
430.0343872437966
 23
416.903630480135
 33
0.0
  0
SOLID
  5
709
330
4AE
100
AcDbEntity
  8
BEM
100
AcDbTrace
 10
723.0343872437979
 20
418.0702971468017
 30
0.0
 11
723.0343872437979
 21
415.7369638134682
 31
0.0
 12
730.0343872437979
 22
416.903630480135
 32
0.0
 13
730.0343872437979
 23
416.903630480135
 33
0.0
  0
MTEXT
  5
70A
330
4AE
100
AcDbEntity
  8
BEM
100
AcDbMText
 10
580.0343872437972
 20
425.903630480135
 30
0.0
 40
10.0
 41
0.0
 71
     5
 72
     1
  1
\A1;300
 73
     1
 44
1.0
  0
POINT
  5
70B
330
4AE
100
AcDbEntity
  8
DEFPOINTS
 62
     0
100
AcDbPoint
 10
430.0343872437966
 20
302.3373642346478
 30
0.0
  0
POINT
  5
70C
330
4AE
100
AcDbEntity
  8
DEFPOINTS
 62
     0
100
AcDbPoint
 10
730.0343872437979
 20
314.5873642346478
 30
0.0
  0
POINT
  5
70D
330
4AE
100
AcDbEntity
  8
DEFPOINTS
 62
     0
100
AcDbPoint
 10
730.0343872437979
 20
416.903630480135
 30
0.0
  0
ENDBLK
  5
4B0
330
4AE
100
AcDbEntity
  8
0
 48
10.0
100
AcDbBlockEnd
  0
BLOCK
  5
4BB
330
4BA
100
AcDbEntity
  8
0
 48
10.0
100
AcDbBlockBegin
  2
*D27
 70
     1
 10
0.0
 20
0.0
 30
0.0
  3
*D27
  1

  0
LINE
  5
70E
330
4BA
100
AcDbEntity
  8
BEM
370
    -2
100
AcDbLine
 10
730.0343872437979
 20
314.5873642346478
 30
0.0
 11
730.0343872437979
 21
449.8883130561718
 31
0.0
  0
LINE
  5
70F
330
4BA
100
AcDbEntity
  8
BEM
370
    -2
100
AcDbLine
 10
375.0343872437982
 20
234.3373642346478
 30
0.0
 11
375.0343872437982
 21
449.8883130561718
 31
0.0
  0
LINE
  5
710
330
4BA
100
AcDbEntity
  8
BEM
370
    -2
100
AcDbLine
 10
723.0343872437979
 20
448.6383130561718
 30
0.0
 11
382.0343872437982
 21
448.6383130561718
 31
0.0
  0
SOLID
  5
711
330
4BA
100
AcDbEntity
  8
BEM
100
AcDbTrace
 10
723.0343872437979
 20
449.8049797228386
 30
0.0
 11
723.0343872437979
 21
447.4716463895052
 31
0.0
 12
730.0343872437979
 22
448.6383130561718
 32
0.0
 13
730.0343872437979
 23
448.6383130561718
 33
0.0
  0
SOLID
  5
712
330
4BA
100
AcDbEntity
  8
BEM
100
AcDbTrace
 10
382.0343872437982
 20
449.8049797228386
 30
0.0
 11
382.0343872437982
 21
447.4716463895052
 31
0.0
 12
375.0343872437982
 22
448.6383130561718
 32
0.0
 13
375.0343872437982
 23
448.6383130561718
 33
0.0
  0
MTEXT
  5
713
330
4BA
100
AcDbEntity
  8
BEM
100
AcDbMText
 10
552.534387243798
 20
457.6383130561719
 30
0.0
 40
10.0
 41
0.0
 71
     5
 72
     1
  1
\A1;355
 73
     1
 44
1.0
  0
POINT
  5
714
330
4BA
100
AcDbEntity
  8
DEFPOINTS
 62
     0
100
AcDbPoint
 10
730.0343872437979
 20
314.5873642346478
 30
0.0
  0
POINT
  5
715
330
4BA
100
AcDbEntity
  8
DEFPOINTS
 62
     0
100
AcDbPoint
 10
375.0343872437982
 20
234.3373642346478
 30
0.0
  0
POINT
  5
716
330
4BA
100
AcDbEntity
  8
DEFPOINTS
 62
     0
100
AcDbPoint
 10
375.0343872437982
 20
448.6383130561718
 30
0.0
  0
ENDBLK
  5
4BC
330
4BA
100
AcDbEntity
  8
0
 48
10.0
100
AcDbBlockEnd
  0
BLOCK
  5
4C7
330
4C6
100
AcDbEntity
  8
0
 48
10.0
100
AcDbBlockBegin
  2
*D28
 70
     1
 10
0.0
 20
0.0
 30
0.0
  3
*D28
  1

  0
LINE
  5
717
330
4C6
100
AcDbEntity
  8
BEM
370
    -2
100
AcDbLine
 10
160.5596530192949
 20
258.5873642346478
 30
0.0
 11
219.5453260256632
 21
258.5873642346478
 31
0.0
  0
LINE
  5
718
330
4C6
100
AcDbEntity
  8
BEM
370
    -2
100
AcDbLine
 10
176.8733686125692
 20
223.3373642346478
 30
0.0
 11
219.5453260256632
 21
223.3373642346478
 31
0.0
  0
LINE
  5
719
330
4C6
100
AcDbEntity
  8
BEM
370
    -2
100
AcDbLine
 10
218.2953260256632
 20
251.5873642346478
 30
0.0
 11
218.2953260256632
 21
230.3373642346478
 31
0.0
  0
SOLID
  5
71A
330
4C6
100
AcDbEntity
  8
BEM
100
AcDbTrace
 10
217.1286593589965
 20
251.5873642346478
 30
0.0
 11
219.4619926923298
 21
251.5873642346478
 31
0.0
 12
218.2953260256632
 22
258.5873642346478
 32
0.0
 13
218.2953260256632
 23
258.5873642346478
 33
0.0
  0
SOLID
  5
71B
330
4C6
100
AcDbEntity
  8
BEM
100
AcDbTrace
 10
217.1286593589965
 20
230.3373642346478
 30
0.0
 11
219.4619926923298
 21
230.3373642346478
 31
0.0
 12
218.2953260256632
 22
223.3373642346478
 32
0.0
 13
218.2953260256632
 23
223.3373642346478
 33
0.0
  0
MTEXT
  5
71C
330
4C6
100
AcDbEntity
  8
BEM
100
AcDbMText
 10
209.2953260256631
 20
240.9623642346478
 30
0.0
 40
10.0
 41
0.0
 71
     5
 72
     1
  1
\A1;35.2
 11
0.0000000000000001
 21
1.0
 31
0.0
 73
     1
 44
1.0
  0
POINT
  5
71D
330
4C6
100
AcDbEntity
  8
DEFPOINTS
 62
     0
100
AcDbPoint
 10
160.5596530192949
 20
258.5873642346478
 30
0.0
  0
POINT
  5
71E
330
4C6
100
AcDbEntity
  8
DEFPOINTS
 62
     0
100
AcDbPoint
 10
176.8733686125692
 20
223.3373642346478
 30
0.0
  0
POINT
  5
71F
330
4C6
100
AcDbEntity
  8
DEFPOINTS
 62
     0
100
AcDbPoint
 10
218.2953260256632
 20
223.3373642346478
 30
0.0
  0
ENDBLK
  5
4C8
330
4C6
100
AcDbEntity
  8
0
 48
10.0
100
AcDbBlockEnd
  0
BLOCK
  5
4D3
330
4D2
100
AcDbEntity
  8
0
 48
10.0
100
AcDbBlockBegin
  2
*D29
 70
     1
 10
0.0
 20
0.0
 30
0.0
  3
*D29
  1

  0
LINE
  5
720
330
4D2
100
AcDbEntity
  8
BEM
370
    -2
100
AcDbLine
 10
511.0343872437978
 20
324.5873642346479
 30
0.0
 11
271.1040954955274
 21
324.587364234648
 31
0.0
  0
LINE
  5
721
330
4D2
100
AcDbEntity
  8
BEM
370
    -2
100
AcDbLine
 10
430.0343872437983
 20
144.3373642346478
 30
0.0
 11
271.1040954955274
 21
144.3373642346478
 31
0.0
  0
LINE
  5
722
330
4D2
100
AcDbEntity
  8
BEM
370
    -2
100
AcDbLine
 10
272.3540954955274
 20
317.587364234648
 30
0.0
 11
272.3540954955274
 21
151.3373642346478
 31
0.0
  0
SOLID
  5
723
330
4D2
100
AcDbEntity
  8
BEM
100
AcDbTrace
 10
271.1874288288607
 20
317.587364234648
 30
0.0
 11
273.5207621621941
 21
317.587364234648
 31
0.0
 12
272.3540954955274
 22
324.587364234648
 32
0.0
 13
272.3540954955274
 23
324.587364234648
 33
0.0
  0
SOLID
  5
724
330
4D2
100
AcDbEntity
  8
BEM
100
AcDbTrace
 10
271.1874288288607
 20
151.3373642346478
 30
0.0
 11
273.5207621621941
 21
151.3373642346478
 31
0.0
 12
272.3540954955274
 22
144.3373642346478
 32
0.0
 13
272.3540954955274
 23
144.3373642346478
 33
0.0
  0
MTEXT
  5
725
330
4D2
100
AcDbEntity
  8
BEM
100
AcDbMText
 10
263.3540954955273
 20
234.4623642346479
 30
0.0
 40
10.0
 41
0.0
 71
     5
 72
     1
  1
\A1;180
 11
0.0000000000000001
 21
1.0
 31
0.0
 73
     1
 44
1.0
  0
POINT
  5
726
330
4D2
100
AcDbEntity
  8
DEFPOINTS
 62
     0
100
AcDbPoint
 10
511.0343872437978
 20
324.5873642346479
 30
0.0
  0
POINT
  5
727
330
4D2
100
AcDbEntity
  8
DEFPOINTS
 62
     0
100
AcDbPoint
 10
430.0343872437983
 20
144.3373642346478
 30
0.0
  0
POINT
  5
728
330
4D2
100
AcDbEntity
  8
DEFPOINTS
 62
     0
100
AcDbPoint
 10
272.3540954955274
 20
144.3373642346478
 30
0.0
  0
ENDBLK
  5
4D4
330
4D2
100
AcDbEntity
  8
0
 48
10.0
100
AcDbBlockEnd
  0
BLOCK
  5
4DF
330
4DE
100
AcDbEntity
  8
0
 48
10.0
100
AcDbBlockBegin
  2
*D30
 70
     1
 10
0.0
 20
0.0
 30
0.0
  3
*D30
  1

  0
LINE
  5
729
330
4DE
100
AcDbEntity
  8
BEM
370
    -2
100
AcDbLine
 10
430.0343872437969
 20
278.3373642346478
 30
0.0
 11
302.7871640289718
 21
278.3373642346479
 31
0.0
  0
LINE
  5
72A
330
4DE
100
AcDbEntity
  8
BEM
370
    -2
100
AcDbLine
 10
369.6748334265813
 20
168.3373642346477
 30
0.0
 11
302.7871640289718
 21
168.3373642346478
 31
0.0
  0
LINE
  5
72B
330
4DE
100
AcDbEntity
  8
BEM
370
    -2
100
AcDbLine
 10
304.0371640289718
 20
271.3373642346478
 30
0.0
 11
304.0371640289718
 21
175.3373642346478
 31
0.0
  0
SOLID
  5
72C
330
4DE
100
AcDbEntity
  8
BEM
100
AcDbTrace
 10
302.8704973623051
 20
271.3373642346478
 30
0.0
 11
305.2038306956385
 21
271.3373642346478
 31
0.0
 12
304.0371640289718
 22
278.3373642346479
 32
0.0
 13
304.0371640289718
 23
278.3373642346479
 33
0.0
  0
SOLID
  5
72D
330
4DE
100
AcDbEntity
  8
BEM
100
AcDbTrace
 10
302.8704973623051
 20
175.3373642346478
 30
0.0
 11
305.2038306956385
 21
175.3373642346478
 31
0.0
 12
304.0371640289718
 22
168.3373642346478
 32
0.0
 13
304.0371640289718
 23
168.3373642346478
 33
0.0
  0
MTEXT
  5
72E
330
4DE
100
AcDbEntity
  8
BEM
100
AcDbMText
 10
295.0371640289717
 20
223.3373642346478
 30
0.0
 40
10.0
 41
0.0
 71
     5
 72
     1
  1
\A1;%%c110
 11
0.0000000000000001
 21
1.0
 31
0.0
 73
     1
 44
1.0
  0
POINT
  5
72F
330
4DE
100
AcDbEntity
  8
DEFPOINTS
 62
     0
100
AcDbPoint
 10
430.0343872437969
 20
278.3373642346478
 30
0.0
  0
POINT
  5
730
330
4DE
100
AcDbEntity
  8
DEFPOINTS
 62
     0
100
AcDbPoint
 10
369.6748334265813
 20
168.3373642346477
 30
0.0
  0
POINT
  5
731
330
4DE
100
AcDbEntity
  8
DEFPOINTS
 62
     0
100
AcDbPoint
 10
304.0371640289718
 20
168.3373642346478
 30
0.0
  0
ENDBLK
  5
4E0
330
4DE
100
AcDbEntity
  8
0
 48
10.0
100
AcDbBlockEnd
  0
BLOCK
  5
4EB
330
4EA
100
AcDbEntity
  8
0
 48
10.0
100
AcDbBlockBegin
  2
*D31
 70
     1
 10
0.0
 20
0.0
 30
0.0
  3
*D31
  1

  0
LINE
  5
732
330
4EA
100
AcDbEntity
  8
BEM
370
    -2
100
AcDbLine
 10
131.0413742506062
 20
155.5296036270415
 30
0.0
 11
131.0413742506062
 21
108.8086649425695
 31
0.0
  0
LINE
  5
733
330
4EA
100
AcDbEntity
  8
BEM
370
    -2
100
AcDbLine
 10
55.04137425060616
 20
155.5296036270415
 30
0.0
 11
55.04137425060616
 21
108.8086649425695
 31
0.0
  0
LINE
  5
734
330
4EA
100
AcDbEntity
  8
BEM
370
    -2
100
AcDbLine
 10
124.0413742506061
 20
110.0586649425695
 30
0.0
 11
62.04137425060617
 21
110.0586649425695
 31
0.0
  0
SOLID
  5
735
330
4EA
100
AcDbEntity
  8
BEM
100
AcDbTrace
 10
124.0413742506061
 20
111.2253316092362
 30
0.0
 11
124.0413742506061
 21
108.8919982759028
 31
0.0
 12
131.0413742506062
 22
110.0586649425695
 32
0.0
 13
131.0413742506062
 23
110.0586649425695
 33
0.0
  0
SOLID
  5
736
330
4EA
100
AcDbEntity
  8
BEM
100
AcDbTrace
 10
62.04137425060617
 20
111.2253316092362
 30
0.0
 11
62.04137425060617
 21
108.8919982759028
 31
0.0
 12
55.04137425060616
 22
110.0586649425695
 32
0.0
 13
55.04137425060616
 23
110.0586649425695
 33
0.0
  0
MTEXT
  5
737
330
4EA
100
AcDbEntity
  8
BEM
100
AcDbMText
 10
97.00595660071622
 20
119.0586649425695
 30
0.0
 40
10.0
 41
0.0
 71
     5
 72
     1
  1
\A1;76
 73
     1
 44
1.0
  0
POINT
  5
738
330
4EA
100
AcDbEntity
  8
DEFPOINTS
 62
     0
100
AcDbPoint
 10
131.0413742506062
 20
155.5296036270415
 30
0.0
  0
POINT
  5
739
330
4EA
100
AcDbEntity
  8
DEFPOINTS
 62
     0
100
AcDbPoint
 10
55.04137425060616
 20
155.5296036270415
 30
0.0
  0
POINT
  5
73A
330
4EA
100
AcDbEntity
  8
DEFPOINTS
 62
     0
100
AcDbPoint
 10
55.04137425060616
 20
110.0586649425695
 30
0.0
  0
ENDBLK
  5
4EC
330
4EA
100
AcDbEntity
  8
0
 48
10.0
100
AcDbBlockEnd
  0
BLOCK
  5
4F7
330
4F6
100
AcDbEntity
  8
0
 48
10.0
100
AcDbBlockBegin
  2
*D32
 70
     1
 10
0.0
 20
0.0
 30
0.0
  3
*D32
  1

  0
LINE
  5
73B
330
4F6
100
AcDbEntity
  8
BEM
370
    -2
100
AcDbLine
 10
376.0343872437982
 20
235.3373642346478
 30
0.0
 11
336.8346380186463
 21
235.3373642346478
 31
0.0
  0
LINE
  5
73C
330
4F6
100
AcDbEntity
  8
BEM
370
    -2
100
AcDbLine
 10
376.0343872437982
 20
211.3373642346478
 30
0.0
 11
336.8346380186463
 21
211.3373642346478
 31
0.0
  0
LINE
  5
73D
330
4F6
100
AcDbEntity
  8
BEM
370
    -2
100
AcDbLine
 10
338.0846380186463
 20
228.3373642346478
 30
0.0
 11
338.0846380186463
 21
218.3373642346478
 31
0.0
  0
SOLID
  5
73E
330
4F6
100
AcDbEntity
  8
BEM
100
AcDbTrace
 10
336.9179713519796
 20
228.3373642346478
 30
0.0
 11
339.251304685313
 21
228.3373642346478
 31
0.0
 12
338.0846380186463
 22
235.3373642346478
 32
0.0
 13
338.0846380186463
 23
235.3373642346478
 33
0.0
  0
SOLID
  5
73F
330
4F6
100
AcDbEntity
  8
BEM
100
AcDbTrace
 10
336.9179713519796
 20
218.3373642346478
 30
0.0
 11
339.251304685313
 21
218.3373642346478
 31
0.0
 12
338.0846380186463
 22
211.3373642346478
 32
0.0
 13
338.0846380186463
 23
211.3373642346478
 33
0.0
  0
MTEXT
  5
740
330
4F6
100
AcDbEntity
  8
BEM
100
AcDbMText
 10
329.0846380186463
 20
223.3373642346478
 30
0.0
 40
10.0
 41
0.0
 71
     5
 72
     1
  1
\A1;%%c24
 11
0.0000000000000001
 21
1.0
 31
0.0
 73
     1
 44
1.0
  0
POINT
  5
741
330
4F6
100
AcDbEntity
  8
DEFPOINTS
 62
     0
100
AcDbPoint
 10
376.0343872437982
 20
235.3373642346478
 30
0.0
  0
POINT
  5
742
330
4F6
100
AcDbEntity
  8
DEFPOINTS
 62
     0
100
AcDbPoint
 10
376.0343872437982
 20
211.3373642346478
 30
0.0
  0
POINT
  5
743
330
4F6
100
AcDbEntity
  8
DEFPOINTS
 62
     0
100
AcDbPoint
 10
338.0846380186463
 20
211.3373642346478
 30
0.0
  0
ENDBLK
  5
4F8
330
4F6
100
AcDbEntity
  8
0
 48
10.0
100
AcDbBlockEnd
  0
BLOCK
  5
503
330
502
100
AcDbEntity
  8
0
 48
10.0
100
AcDbBlockBegin
  2
*D33
 70
     1
 10
0.0
 20
0.0
 30
0.0
  3
*D33
  1

  0
LINE
  5
744
330
502
100
AcDbEntity
  8
BEM
370
    -2
100
AcDbLine
 10
425.0343872437982
 20
209.3373642346478
 30
0.0
 11
425.0343872437982
 21
110.0586649425695
 31
0.0
  0
LINE
  5
745
330
502
100
AcDbEntity
  8
BEM
370
    -2
100
AcDbLine
 10
375.0343872437982
 20
212.3373642346478
 30
0.0
 11
375.0343872437982
 21
110.0586649425695
 31
0.0
  0
LINE
  5
746
330
502
100
AcDbEntity
  8
BEM
370
    -2
100
AcDbLine
 10
418.0343872437982
 20
111.3086649425695
 30
0.0
 11
382.0343872437982
 21
111.3086649425695
 31
0.0
  0
SOLID
  5
747
330
502
100
AcDbEntity
  8
BEM
100
AcDbTrace
 10
418.0343872437982
 20
112.4753316092362
 30
0.0
 11
418.0343872437982
 21
110.1419982759028
 31
0.0
 12
425.0343872437982
 22
111.3086649425695
 32
0.0
 13
425.0343872437982
 23
111.3086649425695
 33
0.0
  0
SOLID
  5
748
330
502
100
AcDbEntity
  8
BEM
100
AcDbTrace
 10
382.0343872437982
 20
112.4753316092362
 30
0.0
 11
382.0343872437982
 21
110.1419982759028
 31
0.0
 12
375.0343872437982
 22
111.3086649425695
 32
0.0
 13
375.0343872437982
 23
111.3086649425695
 33
0.0
  0
MTEXT
  5
749
330
502
100
AcDbEntity
  8
BEM
100
AcDbMText
 10
401.2724824818934
 20
120.3086649425695
 30
0.0
 40
10.0
 41
0.0
 71
     5
 72
     1
  1
\A1;50
 73
     1
 44
1.0
  0
POINT
  5
74A
330
502
100
AcDbEntity
  8
DEFPOINTS
 62
     0
100
AcDbPoint
 10
425.0343872437982
 20
209.3373642346478
 30
0.0
  0
POINT
  5
74B
330
502
100
AcDbEntity
  8
DEFPOINTS
 62
     0
100
AcDbPoint
 10
375.0343872437982
 20
212.3373642346478
 30
0.0
  0
POINT
  5
74C
330
502
100
AcDbEntity
  8
DEFPOINTS
 62
     0
100
AcDbPoint
 10
375.0343872437982
 20
111.3086649425695
 30
0.0
  0
ENDBLK
  5
504
330
502
100
AcDbEntity
  8
0
 48
10.0
100
AcDbBlockEnd
  0
BLOCK
  5
50F
330
50E
100
AcDbEntity
  8
0
 48
10.0
100
AcDbBlockBegin
  2
*D34
 70
     1
 10
0.0
 20
0.0
 30
0.0
  3
*D34
  1

  0
LINE
  5
74D
330
50E
100
AcDbEntity
  8
BEM
370
    -2
100
AcDbLine
 10
377.4343871927424
 20
165.5871068554125
 30
0.0
 11
415.9032018072488
 21
205.8337434490076
 31
0.0
  0
MTEXT
  5
74E
330
50E
100
AcDbEntity
  8
BEM
100
AcDbMText
 10
384.2211119535892
 20
185.7128285918008
 30
0.0
 40
10.0
 41
0.0
 71
     5
 72
     1
  1
\A1;R1.6
 11
0.6909602660276805
 21
0.7228927380814925
 31
0.0
 73
     1
 44
1.0
  0
SOLID
  5
74F
330
50E
100
AcDbEntity
  8
BEM
100
AcDbTrace
 10
415.0598269461537
 20
206.6398637593732
 30
0.0
 11
416.7465766683439
 21
205.027623138642
 31
0.0
 12
420.7399236694426
 22
210.893992615578
 32
0.0
 13
420.7399236694426
 23
210.893992615578
 33
0.0
  0
POINT
  5
750
330
50E
100
AcDbEntity
  8
DEFPOINTS
 62
     0
100
AcDbPoint
 10
420.7399236694426
 20
210.893992615578
 30
0.0
  0
POINT
  5
751
330
50E
100
AcDbEntity
  8
DEFPOINTS
 62
     0
100
AcDbPoint
 10
419.6343872437983
 20
209.7373642346477
 30
0.0
  0
ENDBLK
  5
510
330
50E
100
AcDbEntity
  8
0
 48
10.0
100
AcDbBlockEnd
  0
BLOCK
  5
517
330
516
100
AcDbEntity
  8
0
 48
10.0
100
AcDbBlockBegin
  2
*D35
 70
     1
 10
0.0
 20
0.0
 30
0.0
  3
*D35
  1

  0
LINE
  5
752
330
516
100
AcDbEntity
  8
BEM
370
    -2
100
AcDbLine
 10
442.0343872437983
 20
299.8373642346478
 30
0.0
 11
442.0343872437983
 21
385.5599503830133
 31
0.0
  0
LINE
  5
753
330
516
100
AcDbEntity
  8
BEM
370
    -2
100
AcDbLine
 10
430.0343872437966
 20
302.3373642346478
 30
0.0
 11
430.0343872437966
 21
385.5599503830133
 31
0.0
  0
LINE
  5
754
330
516
100
AcDbEntity
  8
BEM
370
    -2
100
AcDbLine
 10
423.0343872437965
 20
384.3099503830133
 30
0.0
 11
416.0343872437965
 21
384.3099503830133
 31
0.0
  0
LINE
  5
755
330
516
100
AcDbEntity
  8
BEM
370
    -2
100
AcDbLine
 10
449.0343872437982
 20
384.3099503830133
 30
0.0
 11
478.796292005703
 21
384.3099503830133
 31
0.0
  0
LINE
  5
756
330
516
100
AcDbEntity
  8
BEM
370
    -2
100
AcDbLine
 10
430.0343872437966
 20
384.3099503830133
 30
0.0
 11
442.0343872437983
 21
384.3099503830133
 31
0.0
  0
SOLID
  5
757
330
516
100
AcDbEntity
  8
BEM
100
AcDbTrace
 10
423.0343872437965
 20
385.47661704968
 30
0.0
 11
423.0343872437965
 21
383.1432837163466
 31
0.0
 12
430.0343872437966
 22
384.3099503830133
 32
0.0
 13
430.0343872437966
 23
384.3099503830133
 33
0.0
  0
SOLID
  5
758
330
516
100
AcDbEntity
  8
BEM
100
AcDbTrace
 10
449.0343872437982
 20
385.47661704968
 30
0.0
 11
449.0343872437982
 21
383.1432837163466
 31
0.0
 12
442.0343872437983
 22
384.3099503830133
 32
0.0
 13
442.0343872437983
 23
384.3099503830133
 33
0.0
  0
MTEXT
  5
759
330
516
100
AcDbEntity
  8
BEM
100
AcDbMText
 10
467.4153396247507
 20
393.3099503830133
 30
0.0
 40
10.0
 41
0.0
 71
     5
 72
     1
  1
\A1;12
 73
     1
 44
1.0
  0
POINT
  5
75A
330
516
100
AcDbEntity
  8
DEFPOINTS
 62
     0
100
AcDbPoint
 10
442.0343872437983
 20
299.8373642346478
 30
0.0
  0
POINT
  5
75B
330
516
100
AcDbEntity
  8
DEFPOINTS
 62
     0
100
AcDbPoint
 10
430.0343872437966
 20
302.3373642346478
 30
0.0
  0
POINT
  5
75C
330
516
100
AcDbEntity
  8
DEFPOINTS
 62
     0
100
AcDbPoint
 10
430.0343872437966
 20
384.3099503830133
 30
0.0
  0
ENDBLK
  5
518
330
516
100
AcDbEntity
  8
0
 48
10.0
100
AcDbBlockEnd
  0
BLOCK
  5
525
330
524
100
AcDbEntity
  8
0
 48
10.0
100
AcDbBlockBegin
  2
*D36
 70
     1
 10
0.0
 20
0.0
 30
0.0
  3
*D36
  1

  0
LINE
  5
75D
330
524
100
AcDbEntity
  8
BEM
370
    -2
100
AcDbLine
 10
434.0343872437968
 20
278.3373642346478
 30
0.0
 11
434.0343872437968
 21
353.0379817371538
 31
0.0
  0
LINE
  5
75E
330
524
100
AcDbEntity
  8
BEM
370
    -2
100
AcDbLine
 10
430.0343872437966
 20
302.3373642346478
 30
0.0
 11
430.0343872437966
 21
353.0379817371538
 31
0.0
  0
LINE
  5
75F
330
524
100
AcDbEntity
  8
BEM
370
    -2
100
AcDbLine
 10
441.0343872437969
 20
351.7879817371538
 30
0.0
 11
448.0343872437969
 21
351.7879817371538
 31
0.0
  0
LINE
  5
760
330
524
100
AcDbEntity
  8
BEM
370
    -2
100
AcDbLine
 10
423.0343872437965
 20
351.7879817371538
 30
0.0
 11
400.8915301009394
 21
351.7879817371538
 31
0.0
  0
LINE
  5
761
330
524
100
AcDbEntity
  8
BEM
370
    -2
100
AcDbLine
 10
434.0343872437968
 20
351.7879817371538
 30
0.0
 11
430.0343872437966
 21
351.7879817371538
 31
0.0
  0
SOLID
  5
762
330
524
100
AcDbEntity
  8
BEM
100
AcDbTrace
 10
441.0343872437969
 20
352.9546484038205
 30
0.0
 11
441.0343872437969
 21
350.6213150704871
 31
0.0
 12
434.0343872437968
 22
351.7879817371538
 32
0.0
 13
434.0343872437968
 23
351.7879817371538
 33
0.0
  0
SOLID
  5
763
330
524
100
AcDbEntity
  8
BEM
100
AcDbTrace
 10
423.0343872437965
 20
352.9546484038205
 30
0.0
 11
423.0343872437965
 21
350.6213150704871
 31
0.0
 12
430.0343872437966
 22
351.7879817371538
 32
0.0
 13
430.0343872437966
 23
351.7879817371538
 33
0.0
  0
MTEXT
  5
764
330
524
100
AcDbEntity
  8
BEM
100
AcDbMText
 10
408.4629586723679
 20
360.7879817371538
 30
0.0
 40
10.0
 41
0.0
 71
     5
 72
     1
  1
\A1;4
 73
     1
 44
1.0
  0
POINT
  5
765
330
524
100
AcDbEntity
  8
DEFPOINTS
 62
     0
100
AcDbPoint
 10
434.0343872437968
 20
278.3373642346478
 30
0.0
  0
POINT
  5
766
330
524
100
AcDbEntity
  8
DEFPOINTS
 62
     0
100
AcDbPoint
 10
430.0343872437966
 20
302.3373642346478
 30
0.0
  0
POINT
  5
767
330
524
100
AcDbEntity
  8
DEFPOINTS
 62
     0
100
AcDbPoint
 10
430.0343872437966
 20
351.7879817371538
 30
0.0
  0
ENDBLK
  5
526
330
524
100
AcDbEntity
  8
0
 48
10.0
100
AcDbBlockEnd
  0
BLOCK
  5
533
330
532
100
AcDbEntity
  8
0
 48
10.0
100
AcDbBlockBegin
  2
*D37
 70
     1
 10
0.0
 20
0.0
 30
0.0
  3
*D37
  1

  0
LINE
  5
768
330
532
100
AcDbEntity
  8
BEM
370
    -2
100
AcDbLine
 10
991.0142186483957
 20
274.965195577699
 30
0.0
 11
1031.06114485659
 21
315.0121217858956
 31
0.0
  0
LINE
  5
769
330
532
100
AcDbEntity
  8
BEM
370
    -2
100
AcDbLine
 10
939.3863873053444
 20
327.2767513493466
 30
0.0
 11
939.3863873053444
 21
352.9850496908861
 31
0.0
  0
ARC
  5
76A
330
532
100
AcDbEntity
  8
BEM
370
    -2
100
AcDbCircle
 10
939.3863873053444
 20
223.3373642346456
 30
0.0
 40
128.3976854562405
100
AcDbArc
 50
48.12404496572077
 51
86.87595503428035
  0
SOLID
  5
76B
330
532
100
AcDbEntity
  8
BEM
100
AcDbTrace
 10
1025.89659155242
 20
319.7883599456883
 30
0.0
 11
1024.292263985395
 21
318.0940820752884
 31
0.0
 12
1030.177261380107
 22
314.1282383094122
 32
0.0
 13
1030.177261380107
 23
314.1282383094122
 33
0.0
  0
SOLID
  5
76C
330
532
100
AcDbEntity
  8
BEM
100
AcDbTrace
 10
946.3519838903881
 20
350.3780031457972
 30
0.0
 11
946.4155883598742
 21
352.7104694190594
 31
0.0
 12
939.3863873053444
 22
351.7350496908862
 32
0.0
 13
939.3863873053444
 23
351.7350496908862
 33
0.0
  0
MTEXT
  5
76D
330
532
100
AcDbEntity
  8
BEM
100
AcDbMText
 10
993.1977735550196
 20
349.7591134656236
 30
0.0
 40
10.0
 41
0.0
 71
     5
 72
     1
  1
\A1;45\U+00B0
 11
0.9201155668029187
 21
-0.3916469631274365
 31
0.0
 73
     1
 44
1.0
  0
POINT
  5
76E
330
532
100
AcDbEntity
  8
DEFPOINTS
 62
     0
100
AcDbPoint
 10
972.6181536485016
 20
347.3600046525687
 30
0.0
  0
POINT
  5
76F
330
532
100
AcDbEntity
  8
DEFPOINTS
 62
     0
100
AcDbPoint
 10
991.0142186483957
 20
274.965195577699
 30
0.0
  0
POINT
  5
770
330
532
100
AcDbEntity
  8
DEFPOINTS
 62
     0
100
AcDbPoint
 10
939.3863873053444
 20
327.2767513493466
 30
0.0
  0
POINT
  5
771
330
532
100
AcDbEntity
  8
DEFPOINTS
 62
     0
100
AcDbPoint
 10
939.3863873053444
 20
141.9917723013395
 30
0.0
  0
POINT
  5
772
330
532
100
AcDbEntity
  8
DEFPOINTS
 62
     0
100
AcDbPoint
 10
980.2395004064377
 20
264.1904773357408
 30
0.0
  0
ENDBLK
  5
534
330
532
100
AcDbEntity
  8
0
 48
10.0
100
AcDbBlockEnd
  0
BLOCK
  5
541
330
540
100
AcDbEntity
  8
0
 48
10.0
100
AcDbBlockBegin
  2
*D38
 70
     1
 10
0.0
 20
0.0
 30
0.0
  3
*D38
  1

  0
LINE
  5
773
330
540
100
AcDbEntity
  8
BEM
370
    -2
100
AcDbLine
 10
870.8542543659332
 20
201.2614326625741
 30
0.0
 11
864.1914081079349
 21
199.1151615375113
 31
0.0
  0
LINE
  5
774
330
540
100
AcDbEntity
  8
BEM
370
    -2
100
AcDbLine
 10
1007.918520244756
 20
245.4132958067217
 30
0.0
 11
1065.873030244703
 21
264.0819077727757
 31
0.0
  0
LINE
  5
775
330
540
100
AcDbEntity
  8
BEM
370
    -2
100
AcDbLine
 10
877.5171006239315
 20
203.4077037876368
 30
0.0
 11
1001.255673986758
 21
243.2670246816591
 31
0.0
  0
SOLID
  5
776
330
540
100
AcDbEntity
  8
BEM
100
AcDbTrace
 10
870.496542511756
 20
202.3719070389071
 30
0.0
 11
871.2119662201102
 21
200.150958286241
 31
0.0
 12
877.5171006239315
 22
203.4077037876368
 32
0.0
 13
877.5171006239315
 23
203.4077037876368
 33
0.0
  0
SOLID
  5
777
330
540
100
AcDbEntity
  8
BEM
100
AcDbTrace
 10
1007.560808390579
 20
246.5237701830548
 30
0.0
 11
1008.276232098934
 21
244.3028214303887
 31
0.0
 12
1001.255673986758
 22
243.2670246816591
 32
0.0
 13
1001.255673986758
 23
243.2670246816591
 33
0.0
  0
MTEXT
  5
778
102
{ACAD_XDICTIONARY
360
7EB
102
}
330
540
100
AcDbEntity
  8
BEM
100
AcDbMText
 10
1042.762396146213
 20
266.0928071442622
 30
0.0
 40
10.0
 41
0.0
 71
     5
 72
     1
  1
\A1;\U+2205130
 11
0.9518351797140434
 21
0.3066101607232456
 31
0.0
 73
     1
 44
1.0
  0
POINT
  5
779
330
540
100
AcDbEntity
  8
DEFPOINTS
 62
     0
100
AcDbPoint
 10
1001.255673986758
 20
243.2670246816591
 30
0.0
  0
POINT
  5
77A
330
540
100
AcDbEntity
  8
DEFPOINTS
 62
     0
100
AcDbPoint
 10
877.5171006239315
 20
203.4077037876368
 30
0.0
  0
ENDBLK
  5
542
330
540
100
AcDbEntity
  8
0
 48
10.0
100
AcDbBlockEnd
  0
BLOCK
  5
54C
330
54B
100
AcDbEntity
  8
0
 48
10.0
100
AcDbBlockBegin
  2
*D39
 70
     1
 10
0.0
 20
0.0
 30
0.0
  3
*D39
  1

  0
LINE
  5
77B
330
54B
100
AcDbEntity
  8
BEM
370
    -2
100
AcDbLine
 10
734.4204021454736
 20
258.5873642346478
 30
0.0
 11
788.4612791518961
 21
258.5873642346478
 31
0.0
  0
LINE
  5
77C
330
54B
100
AcDbEntity
  8
BEM
370
    -2
100
AcDbLine
 10
643.0254687792849
 20
158.5873642346479
 30
0.0
 11
788.4612791518959
 21
158.5873642346479
 31
0.0
  0
LINE
  5
77D
330
54B
100
AcDbEntity
  8
BEM
370
    -2
100
AcDbLine
 10
787.2112791518959
 20
251.5873642346478
 30
0.0
 11
787.2112791518959
 21
165.5873642346479
 31
0.0
  0
SOLID
  5
77E
330
54B
100
AcDbEntity
  8
BEM
100
AcDbTrace
 10
786.0446124852293
 20
251.5873642346478
 30
0.0
 11
788.3779458185625
 21
251.5873642346478
 31
0.0
 12
787.2112791518961
 22
258.5873642346478
 32
0.0
 13
787.2112791518961
 23
258.5873642346478
 33
0.0
  0
SOLID
  5
77F
330
54B
100
AcDbEntity
  8
BEM
100
AcDbTrace
 10
786.0446124852293
 20
165.5873642346479
 30
0.0
 11
788.3779458185625
 21
165.5873642346479
 31
0.0
 12
787.2112791518959
 22
158.5873642346479
 32
0.0
 13
787.2112791518959
 23
158.5873642346479
 33
0.0
  0
MTEXT
  5
780
330
54B
100
AcDbEntity
  8
BEM
100
AcDbMText
 10
778.2112791518959
 20
208.587364234648
 30
0.0
 40
10.0
 41
0.0
 71
     5
 72
     1
  1
\A1;100
 11
0.0000000000000001
 21
1.0
 31
0.0
 73
     1
 44
1.0
  0
POINT
  5
781
330
54B
100
AcDbEntity
  8
DEFPOINTS
 62
     0
100
AcDbPoint
 10
734.4204021454736
 20
258.5873642346478
 30
0.0
  0
POINT
  5
782
330
54B
100
AcDbEntity
  8
DEFPOINTS
 62
     0
100
AcDbPoint
 10
643.0254687792849
 20
158.5873642346479
 30
0.0
  0
POINT
  5
783
330
54B
100
AcDbEntity
  8
DEFPOINTS
 62
     0
100
AcDbPoint
 10
787.2112791518959
 20
158.5873642346479
 30
0.0
  0
ENDBLK
  5
54D
330
54B
100
AcDbEntity
  8
0
 48
10.0
100
AcDbBlockEnd
  0
BLOCK
  5
558
330
557
100
AcDbEntity
  8
0
 48
10.0
100
AcDbBlockBegin
  2
*D40
 70
     1
 10
0.0
 20
0.0
 30
0.0
  3
*D40
  1

  0
LINE
  5
784
330
557
100
AcDbEntity
  8
BEM
370
    -2
100
AcDbLine
 10
725.0343872437979
 20
319.5873642346478
 30
0.0
 11
816.0845519289512
 21
319.5873642346478
 31
0.0
  0
LINE
  5
785
330
557
100
AcDbEntity
  8
BEM
370
    -2
100
AcDbLine
 10
794.0140033071445
 20
188.5873642346478
 30
0.0
 11
816.0845519289512
 21
188.5873642346478
 31
0.0
  0
LINE
  5
786
330
557
100
AcDbEntity
  8
BEM
370
    -2
100
AcDbLine
 10
814.8345519289513
 20
312.5873642346478
 30
0.0
 11
814.8345519289511
 21
195.5873642346478
 31
0.0
  0
SOLID
  5
787
330
557
100
AcDbEntity
  8
BEM
100
AcDbTrace
 10
813.6678852622846
 20
312.5873642346478
 30
0.0
 11
816.001218595618
 21
312.5873642346478
 31
0.0
 12
814.8345519289513
 22
319.5873642346478
 32
0.0
 13
814.8345519289513
 23
319.5873642346478
 33
0.0
  0
SOLID
  5
788
330
557
100
AcDbEntity
  8
BEM
100
AcDbTrace
 10
813.6678852622846
 20
195.5873642346478
 30
0.0
 11
816.0012185956178
 21
195.5873642346478
 31
0.0
 12
814.8345519289511
 22
188.5873642346478
 32
0.0
 13
814.8345519289511
 23
188.5873642346478
 33
0.0
  0
MTEXT
  5
789
330
557
100
AcDbEntity
  8
BEM
100
AcDbMText
 10
805.8345519289511
 20
254.0873642346479
 30
0.0
 40
10.0
 41
0.0
 71
     5
 72
     1
  1
\A1;131
 11
0.0000000000000001
 21
1.0
 31
0.0
 73
     1
 44
1.0
  0
POINT
  5
78A
330
557
100
AcDbEntity
  8
DEFPOINTS
 62
     0
100
AcDbPoint
 10
725.0343872437979
 20
319.5873642346478
 30
0.0
  0
POINT
  5
78B
330
557
100
AcDbEntity
  8
DEFPOINTS
 62
     0
100
AcDbPoint
 10
794.0140033071445
 20
188.5873642346478
 30
0.0
  0
POINT
  5
78C
330
557
100
AcDbEntity
  8
DEFPOINTS
 62
     0
100
AcDbPoint
 10
814.8345519289511
 20
188.5873642346478
 30
0.0
  0
ENDBLK
  5
559
330
557
100
AcDbEntity
  8
0
 48
10.0
100
AcDbBlockEnd
  0
BLOCK
  5
564
330
563
100
AcDbEntity
  8
0
 48
10.0
100
AcDbBlockBegin
  2
*D41
 70
     1
 10
0.0
 20
0.0
 30
0.0
  3
*D41
  1

  0
LINE
  5
78D
330
563
100
AcDbEntity
  8
BEM
370
    -2
100
AcDbLine
 10
734.4204021454736
 20
258.5873642346478
 30
0.0
 11
755.8131440650303
 21
258.5873642346478
 31
0.0
  0
LINE
  5
78E
330
563
100
AcDbEntity
  8
BEM
370
    -2
100
AcDbLine
 10
715.483876986581
 20
177.5873642346477
 30
0.0
 11
755.8131440650302
 21
177.5873642346477
 31
0.0
  0
LINE
  5
78F
330
563
100
AcDbEntity
  8
BEM
370
    -2
100
AcDbLine
 10
754.5631440650302
 20
251.5873642346478
 30
0.0
 11
754.5631440650302
 21
184.5873642346477
 31
0.0
  0
SOLID
  5
790
330
563
100
AcDbEntity
  8
BEM
100
AcDbTrace
 10
753.3964773983635
 20
251.5873642346478
 30
0.0
 11
755.7298107316968
 21
251.5873642346478
 31
0.0
 12
754.5631440650303
 22
258.5873642346478
 32
0.0
 13
754.5631440650303
 23
258.5873642346478
 33
0.0
  0
SOLID
  5
791
330
563
100
AcDbEntity
  8
BEM
100
AcDbTrace
 10
753.3964773983635
 20
184.5873642346477
 30
0.0
 11
755.7298107316968
 21
184.5873642346477
 31
0.0
 12
754.5631440650302
 22
177.5873642346477
 32
0.0
 13
754.5631440650302
 23
177.5873642346477
 33
0.0
  0
MTEXT
  5
792
330
563
100
AcDbEntity
  8
BEM
100
AcDbMText
 10
745.5631440650302
 20
218.0873642346479
 30
0.0
 40
10.0
 41
0.0
 71
     5
 72
     1
  1
\A1;81
 11
0.0000000000000001
 21
1.0
 31
0.0
 73
     1
 44
1.0
  0
POINT
  5
793
330
563
100
AcDbEntity
  8
DEFPOINTS
 62
     0
100
AcDbPoint
 10
734.4204021454736
 20
258.5873642346478
 30
0.0
  0
POINT
  5
794
330
563
100
AcDbEntity
  8
DEFPOINTS
 62
     0
100
AcDbPoint
 10
715.483876986581
 20
177.5873642346477
 30
0.0
  0
POINT
  5
795
330
563
100
AcDbEntity
  8
DEFPOINTS
 62
     0
100
AcDbPoint
 10
754.5631440650302
 20
177.5873642346477
 30
0.0
  0
ENDBLK
  5
565
330
563
100
AcDbEntity
  8
0
 48
10.0
100
AcDbBlockEnd
  0
BLOCK
  5
570
330
56F
100
AcDbEntity
  8
0
 48
10.0
100
AcDbBlockBegin
  2
*D42
 70
     1
 10
0.0
 20
0.0
 30
0.0
  3
*D42
  1

  0
LINE
  5
796
330
56F
100
AcDbEntity
  8
BEM
370
    -2
100
AcDbLine
 10
695.0343872437979
 20
173.4882335111995
 30
0.0
 11
695.0343872437979
 21
110.0586649425695
 31
0.0
  0
LINE
  5
797
330
56F
100
AcDbEntity
  8
BEM
370
    -2
100
AcDbLine
 10
622.0343872437979
 20
155.3782300990805
 30
0.0
 11
622.0343872437979
 21
110.0586649425695
 31
0.0
  0
LINE
  5
798
330
56F
100
AcDbEntity
  8
BEM
370
    -2
100
AcDbLine
 10
688.0343872437979
 20
111.3086649425695
 30
0.0
 11
629.0343872437979
 21
111.3086649425695
 31
0.0
  0
SOLID
  5
799
330
56F
100
AcDbEntity
  8
BEM
100
AcDbTrace
 10
688.0343872437979
 20
112.4753316092362
 30
0.0
 11
688.0343872437979
 21
110.1419982759028
 31
0.0
 12
695.0343872437979
 22
111.3086649425695
 32
0.0
 13
695.0343872437979
 23
111.3086649425695
 33
0.0
  0
SOLID
  5
79A
330
56F
100
AcDbEntity
  8
BEM
100
AcDbTrace
 10
629.0343872437979
 20
112.4753316092362
 30
0.0
 11
629.0343872437979
 21
110.1419982759028
 31
0.0
 12
622.0343872437979
 22
111.3086649425695
 32
0.0
 13
622.0343872437979
 23
111.3086649425695
 33
0.0
  0
MTEXT
  5
79B
330
56F
100
AcDbEntity
  8
BEM
100
AcDbMText
 10
658.5343872437979
 20
120.3086649425695
 30
0.0
 40
10.0
 41
0.0
 71
     5
 72
     1
  1
\A1;73
 73
     1
 44
1.0
  0
POINT
  5
79C
330
56F
100
AcDbEntity
  8
DEFPOINTS
 62
     0
100
AcDbPoint
 10
695.0343872437979
 20
173.4882335111995
 30
0.0
  0
POINT
  5
79D
330
56F
100
AcDbEntity
  8
DEFPOINTS
 62
     0
100
AcDbPoint
 10
622.0343872437979
 20
155.3782300990805
 30
0.0
  0
POINT
  5
79E
330
56F
100
AcDbEntity
  8
DEFPOINTS
 62
     0
100
AcDbPoint
 10
622.0343872437979
 20
111.3086649425695
 30
0.0
  0
ENDBLK
  5
571
330
56F
100
AcDbEntity
  8
0
 48
10.0
100
AcDbBlockEnd
  0
BLOCK
  5
57C
330
57B
100
AcDbEntity
  8
0
 48
10.0
100
AcDbBlockBegin
  2
*D43
 70
     1
 10
0.0
 20
0.0
 30
0.0
  3
*D43
  1

  0
LINE
  5
79F
330
57B
100
AcDbEntity
  8
BEM
370
    -2
100
AcDbLine
 10
974.1365198784892
 20
179.9338129503788
 30
0.0
 11
967.3119409717186
 21
181.4910935112483
 31
0.0
  0
LINE
  5
7A0
330
57B
100
AcDbEntity
  8
BEM
370
    -2
100
AcDbLine
 10
996.5601362864497
 20
174.8170339646649
 30
0.0
 11
1033.269097417925
 21
166.4405242399338
 31
0.0
  0
LINE
  5
7A1
330
57B
100
AcDbEntity
  8
BEM
370
    -2
100
AcDbLine
 10
980.9610987852597
 20
178.3765323895094
 30
0.0
 11
989.735557379679
 21
176.3743145255344
 31
0.0
  0
SOLID
  5
7A2
330
57B
100
AcDbEntity
  8
BEM
100
AcDbTrace
 10
974.3960666386342
 20
181.0712427681739
 30
0.0
 11
973.8769731183444
 21
178.7963831325837
 31
0.0
 12
980.9610987852597
 22
178.3765323895094
 32
0.0
 13
980.9610987852597
 23
178.3765323895094
 33
0.0
  0
SOLID
  5
7A3
330
57B
100
AcDbEntity
  8
BEM
100
AcDbTrace
 10
996.8196830465947
 20
175.95446378246
 30
0.0
 11
996.3005895263048
 21
173.6796041468698
 31
0.0
 12
989.735557379679
 22
176.3743145255344
 32
0.0
 13
989.735557379679
 23
176.3743145255344
 33
0.0
  0
MTEXT
  5
7A4
102
{ACAD_XDICTIONARY
360
7ED
102
}
330
57B
100
AcDbEntity
  8
BEM
100
AcDbMText
 10
1023.943442810798
 20
177.7998566904904
 30
0.0
 40
10.0
 41
0.0
 71
     5
 72
     1
  1
\A1;\U+22059
 11
0.9749398438243705
 21
-0.222468651552779
 31
0.0
 73
     1
 44
1.0
  0
POINT
  5
7A5
330
57B
100
AcDbEntity
  8
DEFPOINTS
 62
     0
100
AcDbPoint
 10
989.735557379679
 20
176.3743145255344
 30
0.0
  0
POINT
  5
7A6
330
57B
100
AcDbEntity
  8
DEFPOINTS
 62
     0
100
AcDbPoint
 10
980.9610987852597
 20
178.3765323895094
 30
0.0
  0
ENDBLK
  5
57D
330
57B
100
AcDbEntity
  8
0
 48
10.0
100
AcDbBlockEnd
  0
BLOCK
  5
587
330
586
100
AcDbEntity
  8
0
 48
10.0
100
AcDbBlockBegin
  2
*D44
 70
     1
 10
0.0
 20
0.0
 30
0.0
  3
*D44
  1

  0
LINE
  5
7A7
330
586
100
AcDbEntity
  8
BEM
370
    -2
100
AcDbLine
 10
854.9798698430382
 20
239.8158292689103
 30
0.0
 11
848.1095719100597
 21
241.1570996786758
 31
0.0
  0
LINE
  5
7A8
330
586
100
AcDbEntity
  8
BEM
370
    -2
100
AcDbLine
 10
1023.79290476765
 20
206.8588992003854
 30
0.0
 11
1081.813419850081
 21
195.5317048343495
 31
0.0
  0
LINE
  5
7A9
330
586
100
AcDbEntity
  8
BEM
370
    -2
100
AcDbLine
 10
861.8501677760166
 20
238.4745588591447
 30
0.0
 11
1016.922606834672
 21
208.200169610151
 31
0.0
  0
SOLID
  5
7AA
330
586
100
AcDbEntity
  8
BEM
100
AcDbTrace
 10
855.2034149113325
 20
240.9608789244067
 30
0.0
 11
854.7563247747438
 21
238.6707796134138
 31
0.0
 12
861.8501677760166
 22
238.4745588591447
 32
0.0
 13
861.8501677760166
 23
238.4745588591447
 33
0.0
  0
SOLID
  5
7AB
330
586
100
AcDbEntity
  8
BEM
100
AcDbTrace
 10
1024.016449835944
 20
208.0039488558819
 30
0.0
 11
1023.569359699356
 21
205.713849544889
 31
0.0
 12
1016.922606834672
 22
208.200169610151
 32
0.0
 13
1016.922606834672
 23
208.200169610151
 33
0.0
  0
MTEXT
  5
7AC
102
{ACAD_XDICTIONARY
360
7EF
102
}
330
586
100
AcDbEntity
  8
BEM
100
AcDbMText
 10
1062.553122812928
 20
208.4617505712043
 30
0.0
 40
10.0
 41
0.0
 71
     5
 72
     1
  1
\A1;\U+2205158
 11
0.9814711332826295
 21
-0.1916100585379353
 31
0.0
 73
     1
 44
1.0
  0
POINT
  5
7AD
330
586
100
AcDbEntity
  8
DEFPOINTS
 62
     0
100
AcDbPoint
 10
1016.922606834672
 20
208.200169610151
 30
0.0
  0
POINT
  5
7AE
330
586
100
AcDbEntity
  8
DEFPOINTS
 62
     0
100
AcDbPoint
 10
861.8501677760166
 20
238.4745588591447
 30
0.0
  0
ENDBLK
  5
588
330
586
100
AcDbEntity
  8
0
 48
10.0
100
AcDbBlockEnd
  0
ENDSEC
  0
SECTION
  2
ENTITIES
  0
LINE
  5
1D
330
2
100
AcDbEntity
  8
0
100
AcDbLine
 10
511.0343872437978
 20
324.5873642346479
 30
0.0
 11
518.0343872437978
 21
324.5873642346479
 31
0.0
1001
ACAD
1000
ASC_BOUNDS
1002
{
1070
    19
1005
0
1002
}
  0
LINE
  5
1E
330
2
100
AcDbEntity
  8
0
100
AcDbLine
 10
511.0343872437988
 20
181.5873642346477
 30
0.0
 11
518.0343872437988
 21
181.5873642346477
 31
0.0
1001
ACAD
1000
ASC_BOUNDS
1002
{
1070
    19
1005
0
1002
}
  0
DIMENSION
  5
20
330
2
100
AcDbEntity
  8
BEM
100
AcDbDimension
  2
*D25
 10
430.0343872437983
 20
111.3086649425695
 30
0.0
 11
526.0343872437982
 21
120.3086649425695
 31
0.0
 70
    32
 71
     5
 42
191.9999999999996
  3
ISO-25
100
AcDbAlignedDimension
 13
622.0343872437979
 23
145.7990924512946
 33
0.0
 14
430.0343872437983
 24
144.3373642346478
 34
0.0
100
AcDbRotatedDimension
1001
ACAD
1000
DSTYLE
1002
{
1070
    40
1040
1.0
1002
}
  0
DIMENSION
  5
2F
330
2
100
AcDbEntity
  8
BEM
100
AcDbDimension
  2
*D26
 10
730.0343872437979
 20
416.903630480135
 30
0.0
 11
580.0343872437972
 21
425.903630480135
 31
0.0
 70
    32
 71
     5
 42
300.0000000000014
  3
ISO-25
100
AcDbAlignedDimension
 13
430.0343872437966
 23
302.3373642346478
 33
0.0
 14
730.0343872437979
 24
314.5873642346478
 34
0.0
100
AcDbRotatedDimension
1001
ACAD
1000
DSTYLE
1002
{
1070
    40
1040
1.0
1002
}
  0
DIMENSION
  5
3C
330
2
100
AcDbEntity
  8
BEM
100
AcDbDimension
  2
*D27
 10
375.0343872437982
 20
448.6383130561718
 30
0.0
 11
552.534387243798
 21
457.6383130561719
 31
0.0
 70
    32
 71
     5
 42
354.9999999999997
  3
ISO-25
100
AcDbAlignedDimension
 13
730.0343872437979
 23
314.5873642346478
 33
0.0
 14
375.0343872437982
 24
234.3373642346478
 34
0.0
100
AcDbRotatedDimension
1001
ACAD
1000
DSTYLE
1002
{
1070
    40
1040
1.0
1002
}
  0
LINE
  5
49
330
2
100
AcDbEntity
  8
MITTE
 48
15.0
100
AcDbLine
 10
371.3353813924314
 20
223.3373642346478
 30
0.0
 11
520.496036450738
 21
223.3373642346478
 31
0.0
  0
LINE
  5
4C
330
2
100
AcDbEntity
  8
MITTE
 48
15.0
100
AcDbLine
 10
505.2921587842811
 20
258.5873642346478
 30
0.0
 11
734.4204021454736
 21
258.5873642346478
 31
0.0
  0
ARC
  5
4D
330
2
100
AcDbEntity
  8
0
100
AcDbCircle
 10
312.3811500780892
 20
266.5873642346478
 30
0.0
 40
100.0
100
AcDbArc
 50
184.5885657357852
 51
229.0739366903953
1001
ACAD
1000
ASC_BOUNDS
1002
{
1070
    19
1005
0
1002
}
  0
LINE
  5
4E
330
2
100
AcDbEntity
  8
0
100
AcDbLine
 10
212.7016637230722
 20
258.5873642346478
 30
0.0
 11
212.7016637230722
 21
191.0873642346478
 31
0.0
  0
LINE
  5
4F
330
2
100
AcDbEntity
  8
0
100
AcDbLine
 10
212.7016637230722
 20
258.5873642346482
 30
0.0
 11
212.7016637230722
 21
191.0873642346478
 31
0.0
  0
ARC
  5
50
330
2
100
AcDbEntity
  8
0
100
AcDbCircle
 10
273.7016637230722
 20
223.3373642346478
 30
0.0
 40
76.5
100
AcDbArc
 50
141.2765480274878
 51
220.1191668984059
  0
ARC
  5
51
330
2
100
AcDbEntity
  8
0
100
AcDbCircle
 10
273.7016637230722
 20
223.3373642346478
 30
0.0
 40
79.0
100
AcDbArc
 50
137.5019138175592
 51
222.2254350822095
  0
ARC
  5
52
330
2
100
AcDbEntity
  8
0
100
AcDbCircle
 10
273.7016637230722
 20
258.587364234648
 30
0.0
 40
65.81669415865359
100
AcDbArc
 50
179.5853943548262
 51
202.0561142201635
  0
ARC
  5
53
330
2
100
AcDbEntity
  8
0
100
AcDbCircle
 10
235.0221773680553
 20
266.5873642346478
 30
0.0
 40
100.0
100
AcDbArc
 50
310.9260633096047
 51
355.4114342642147
1001
ACAD
1000
ASC_BOUNDS
1002
{
1070
    19
1005
0
1002
}
  0
LINE
  5
54
330
2
100
AcDbEntity
  8
0
100
AcDbLine
 10
334.7016637230722
 20
258.5873642346478
 30
0.0
 11
334.7016637230722
 21
191.0873642346478
 31
0.0
  0
LINE
  5
55
330
2
100
AcDbEntity
  8
0
100
AcDbLine
 10
334.7016637230722
 20
258.5873642346484
 30
0.0
 11
334.7016637230722
 21
191.0873642346478
 31
0.0
  0
ARC
  5
56
330
2
100
AcDbEntity
  8
0
100
AcDbCircle
 10
273.7016637230722
 20
223.3373642346478
 30
0.0
 40
76.5
100
AcDbArc
 50
319.8808331015941
 51
38.72345197251213
  0
ARC
  5
57
330
2
100
AcDbEntity
  8
0
100
AcDbCircle
 10
273.7016637230722
 20
223.3373642346478
 30
0.0
 40
79.0
100
AcDbArc
 50
317.7745649177905
 51
42.49808618244077
  0
LINE
  5
58
330
2
100
AcDbEntity
  8
0
100
AcDbLine
 10
511.0343872437978
 20
324.5873642346479
 30
0.0
 11
511.0343872437988
 21
181.5873642346478
 31
0.0
1001
ACAD
1000
ASC_BOUNDS
1002
{
1070
    19
1005
0
1005
0
1005
0
1005
0
1002
}
  0
LINE
  5
59
330
2
100
AcDbEntity
  8
0
100
AcDbLine
 10
443.0343872437982
 20
278.3373642346478
 30
0.0
 11
443.0343872437982
 21
168.3373642346478
 31
0.0
  0
LINE
  5
5A
330
2
100
AcDbEntity
  8
0
100
AcDbLine
 10
442.0343872437962
 20
146.8373642346458
 30
0.0
 11
442.0343872437983
 21
299.8373642346478
 31
0.0
  0
LINE
  5
5B
330
2
100
AcDbEntity
  8
0
100
AcDbLine
 10
430.0343872437966
 20
302.3373642346478
 30
0.0
 11
430.0343872437983
 21
144.3373642346478
 31
0.0
  0
LINE
  5
5C
330
2
100
AcDbEntity
  8
0
100
AcDbLine
 10
439.5343872437983
 20
302.3373642346478
 30
0.0
 11
439.5343872437982
 21
144.3373642346478
 31
0.0
  0
DIMENSION
  5
5E
330
2
100
AcDbEntity
  8
BEM
100
AcDbDimension
  2
*D28
 10
218.2953260256632
 20
223.3373642346478
 30
0.0
 11
218.2953260256631
 21
240.9623642346478
 31
0.0
 70
   160
  1
35.2
 71
     5
 42
35.25000000000003
  3
ISO-25
100
AcDbAlignedDimension
 13
160.5596530192949
 23
258.5873642346478
 33
0.0
 14
176.8733686125692
 24
223.3373642346478
 34
0.0
 50
90.0
100
AcDbRotatedDimension
1001
ACAD
1000
DSTYLE
1002
{
1070
    40
1040
1.0
1002
}
  0
DIMENSION
  5
6B
330
2
100
AcDbEntity
  8
BEM
100
AcDbDimension
  2
*D29
 10
272.3540954955274
 20
144.3373642346478
 30
0.0
 11
263.3540954955273
 21
234.4623642346479
 31
0.0
 70
    32
  1
180
 71
     5
 42
180.2500000000001
  3
ISO-25
100
AcDbAlignedDimension
 13
511.0343872437978
 23
324.5873642346479
 33
0.0
 14
430.0343872437983
 24
144.3373642346478
 34
0.0
 50
90.0
100
AcDbRotatedDimension
1001
ACAD
1000
DSTYLE
1002
{
1070
    40
1040
1.0
1002
}
  0
DIMENSION
  5
78
330
2
100
AcDbEntity
  8
BEM
100
AcDbDimension
  2
*D30
 10
304.0371640289718
 20
168.3373642346478
 30
0.0
 11
295.0371640289717
 21
223.3373642346478
 31
0.0
 70
    32
  1
%%c<>
 71
     5
 42
110.0
  3
ISO-25
100
AcDbAlignedDimension
 13
430.0343872437969
 23
278.3373642346478
 33
0.0
 14
369.6748334265813
 24
168.3373642346477
 34
0.0
 50
90.0
100
AcDbRotatedDimension
1001
ACAD
1000
DSTYLE
1002
{
1070
    40
1040
1.0
1002
}
  0
LINE
  5
85
330
2
100
AcDbEntity
  8
MITTE
 48
10.0
100
AcDbLine
 10
273.7016637230722
 20
328.3392814793006
 30
0.0
 11
273.7016637230722
 21
138.5690760286538
 31
0.0
  0
HATCH
  5
86
330
2
100
AcDbEntity
  8
LINIE
 48
10.0
100
AcDbHatch
 10
0.0
 20
0.0
 30
0.0
210
0.0
220
0.0
230
1.0
  2
AR-CONC
 70
     0
 71
     0
 91
        2
 92
        7
 72
     1
 73
     1
 93
        6
 10
212.7016637230722
 20
258.5873642346481
 42
0.1965790673635085
 10
246.8726924203839
 20
191.0318086790922
 42
0.1804963181033798
 10
253.4235381861544
 20
188.5873642346478
 42
0.0
 10
293.97978925999
 20
188.5873642346478
 42
0.1804963181033815
 10
300.5306350257605
 20
191.0318086790922
 42
0.1965790673635087
 10
334.7016637230722
 20
258.5873642346482
 42
1.0
 97
        0
 92
        7
 72
     1
 73
     1
 93
       10
 10
296.2016637230722
 20
186.0873642346478
 42
-0.4142135623730951
 10
298.7016637230722
 20
188.5873642346478
 42
0.0
 10
289.2016637230722
 20
188.5873642346478
 42
0.0
 10
248.7016637230722
 20
188.5873642346478
 42
-0.4142135623730951
 10
251.2016637230722
 20
186.0873642346478
 42
0.0
 10
251.2016637230722
 20
178.0873642346478
 42
0.0503820444849804
 10
251.2521739802892
 20
177.5873642346469
 42
0.0
 10
296.1511534658552
 20
177.5873642346469
 42
0.0568446423399838
 10
296.2008332526843
 20
178.1517976286187
 42
-0.0000090034323923
 10
296.2016637230722
 20
178.1519867156531
 42
0.0
 97
        0
 75
     0
 76
     1
 52
0.0
 41
2.0
 77
     0
 78
    13
 53
50.0
 43
316.8699221340153
 44
-67.12234548710558
 45
14.34520365201507
 46
-1.255042699651902
 79
     2
 49
1.5
 49
-16.5
 53
355.0
 43
316.8699221340153
 44
-67.12234548710558
 45
-2.77502667226
 46
15.04384267400024
 79
     2
 49
1.199999999999999
 49
-13.2
 53
100.4514
 43
318.0653557340153
 44
-67.22693228710557
 45
11.57018763428043
 46
13.78879084121907
 79
     2
 49
1.274803799999999
 49
-14.02284223999999
 53
46.1842
 43
316.8699221340153
 44
-63.12234548710558
 45
21.34482097251289
 46
-3.310380286580361
 79
     2
 49
2.25
 49
-24.75
 53
96.63559999999996
 43
318.6486570340153
 44
-63.39821162710558
 45
18.69325411097406
 46
19.48235741800883
 79
     2
 49
1.912205759999998
 49
-21.03425999999998
 53
351.1842000000001
 43
316.8699221340153
 44
-63.12234548710558
 45
18.69323890267254
 46
19.48237201850649
 79
     2
 49
1.8
 49
-19.8
 53
21.0
 43
318.8699221340153
 44
-64.12234548710557
 45
11.93814104236923
 46
-8.052377813306776
 79
     2
 49
1.5
 49
-16.5
 53
326.0
 43
318.8699221340153
 44
-64.12234548710557
 45
4.866306638431634
 46
14.50300090093706
 79
     2
 49
1.199999999999999
 49
-13.2
 53
71.45140000000001
 43
319.8647667940153
 44
-64.79337760710558
 45
16.8044525716298
 46
6.450609934199047
 79
     2
 49
1.2748038
 49
-14.02284224
 53
37.5
 43
316.8699221340153
 44
-67.12234548710558
 45
0.2431971063458134
 46
6.657877076626229
 79
     6
 49
0.0
 49
-13.04
 49
0.0
 49
-13.4
 49
0.0
 49
-13.25
 53
7.499999999999999
 43
316.8699221340153
 44
-67.12234548710558
 45
5.261390748842972
 46
7.888234237647204
 79
     6
 49
0.0
 49
-7.639999999999999
 49
0.0
 49
-12.74
 49
0.0
 49
-5.049999999999999
 53
327.5
 43
312.4099221340153
 44
-67.12234548710558
 45
10.67644872344818
 46
-0.451097434687596
 79
     6
 49
0.0
 49
-5.0
 49
0.0
 49
-15.6
 49
0.0
 49
-20.7
 53
317.5
 43
310.4099221340153
 44
-67.12234548710558
 45
11.66372338684772
 46
2.002099646646352
 79
     6
 49
0.0
 49
-6.5
 49
0.0
 49
-10.36
 49
0.0
 49
-14.7
 47
0.4120896387672359
 98
        2
 10
287.3318852832003
 20
267.3423386336485
 10
275.7895265975331
 20
183.6881414518452
  0
LINE
  5
89
330
2
100
AcDbEntity
  8
LINIE
  6
STRICHLINIE
 48
10.0
100
AcDbLine
 10
434.0343872437968
 20
278.3373642346478
 30
0.0
 11
434.034387243798
 21
168.3373642346477
 31
0.0
  0
LINE
  5
8B
330
2
100
AcDbEntity
  8
LINIE
 48
10.0
100
AcDbLine
 10
479.0440061870316
 20
233.8373642346478
 30
0.0
 11
479.0440061870316
 21
246.8820962666268
 31
0.0
  0
LINE
  5
8C
330
2
100
AcDbEntity
  8
0
100
AcDbLine
 10
258.2016637230722
 20
188.5873642346478
 30
0.0
 11
213.2016637230722
 21
188.5873642346478
 31
0.0
1001
ACAD
1000
ASC_BOUNDS
1002
{
1070
    19
1002
}
  0
LINE
  5
8D
330
2
100
AcDbEntity
  8
0
100
AcDbLine
 10
255.2016637230723
 20
158.5873642346479
 30
0.0
 11
216.2016637230723
 21
158.5873642346479
 31
0.0
1001
ACAD
1000
ASC_BOUNDS
1002
{
1070
    19
1005
0
1002
}
  0
LINE
  5
8E
330
2
100
AcDbEntity
  8
0
100
AcDbLine
 10
215.2016637230722
 20
188.5873642346478
 30
0.0
 11
332.2016637230722
 21
188.5873642346478
 31
0.0
1001
ACAD
1000
ASC_BOUNDS
1002
{
1070
    19
1005
0
1002
}
  0
ARC
  5
8F
330
2
100
AcDbEntity
  8
0
100
AcDbCircle
 10
225.4516637230723
 20
182.237364234648
 30
0.0
 40
23.65000000000001
100
AcDbArc
 50
250.148397768416
 51
289.851602231584
  0
ARC
  5
90
330
2
100
AcDbEntity
  8
0
100
AcDbCircle
 10
225.4516637230723
 20
156.0920647730273
 30
0.0
 40
23.65000000000001
100
AcDbArc
 50
70.14839776841597
 51
109.851602231584
  0
LINE
  5
91
330
2
100
AcDbEntity
  8
0
100
AcDbLine
 10
213.2016637230722
 20
179.7420647730273
 30
0.0
 11
251.2016637230724
 21
179.7420647730272
 31
0.0
  0
LINE
  5
92
330
2
100
AcDbEntity
  8
MITTE
 48
10.0
100
AcDbLine
 10
357.5336580850353
 20
223.3373642346478
 30
0.0
 11
190.4792432261688
 21
223.3373642346478
 31
0.0
  0
LINE
  5
93
330
2
100
AcDbEntity
  8
MITTE
 48
10.0
100
AcDbLine
 10
357.5336580850353
 20
223.3373642346478
 30
0.0
 11
190.4792432261688
 21
223.3373642346478
 31
0.0
  0
LINE
  5
94
330
2
100
AcDbEntity
  8
0
100
AcDbLine
 10
217.4204745209677
 20
159.9927581468791
 30
0.0
 11
217.4204745209677
 21
178.336670860796
 31
0.0
  0
LINE
  5
95
330
2
100
AcDbEntity
  8
0
100
AcDbLine
 10
215.2016637230723
 20
159.5873642346479
 30
0.0
 11
215.2016637230723
 21
178.587364234648
 31
0.0
1001
ACAD
1000
ASC_BOUNDS
1002
{
1070
    19
1002
}
  0
LINE
  5
97
330
2
100
AcDbEntity
  8
0
100
AcDbLine
 10
215.2016637230723
 20
159.5873642346479
 30
0.0
 11
217.4204745209677
 21
159.9927581468791
 31
0.0
  0
LINE
  5
98
330
2
100
AcDbEntity
  8
0
100
AcDbLine
 10
215.2016637230723
 20
159.5873642346479
 30
0.0
 11
216.2016637230723
 21
158.5873642346479
 31
0.0
1001
ACAD
1000
ASC_BOUNDS
1002
{
1070
    19
1002
}
  0
LINE
  5
99
330
2
100
AcDbEntity
  8
0
100
AcDbLine
 10
213.2016637230722
 20
179.7420647730273
 30
0.0
 11
213.2016637230722
 21
188.5873642346478
 31
0.0
1001
ACAD
1000
ASC_BOUNDS
1002
{
1070
    19
1002
}
  0
LINE
  5
9A
330
2
100
AcDbEntity
  8
0
100
AcDbLine
 10
215.2016637230723
 20
178.587364234648
 30
0.0
 11
217.4204745209677
 21
178.336670860796
 31
0.0
  0
LINE
  5
9B
330
2
100
AcDbEntity
  8
0
100
AcDbLine
 10
215.2016637230723
 20
178.587364234648
 30
0.0
 11
213.2016637230722
 21
179.7420647730273
 31
0.0
1001
ACAD
1000
ASC_BOUNDS
1002
{
1070
    19
1002
}
  0
ARC
  5
9C
330
2
100
AcDbEntity
  8
0
100
AcDbCircle
 10
215.2016637230722
 20
191.0873642346478
 30
0.0
 40
2.5
100
AcDbArc
 50
180.0
 51
270.0
  0
ARC
  5
9D
330
2
100
AcDbEntity
  8
0
100
AcDbCircle
 10
215.2016637230722
 20
191.0873642346478
 30
0.0
 40
2.5
100
AcDbArc
 50
180.0
 51
270.0
  0
ARC
  5
9E
330
2
100
AcDbEntity
  8
0
100
AcDbCircle
 10
273.7016637230722
 20
223.3373642346478
 30
0.0
 40
79.0
100
AcDbArc
 50
235.0467976873825
 51
304.9532023126175
  0
ARC
  5
9F
330
2
100
AcDbEntity
  8
0
100
AcDbCircle
 10
273.7016637230722
 20
223.3373642346478
 30
0.0
 40
76.5
100
AcDbArc
 50
237.822808550867
 51
302.1771914491329
  0
DIMENSION
  5
A0
330
2
100
AcDbEntity
  8
BEM
100
AcDbDimension
  2
*D31
 10
55.04137425060616
 20
110.0586649425695
 30
0.0
 11
97.00595660071622
 21
110.0586649425695
 31
0.0
 70
   160
 71
     5
 42
76.0
  3
ISO-25
100
AcDbAlignedDimension
 13
131.0413742506062
 23
155.5296036270415
 33
0.0
 14
55.04137425060616
 24
155.5296036270415
 34
0.0
100
AcDbRotatedDimension
1001
ACAD
1000
DSTYLE
1002
{
1070
    40
1040
1.0
1002
}
  0
ARC
  5
AF
330
2
100
AcDbEntity
  8
0
100
AcDbCircle
 10
301.4516637230723
 20
156.0920647730273
 30
0.0
 40
23.65000000000001
100
AcDbArc
 50
70.14839776841597
 51
102.8257844304613
  0
ARC
  5
B0
330
2
100
AcDbEntity
  8
0
100
AcDbCircle
 10
301.4516637230723
 20
182.237364234648
 30
0.0
 40
23.65000000000001
100
AcDbArc
 50
250.148397768416
 51
289.851602231584
  0
LINE
  5
B1
330
2
100
AcDbEntity
  8
0
100
AcDbLine
 10
334.2016637230722
 20
188.5873642346478
 30
0.0
 11
289.2016637230722
 21
188.5873642346478
 31
0.0
1001
ACAD
1000
ASC_BOUNDS
1002
{
1070
    19
1002
}
  0
LINE
  5
B2
330
2
100
AcDbEntity
  8
0
100
AcDbLine
 10
296.2016637230723
 20
179.7420647730273
 30
0.0
 11
334.2016637230723
 21
179.7420647730272
 31
0.0
  0
LINE
  5
B3
330
2
100
AcDbEntity
  8
0
100
AcDbLine
 10
331.2016637230723
 20
158.5873642346479
 30
0.0
 11
292.2016637230722
 21
158.5873642346479
 31
0.0
1001
ACAD
1000
ASC_BOUNDS
1002
{
1070
    19
1005
0
1002
}
  0
LINE
  5
B4
330
2
100
AcDbEntity
  8
0
100
AcDbLine
 10
251.2521739802893
 20
177.5873642346469
 30
0.0
 11
296.1511534658553
 21
177.5873642346469
 31
0.0
  0
ARC
  5
B5
330
2
100
AcDbEntity
  8
0
100
AcDbCircle
 10
273.7016637230722
 20
223.3373642346478
 30
0.0
 40
55.0
100
AcDbArc
 50
251.4469954649797
 51
288.5530045350204
  0
LINE
  5
B6
330
2
100
AcDbEntity
  8
0
100
AcDbLine
 10
247.2556181424953
 20
188.5873642346478
 30
0.0
 11
300.9135607478721
 21
188.5873642346478
 31
0.0
  0
LINE
  5
B7
330
2
100
AcDbEntity
  8
0
100
AcDbLine
 10
233.4828529251768
 20
159.9927581468791
 30
0.0
 11
233.4828529251768
 21
178.336670860796
 31
0.0
  0
LINE
  5
B8
330
2
100
AcDbEntity
  8
0
100
AcDbLine
 10
237.9204745209677
 20
159.9927581468791
 30
0.0
 11
237.9204745209677
 21
178.336670860796
 31
0.0
  0
LINE
  5
B9
330
2
100
AcDbEntity
  8
0
100
AcDbLine
 10
256.2016637230723
 20
159.5873642346479
 30
0.0
 11
256.2016637230723
 21
177.5873642346469
 31
0.0
1001
ACAD
1000
ASC_BOUNDS
1002
{
1070
    19
1002
}
  0
LINE
  5
BA
330
2
100
AcDbEntity
  8
0
100
AcDbLine
 10
253.9828529251768
 20
159.9927581468791
 30
0.0
 11
253.9828529251768
 21
177.5873642346469
 31
0.0
  0
LINE
  5
BB
330
2
100
AcDbEntity
  8
MITTE
 48
7.0
100
AcDbLine
 10
235.7016637230722
 20
155.5296036270415
 30
0.0
 11
235.7016637230722
 21
191.9206384651386
 31
0.0
  0
ARC
  5
BC
330
2
100
AcDbEntity
  8
0
100
AcDbCircle
 10
245.9516637230723
 20
182.237364234648
 30
0.0
 40
23.65000000000001
100
AcDbArc
 50
250.1483977684142
 51
289.8516022315858
  0
LINE
  5
BD
330
2
100
AcDbEntity
  8
0
100
AcDbLine
 10
233.4828529251768
 20
159.9927581468791
 30
0.0
 11
237.9204745209677
 21
159.9927581468791
 31
0.0
  0
LINE
  5
BE
330
2
100
AcDbEntity
  8
0
100
AcDbLine
 10
253.9828529251768
 20
159.9927581468791
 30
0.0
 11
256.2016637230723
 21
159.5873642346479
 31
0.0
  0
LINE
  5
BF
330
2
100
AcDbEntity
  8
0
100
AcDbLine
 10
256.2016637230723
 20
159.5873642346479
 30
0.0
 11
255.2016637230723
 21
158.5873642346479
 31
0.0
1001
ACAD
1000
ASC_BOUNDS
1002
{
1070
    19
1002
}
  0
ARC
  5
C0
330
2
100
AcDbEntity
  8
0
100
AcDbCircle
 10
245.9516637230723
 20
156.0920647730273
 30
0.0
 40
23.65000000000001
100
AcDbArc
 50
77.17421556953863
 51
109.8516022315857
  0
LINE
  5
C1
330
2
100
AcDbEntity
  8
0
100
AcDbLine
 10
233.4828529251768
 20
178.336670860796
 30
0.0
 11
237.9204745209677
 21
178.336670860796
 31
0.0
  0
LINE
  5
C2
330
2
100
AcDbEntity
  8
0
100
AcDbLine
 10
251.2016637230722
 20
186.0873642346478
 30
0.0
 11
251.2016637230722
 21
178.0873642346478
 31
0.0
  0
ARC
  5
C3
330
2
100
AcDbEntity
  8
0
100
AcDbCircle
 10
253.7016637230722
 20
178.0873642346478
 30
0.0
 40
2.5
100
AcDbArc
 50
180.0
 51
191.5369590328367
  0
ARC
  5
C4
330
2
100
AcDbEntity
  8
0
100
AcDbCircle
 10
248.7016637230722
 20
186.0873642346478
 30
0.0
 40
2.5
100
AcDbArc
 50
0.0
 51
90.0
  0
ARC
  5
C5
330
2
100
AcDbEntity
  8
0
100
AcDbCircle
 10
253.4235381861545
 20
198.5873642346478
 30
0.0
 40
10.0
100
AcDbArc
 50
229.0739366903953
 51
270.0
1001
ACAD
1000
ASC_BOUNDS
1002
{
1070
    19
1005
0
1002
}
  0
LINE
  5
C6
330
2
100
AcDbEntity
  8
0
100
AcDbLine
 10
291.2016637230723
 20
159.5873642346479
 30
0.0
 11
291.2016637230723
 21
177.5873642346469
 31
0.0
1001
ACAD
1000
ASC_BOUNDS
1002
{
1070
    19
1002
}
  0
LINE
  5
C7
330
2
100
AcDbEntity
  8
0
100
AcDbLine
 10
293.4204745209677
 20
159.9927581468791
 30
0.0
 11
293.4204745209677
 21
177.5873642346469
 31
0.0
  0
LINE
  5
C8
330
2
100
AcDbEntity
  8
0
100
AcDbLine
 10
291.2016637230723
 20
159.5873642346479
 30
0.0
 11
293.4204745209677
 21
159.9927581468791
 31
0.0
  0
LINE
  5
C9
330
2
100
AcDbEntity
  8
0
100
AcDbLine
 10
291.2016637230723
 20
159.5873642346479
 30
0.0
 11
292.2016637230722
 21
158.5873642346479
 31
0.0
1001
ACAD
1000
ASC_BOUNDS
1002
{
1070
    19
1002
}
  0
LINE
  5
CA
330
2
100
AcDbEntity
  8
0
100
AcDbLine
 10
296.2016637230722
 20
186.0873642346478
 30
0.0
 11
296.2016637230722
 21
178.0873642346478
 31
0.0
  0
ARC
  5
CB
330
2
100
AcDbEntity
  8
0
100
AcDbCircle
 10
293.7016637230722
 20
178.0873642346478
 30
0.0
 40
2.5
100
AcDbArc
 50
348.4630409671636
 51
0.0
  0
ARC
  5
CC
330
2
100
AcDbEntity
  8
0
100
AcDbCircle
 10
298.7016637230722
 20
186.0873642346478
 30
0.0
 40
2.5
100
AcDbArc
 50
90.0
 51
180.0
  0
ARC
  5
CD
330
2
100
AcDbEntity
  8
0
100
AcDbCircle
 10
293.97978925999
 20
198.5873642346478
 30
0.0
 40
10.0
100
AcDbArc
 50
270.0
 51
310.9260633096047
1001
ACAD
1000
ASC_BOUNDS
1002
{
1070
    19
1005
0
1002
}
  0
LINE
  5
CF
330
2
100
AcDbEntity
  8
0
100
AcDbLine
 10
329.9828529251768
 20
159.9927581468791
 30
0.0
 11
329.9828529251768
 21
178.336670860796
 31
0.0
  0
LINE
  5
D0
330
2
100
AcDbEntity
  8
0
100
AcDbLine
 10
332.2016637230723
 20
159.5873642346479
 30
0.0
 11
332.2016637230723
 21
178.587364234648
 31
0.0
1001
ACAD
1000
ASC_BOUNDS
1002
{
1070
    19
1002
}
  0
LINE
  5
D1
330
2
100
AcDbEntity
  8
0
100
AcDbLine
 10
313.9204745209677
 20
159.9927581468791
 30
0.0
 11
313.9204745209677
 21
178.336670860796
 31
0.0
  0
LINE
  5
D2
330
2
100
AcDbEntity
  8
0
100
AcDbLine
 10
309.4828529251768
 20
159.9927581468791
 30
0.0
 11
309.4828529251768
 21
178.336670860796
 31
0.0
  0
LINE
  5
D3
330
2
100
AcDbEntity
  8
MITTE
 48
7.0
100
AcDbLine
 10
311.7016637230722
 20
155.5296036270415
 30
0.0
 11
311.7016637230722
 21
191.9206384651386
 31
0.0
  0
ARC
  5
D4
330
2
100
AcDbEntity
  8
0
100
AcDbCircle
 10
321.9516637230723
 20
182.237364234648
 30
0.0
 40
23.65000000000001
100
AcDbArc
 50
250.1483977684142
 51
289.8516022315858
  0
LINE
  5
D5
330
2
100
AcDbEntity
  8
0
100
AcDbLine
 10
309.4828529251768
 20
159.9927581468791
 30
0.0
 11
313.9204745209677
 21
159.9927581468791
 31
0.0
  0
LINE
  5
D6
330
2
100
AcDbEntity
  8
0
100
AcDbLine
 10
329.9828529251768
 20
159.9927581468791
 30
0.0
 11
332.2016637230723
 21
159.5873642346479
 31
0.0
  0
LINE
  5
D7
330
2
100
AcDbEntity
  8
0
100
AcDbLine
 10
332.2016637230723
 20
159.5873642346479
 30
0.0
 11
331.2016637230723
 21
158.5873642346479
 31
0.0
1001
ACAD
1000
ASC_BOUNDS
1002
{
1070
    19
1002
}
  0
ARC
  5
D8
330
2
100
AcDbEntity
  8
0
100
AcDbCircle
 10
321.9516637230723
 20
156.0920647730273
 30
0.0
 40
23.65000000000001
100
AcDbArc
 50
70.14839776841426
 51
109.8516022315857
  0
LINE
  5
D9
330
2
100
AcDbEntity
  8
0
100
AcDbLine
 10
309.4828529251768
 20
178.336670860796
 30
0.0
 11
313.9204745209677
 21
178.336670860796
 31
0.0
  0
LINE
  5
DA
330
2
100
AcDbEntity
  8
0
100
AcDbLine
 10
334.2016637230722
 20
179.7420647730272
 30
0.0
 11
334.2016637230722
 21
188.5873642346478
 31
0.0
1001
ACAD
1000
ASC_BOUNDS
1002
{
1070
    19
1002
}
  0
LINE
  5
DB
330
2
100
AcDbEntity
  8
0
100
AcDbLine
 10
332.2016637230723
 20
178.587364234648
 30
0.0
 11
329.9828529251768
 21
178.336670860796
 31
0.0
  0
LINE
  5
DC
330
2
100
AcDbEntity
  8
0
100
AcDbLine
 10
332.2016637230723
 20
178.587364234648
 30
0.0
 11
334.2016637230723
 21
179.7420647730272
 31
0.0
1001
ACAD
1000
ASC_BOUNDS
1002
{
1070
    19
1002
}
  0
ARC
  5
DD
330
2
100
AcDbEntity
  8
0
100
AcDbCircle
 10
332.2016637230722
 20
191.0873642346478
 30
0.0
 40
2.5
100
AcDbArc
 50
270.0
 51
0.0
  0
ARC
  5
DE
330
2
100
AcDbEntity
  8
0
100
AcDbCircle
 10
332.2016637230722
 20
191.0873642346478
 30
0.0
 40
2.5
100
AcDbArc
 50
270.0
 51
0.0
  0
DIMENSION
  5
DF
330
2
100
AcDbEntity
  8
BEM
100
AcDbDimension
  2
*D32
 10
338.0846380186463
 20
211.3373642346478
 30
0.0
 11
338.0846380186463
 21
223.3373642346478
 31
0.0
 70
   160
  1
%%c<>
 71
     5
 42
24.0
  3
ISO-25
100
AcDbAlignedDimension
 13
376.0343872437982
 23
235.3373642346478
 33
0.0
 14
376.0343872437982
 24
211.3373642346478
 34
0.0
 50
90.0
100
AcDbRotatedDimension
1001
ACAD
1000
DSTYLE
1002
{
1070
    40
1040
1.0
1002
}
  0
DIMENSION
  5
EC
330
2
100
AcDbEntity
  8
BEM
100
AcDbDimension
  2
*D33
 10
375.0343872437982
 20
111.3086649425695
 30
0.0
 11
401.2724824818934
 21
111.3086649425695
 31
0.0
 70
   160
 71
     5
 42
50.0
  3
ISO-25
100
AcDbAlignedDimension
 13
425.0343872437982
 23
209.3373642346478
 33
0.0
 14
375.0343872437982
 24
212.3373642346478
 34
0.0
100
AcDbRotatedDimension
1001
ACAD
1000
DSTYLE
1002
{
1070
    40
1040
1.0
1002
}
  0
LINE
  5
F9
330
2
100
AcDbEntity
  8
0
100
AcDbLine
 10
439.5343872437982
 20
144.3373642346478
 30
0.0
 11
430.0343872437982
 21
144.3373642346478
 31
0.0
  0
LINE
  5
FA
330
2
100
AcDbEntity
  8
0
100
AcDbLine
 10
442.0343872437982
 20
146.8373642346478
 30
0.0
 11
439.5343872437982
 21
144.3373642346478
 31
0.0
  0
DIMENSION
  5
FB
330
2
100
AcDbEntity
  8
BEM
100
AcDbDimension
  2
*D34
 10
419.6343872437983
 20
209.7373642346477
 30
0.0
 11
390.7271465963226
 21
179.4941861975517
 31
0.0
 70
   164
 71
     5
 42
1.599999999999909
  3
ISO-25
100
AcDbRadialDimension
 15
420.7399236694426
 25
210.893992615578
 35
0.0
 40
0.0
1001
ACAD
1000
DSTYLE
1002
{
1070
    40
1040
1.0
1070
   279
1070
     1
1070
   289
1070
     3
1002
}
  0
LINE
  5
104
330
2
100
AcDbEntity
  8
BEM
100
AcDbLine
 10
430.034387243798
 20
168.3373642346477
 30
0.0
 11
396.5900411986504
 21
168.3373642346477
 31
0.0
  0
LINE
  5
105
330
2
100
AcDbEntity
  8
LINIE
  6
STRICHLINIE
 48
5.0
100
AcDbLine
 10
434.034387243798
 20
168.3373642346477
 30
0.0
 11
430.0343872437981
 21
168.3373642346477
 31
0.0
  0
LINE
  5
106
330
2
100
AcDbEntity
  8
0
100
AcDbLine
 10
376.0343872437982
 20
211.3373642346478
 30
0.0
 11
423.4343872437982
 21
211.3373642346477
 31
0.0
  0
LINE
  5
107
330
2
100
AcDbEntity
  8
0
100
AcDbLine
 10
376.0343872437982
 20
235.3373642346478
 30
0.0
 11
423.4343872437982
 21
235.3373642346478
 31
0.0
  0
LINE
  5
108
330
2
100
AcDbEntity
  8
0
100
AcDbLine
 10
420.0343872437982
 20
238.2373642346478
 30
0.0
 11
380.0343872437982
 21
238.2373642346478
 31
0.0
  0
LINE
  5
109
330
2
100
AcDbEntity
  8
0
100
AcDbLine
 10
376.0343872437982
 20
235.3373642346478
 30
0.0
 11
376.0343872437982
 21
211.3373642346478
 31
0.0
  0
LINE
  5
10A
330
2
100
AcDbEntity
  8
0
100
AcDbLine
 10
375.0343872437982
 20
234.3373642346478
 30
0.0
 11
375.0343872437982
 21
212.3373642346478
 31
0.0
  0
LINE
  5
10B
330
2
100
AcDbEntity
  8
0
100
AcDbLine
 10
376.0343872437982
 20
211.3373642346478
 30
0.0
 11
375.0343872437982
 21
212.3373642346478
 31
0.0
  0
LINE
  5
10C
330
2
100
AcDbEntity
  8
0
100
AcDbLine
 10
376.0343872437982
 20
235.3373642346478
 30
0.0
 11
375.0343872437982
 21
234.3373642346478
 31
0.0
  0
LINE
  5
10D
330
2
100
AcDbEntity
  8
0
100
AcDbLine
 10
380.0343872437982
 20
235.3373642346478
 30
0.0
 11
380.0343872437982
 21
238.2373642346478
 31
0.0
  0
LINE
  5
10E
330
2
100
AcDbEntity
  8
0
100
AcDbLine
 10
425.0343872437982
 20
237.3373642346478
 30
0.0
 11
425.0343872437982
 21
209.3373642346478
 31
0.0
  0
LINE
  5
10F
330
2
100
AcDbEntity
  8
0
100
AcDbLine
 10
425.0343872437982
 20
209.3373642346478
 30
0.0
 11
430.0343872437976
 21
209.3373642346477
 31
0.0
  0
ARC
  5
110
330
2
100
AcDbEntity
  8
0
100
AcDbCircle
 10
423.4343872437982
 20
209.7373642346478
 30
0.0
 40
1.6
100
AcDbArc
 50
0.0
 51
90.0
  0
LINE
  5
111
330
2
100
AcDbEntity
  8
0
100
AcDbLine
 10
425.0343872437982
 20
237.3373642346478
 30
0.0
 11
430.0343872437974
 21
237.3373642346477
 31
0.0
  0
ARC
  5
112
330
2
100
AcDbEntity
  8
0
100
AcDbCircle
 10
423.4343872437982
 20
236.9373642346478
 30
0.0
 40
1.6
100
AcDbArc
 50
270.0
 51
0.0
  0
LINE
  5
113
330
2
100
AcDbEntity
  8
0
100
AcDbLine
 10
420.0343872437982
 20
235.3373642346478
 30
0.0
 11
420.0343872437982
 21
238.2373642346478
 31
0.0
  0
LINE
  5
114
330
2
100
AcDbEntity
  8
0
100
AcDbLine
 10
511.034387243798
 20
235.8922203497558
 30
0.0
 11
511.034387243798
 21
181.3373642346477
 31
0.0
  0
LINE
  5
115
330
2
100
AcDbEntity
  8
LINIE
 48
10.0
100
AcDbLine
 10
479.0440061870316
 20
215.8373642346478
 30
0.0
 11
479.0440061870316
 21
195.8760239018736
 31
0.0
  0
ARC
  5
116
330
2
100
AcDbEntity
  8
0
100
AcDbCircle
 10
474.6247135978073
 20
190.8373642346478
 30
0.0
 40
2.5
100
AcDbArc
 50
6.892102579346231
 51
90.0
  0
ARC
  5
117
330
2
100
AcDbEntity
  8
0
100
AcDbCircle
 10
487.0343872437981
 20
192.3373642346478
 30
0.0
 40
10.0
100
AcDbArc
 50
186.8921025793466
 51
270.0
  0
LINE
  5
118
330
2
100
AcDbEntity
  8
0
100
AcDbLine
 10
445.0194975624646
 20
173.7551665083972
 30
0.0
 11
483.7589822215113
 21
181.9085898331536
 31
0.0
  0
ARC
  5
119
330
2
100
AcDbEntity
  8
0
100
AcDbCircle
 10
445.534387243798
 20
171.308763308584
 30
0.0
 40
2.5
100
AcDbArc
 50
101.8854606354797
 51
180.0
  0
LINE
  5
11A
330
2
100
AcDbEntity
  8
0
100
AcDbLine
 10
443.034387243798
 20
168.3373642346478
 30
0.0
 11
442.034387243798
 21
168.3373642346478
 31
0.0
  0
LINE
  5
11B
330
2
100
AcDbEntity
  8
0
100
AcDbLine
 10
445.5343872437981
 20
193.3373642346478
 30
0.0
 11
474.6247135978073
 21
193.3373642346478
 31
0.0
  0
ARC
  5
11C
330
2
100
AcDbEntity
  8
0
100
AcDbCircle
 10
445.5343872437981
 20
190.8373642346478
 30
0.0
 40
2.5
100
AcDbArc
 50
90.0
 51
180.0
  0
LINE
  5
11D
330
2
100
AcDbEntity
  8
0
100
AcDbLine
 10
487.0343872437981
 20
182.3373642346478
 30
0.0
 11
501.0343872437982
 21
182.3373642346478
 31
0.0
  0
ARC
  5
11E
330
2
100
AcDbEntity
  8
0
100
AcDbCircle
 10
487.8780996721783
 20
162.3373642346478
 30
0.0
 40
20.0
100
AcDbArc
 50
90.0
 51
101.8854606354797
  0
LINE
  5
11F
330
2
100
AcDbEntity
  8
0
100
AcDbLine
 10
503.0343872437981
 20
181.3373642346478
 30
0.0
 11
511.0343872437981
 21
181.3373642346478
 31
0.0
  0
ARC
  5
120
330
2
100
AcDbEntity
  8
0
100
AcDbCircle
 10
501.0343872437982
 20
179.8373642346478
 30
0.0
 40
2.5
100
AcDbArc
 50
36.86989764584363
 51
90.0
  0
ARC
  5
121
330
2
100
AcDbEntity
  8
0
100
AcDbCircle
 10
470.3837521491871
 20
238.8373642346478
 30
0.0
 40
10.0
100
AcDbArc
 50
270.0
 51
330.0
  0
ARC
  5
122
330
2
100
AcDbEntity
  8
0
100
AcDbCircle
 10
470.3837521491871
 20
210.8373642346478
 30
0.0
 40
10.0
100
AcDbArc
 50
29.99999999999999
 51
90.0
  0
ARC
  5
123
330
2
100
AcDbEntity
  8
0
100
AcDbCircle
 10
445.5343872437981
 20
218.3373642346478
 30
0.0
 40
2.5
100
AcDbArc
 50
90.0
 51
180.0
  0
LINE
  5
124
330
2
100
AcDbEntity
  8
0
100
AcDbLine
 10
470.3837521491871
 20
220.8373642346478
 30
0.0
 11
445.5343872437981
 21
220.8373642346478
 31
0.0
  0
LINE
  5
125
330
2
100
AcDbEntity
  8
0
100
AcDbLine
 10
470.3837521491871
 20
228.8373642346478
 30
0.0
 11
445.5343872437981
 21
228.8373642346478
 31
0.0
  0
ARC
  5
126
330
2
100
AcDbEntity
  8
0
100
AcDbCircle
 10
445.5343872437981
 20
231.3373642346478
 30
0.0
 40
2.5
100
AcDbArc
 50
180.0
 51
270.0
  0
LINE
  5
127
330
2
100
AcDbEntity
  8
LINIE
 48
10.0
100
AcDbLine
 10
479.0440061870316
 20
230.3442913379833
 30
0.0
 11
479.0440061870316
 21
218.6807857524325
 31
0.0
  0
ARC
  5
12A
330
2
100
AcDbEntity
  8
0
100
AcDbCircle
 10
273.7016637230722
 20
258.5873642346478
 30
0.0
 40
61.0
100
AcDbArc
 50
0.0
 51
180.0
1001
ACAD
1000
ASC_BOUNDS
1002
{
1070
    19
1005
0
1002
}
  0
LINE
  5
12B
330
2
100
AcDbEntity
  8
MITTE
 48
10.0
100
AcDbLine
 10
204.6751609692155
 20
258.5873642346478
 30
0.0
 11
341.219942491761
 21
258.5873642346478
 31
0.0
  0
ARC
  5
12C
330
2
100
AcDbEntity
  8
0
100
AcDbCircle
 10
215.8822338494515
 20
258.7965625982595
 30
0.0
 40
8.0
100
AcDbArc
 50
109.6254537415548
 51
181.4984437231788
  0
ARC
  5
12D
330
2
100
AcDbEntity
  8
0
100
AcDbCircle
 10
274.1128805542774
 20
316.4140144147006
 30
0.0
 40
8.0
100
AcDbArc
 50
19.35914998622958
 51
159.8259803411065
  0
ARC
  5
12E
330
2
100
AcDbEntity
  8
0
100
AcDbCircle
 10
331.5210935966929
 20
258.7965625982595
 30
0.0
 40
8.0
100
AcDbArc
 50
293.4264341163755
 51
70.37454625844519
  0
DIMENSION
  5
130
330
2
100
AcDbEntity
  8
BEM
100
AcDbDimension
  2
*D35
 10
430.0343872437966
 20
384.3099503830133
 30
0.0
 11
467.4153396247507
 21
384.3099503830133
 31
0.0
 70
   160
 71
     5
 42
12.0000000000017
  3
ISO-25
100
AcDbAlignedDimension
 13
442.0343872437983
 23
299.8373642346478
 33
0.0
 14
430.0343872437966
 24
302.3373642346478
 34
0.0
100
AcDbRotatedDimension
1001
ACAD
1000
DSTYLE
1002
{
1070
    40
1040
1.0
1002
}
  0
DIMENSION
  5
13F
330
2
100
AcDbEntity
  8
BEM
100
AcDbDimension
  2
*D36
 10
430.0343872437966
 20
351.7879817371538
 30
0.0
 11
408.4629586723679
 21
351.7879817371538
 31
0.0
 70
   160
 71
     5
 42
4.000000000000341
  3
ISO-25
100
AcDbAlignedDimension
 13
434.0343872437968
 23
278.3373642346478
 33
0.0
 14
430.0343872437966
 24
302.3373642346478
 34
0.0
100
AcDbRotatedDimension
1001
ACAD
1000
DSTYLE
1002
{
1070
    40
1040
1.0
1002
}
  0
LINE
  5
14E
330
2
100
AcDbEntity
  8
0
100
AcDbLine
 10
439.5343872437983
 20
302.3373642346478
 30
0.0
 11
430.0343872437966
 21
302.3373642346478
 31
0.0
  0
LINE
  5
14F
330
2
100
AcDbEntity
  8
LINIE
  6
STRICHLINIE
 48
5.0
100
AcDbLine
 10
434.0343872437968
 20
278.3373642346478
 30
0.0
 11
430.0343872437969
 21
278.3373642346478
 31
0.0
  0
LINE
  5
150
330
2
100
AcDbEntity
  8
0
100
AcDbLine
 10
502.0343872437981
 20
312.8373642346478
 30
0.0
 11
502.0343872437981
 21
290.2807399076218
 31
0.0
  0
LINE
  5
151
330
2
100
AcDbEntity
  8
0
100
AcDbLine
 10
511.034387243798
 20
312.8373642346478
 30
0.0
 11
511.0343872437979
 21
294.0873642346478
 31
0.0
  0
ARC
  5
152
330
2
100
AcDbEntity
  8
0
100
AcDbCircle
 10
470.3837521491871
 20
283.3373642346478
 30
0.0
 40
10.0
100
AcDbArc
 50
270.0
 51
330.0
  0
ARC
  5
153
330
2
100
AcDbEntity
  8
0
100
AcDbCircle
 10
492.0343872437981
 20
270.8373642346478
 30
0.0
 40
15.0
100
AcDbArc
 50
78.40981768499322
 51
180.0
  0
ARC
  5
154
330
2
100
AcDbEntity
  8
0
100
AcDbCircle
 10
474.5343872437981
 20
255.8373642346479
 30
0.0
 40
2.5
100
AcDbArc
 50
270.0
 51
0.0
  0
LINE
  5
155
330
2
100
AcDbEntity
  8
0
100
AcDbLine
 10
453.5343872437981
 20
255.3373642346479
 30
0.0
 11
468.5343872437981
 21
255.3373642346479
 31
0.0
  0
LINE
  5
156
330
2
100
AcDbEntity
  8
0
100
AcDbLine
 10
445.5343872437981
 20
253.3373642346483
 30
0.0
 11
474.5343872437981
 21
253.3373642346479
 31
0.0
  0
ARC
  5
157
330
2
100
AcDbEntity
  8
0
100
AcDbCircle
 10
445.5343872437981
 20
255.8373642346479
 30
0.0
 40
2.5
100
AcDbArc
 50
180.0
 51
270.0
  0
ARC
  5
158
330
2
100
AcDbEntity
  8
0
100
AcDbCircle
 10
451.0848975010149
 20
255.837364234648
 30
0.0
 40
2.5
100
AcDbArc
 50
270.0
 51
348.4630409671831
  0
LINE
  5
159
330
2
100
AcDbEntity
  8
MITTE
 48
5.0
100
AcDbLine
 10
461.034387243798
 20
259.3036704919805
 30
0.0
 11
461.034387243798
 21
248.8002495691796
 31
0.0
  0
ARC
  5
15A
330
2
100
AcDbEntity
  8
0
100
AcDbCircle
 10
470.9838769865812
 20
255.837364234648
 30
0.0
 40
2.5
100
AcDbArc
 50
191.5369590328169
 51
270.0
  0
LINE
  5
15B
330
2
100
AcDbEntity
  8
0
100
AcDbLine
 10
470.3837521491871
 20
273.3373642346478
 30
0.0
 11
445.5343872437981
 21
273.3373642346478
 31
0.0
  0
ARC
  5
15C
330
2
100
AcDbEntity
  8
0
100
AcDbCircle
 10
445.5343872437981
 20
275.8373642346478
 30
0.0
 40
2.5
100
AcDbArc
 50
180.0
 51
270.0
  0
LINE
  5
15D
330
2
100
AcDbEntity
  8
0
100
AcDbLine
 10
443.034387243798
 20
278.3373642346478
 30
0.0
 11
442.034387243798
 21
278.3373642346478
 31
0.0
  0
LINE
  5
15E
330
2
100
AcDbEntity
  8
0
100
AcDbLine
 10
477.0343872437981
 20
270.8373642346478
 30
0.0
 11
477.0343872437981
 21
255.8373642346479
 31
0.0
  0
ARC
  5
15F
330
2
100
AcDbEntity
  8
0
100
AcDbCircle
 10
495.550313417466
 20
287.9805338115176
 30
0.0
 40
2.5
100
AcDbArc
 50
258.4098176849932
 51
299.9999999999998
  0
LINE
  5
160
330
2
100
AcDbEntity
  8
0
100
AcDbLine
 10
496.800313417466
 20
285.8154703020565
 30
0.0
 11
500.7843872437981
 21
288.1156763981607
 31
0.0
  0
ARC
  5
161
330
2
100
AcDbEntity
  8
0
100
AcDbCircle
 10
499.5343872437981
 20
290.2807399076218
 30
0.0
 40
2.5
100
AcDbArc
 50
300.0
 51
0.0
  0
LINE
  5
162
330
2
100
AcDbEntity
  8
0
100
AcDbLine
 10
442.0343872437983
 20
299.8373642346478
 30
0.0
 11
439.5343872437983
 21
302.3373642346478
 31
0.0
  0
LINE
  5
163
330
2
100
AcDbEntity
  8
0
100
AcDbLine
 10
511.034387243798
 20
312.8373642346478
 30
0.0
 11
502.0343872437981
 21
312.8373642346478
 31
0.0
  0
CIRCLE
  5
164
330
2
100
AcDbEntity
  8
0
100
AcDbCircle
 10
840.4259748308444
 20
223.3373642346478
 30
0.0
 40
79.0
  0
LINE
  5
165
330
2
100
AcDbEntity
  8
0
100
AcDbLine
 10
558.034387243798
 20
324.5873642346477
 30
0.0
 11
558.0343872437977
 21
192.5873642346478
 31
0.0
1001
ACAD
1000
ASC_BOUNDS
1002
{
1070
    19
1005
0
1002
}
  0
LINE
  5
166
330
2
100
AcDbEntity
  8
0
100
AcDbLine
 10
558.0343872437979
 20
324.5873642346478
 30
0.0
 11
558.0343872437979
 21
192.5873642346478
 31
0.0
1001
ACAD
1000
ASC_BOUNDS
1002
{
1070
    19
1005
0
1005
0
1005
0
1005
0
1002
}
  0
LINE
  5
167
330
2
100
AcDbEntity
  8
0
100
AcDbLine
 10
658.0343872437979
 20
255.6546863560045
 30
0.0
 11
658.0343872437979
 21
192.0873642346478
 31
0.0
1001
ACAD
1000
ASC_BOUNDS
1002
{
1070
    19
1002
}
  0
LINE
  5
168
330
2
100
AcDbEntity
  8
0
100
AcDbLine
 10
730.0343872437979
 20
314.5873642346478
 30
0.0
 11
730.0343872437979
 21
193.5873642346478
 31
0.0
1001
ACAD
1000
ASC_BOUNDS
1002
{
1070
    19
1002
}
  0
CIRCLE
  5
169
330
2
100
AcDbEntity
  8
0
100
AcDbCircle
 10
840.4259748308444
 20
223.3373642346478
 30
0.0
 40
55.0
  0
LINE
  5
16A
330
2
100
AcDbEntity
  8
0
100
AcDbLine
 10
518.0343872437979
 20
324.5873642346478
 30
0.0
 11
518.0343872437979
 21
192.5873642346478
 31
0.0
1001
ACAD
1000
ASC_BOUNDS
1002
{
1070
    19
1005
0
1005
0
1005
0
1005
0
1002
}
  0
LINE
  5
16B
330
2
100
AcDbEntity
  8
0
100
AcDbLine
 10
518.0343872437979
 20
295.5873642346478
 30
0.0
 11
518.0343872437985
 21
221.5873642346478
 31
0.0
1001
ACAD
1000
ASC_BOUNDS
1002
{
1070
    19
1005
0
1005
0
1002
}
  0
DIMENSION
  5
16C
330
2
100
AcDbEntity
  8
BEM
100
AcDbDimension
  2
*D37
 10
980.2395004064377
 20
264.1904773357408
 30
0.0
 11
989.6729508868727
 21
341.4780733643973
 31
0.0
 70
   162
 71
     5
 42
0.7853981633974288
  3
ISO-25
100
AcDb2LineAngularDimension
 13
939.3863873053444
 23
327.2767513493466
 33
0.0
 14
939.3863873053444
 24
141.9917723013395
 34
0.0
 15
991.0142186483957
 25
274.965195577699
 35
0.0
 16
972.6181536485016
 26
347.3600046525687
 36
0.0
1001
ACAD
1000
DSTYLE
1002
{
1070
    40
1040
1.0
1070
    79
1070
     2
1070
   179
1070
     4
1002
}
  0
DIMENSION
  5
17B
330
2
100
AcDbEntity
  8
BEM
100
AcDbDimension
  2
*D38
 10
877.5171006239315
 20
203.4077037876368
 30
0.0
 11
1045.521887592722
 21
257.5262905268357
 31
0.0
 70
   163
 71
     5
 42
130.0000000000009
  3
ISO-25
100
AcDbDiametricDimension
 15
1001.255673986758
 25
243.2670246816591
 35
0.0
 40
0.0
1001
ACAD
1000
DSTYLE
1002
{
1070
    40
1040
1.0
1002
}
  0
DIMENSION
  5
187
330
2
100
AcDbEntity
  8
BEM
100
AcDbDimension
  2
*D39
 10
787.2112791518959
 20
158.5873642346479
 30
0.0
 11
778.2112791518959
 21
208.587364234648
 31
0.0
 70
    32
 71
     5
 42
99.99999999999985
  3
ISO-25
100
AcDbAlignedDimension
 13
734.4204021454736
 23
258.5873642346478
 33
0.0
 14
643.0254687792849
 24
158.5873642346479
 34
0.0
 50
90.0
100
AcDbRotatedDimension
1001
ACAD
1000
DSTYLE
1002
{
1070
    40
1040
1.0
1002
}
  0
DIMENSION
  5
194
330
2
100
AcDbEntity
  8
BEM
100
AcDbDimension
  2
*D40
 10
814.8345519289511
 20
188.5873642346478
 30
0.0
 11
805.8345519289511
 21
254.0873642346479
 31
0.0
 70
    32
 71
     5
 42
131.0
  3
ISO-25
100
AcDbAlignedDimension
 13
725.0343872437979
 23
319.5873642346478
 33
0.0
 14
794.0140033071445
 24
188.5873642346478
 34
0.0
 50
90.0
100
AcDbRotatedDimension
1001
ACAD
1000
DSTYLE
1002
{
1070
    40
1040
1.0
1002
}
  0
DIMENSION
  5
1A1
330
2
100
AcDbEntity
  8
BEM
100
AcDbDimension
  2
*D41
 10
754.5631440650302
 20
177.5873642346477
 30
0.0
 11
745.5631440650302
 21
218.0873642346479
 31
0.0
 70
    32
 71
     5
 42
81.00000000000003
  3
ISO-25
100
AcDbAlignedDimension
 13
734.4204021454736
 23
258.5873642346478
 33
0.0
 14
715.483876986581
 24
177.5873642346477
 34
0.0
 50
90.0
100
AcDbRotatedDimension
1001
ACAD
1000
DSTYLE
1002
{
1070
    40
1040
1.0
1002
}
  0
CIRCLE
  5
1AE
330
2
100
AcDbEntity
  8
MITTE
 48
10.0
100
AcDbCircle
 10
840.4259748308444
 20
223.3373642346478
 30
0.0
 40
65.0
  0
LINE
  5
1AF
330
2
100
AcDbEntity
  8
MITTE
 48
10.0
100
AcDbLine
 10
840.4259748308444
 20
327.2767513493466
 30
0.0
 11
840.4259748308444
 21
141.9917723013395
 31
0.0
  0
LINE
  5
1B0
330
2
100
AcDbEntity
  8
LINIE
 48
10.0
100
AcDbLine
 10
581.7116424900222
 20
257.4305734413856
 30
0.0
 11
581.7116424900222
 21
199.7263261793321
 31
0.0
  0
LINE
  5
1B1
330
2
100
AcDbEntity
  8
0
100
AcDbLine
 10
679.2125200930629
 20
188.5873642346478
 30
0.0
 11
665.0343872437977
 21
188.5873642346478
 31
0.0
1001
ACAD
1000
ASC_BOUNDS
1002
{
1070
    19
1002
}
  0
LINE
  5
1B2
330
2
100
AcDbEntity
  8
0
100
AcDbLine
 10
670.5848975010147
 20
177.5873642346478
 30
0.0
 11
715.483876986581
 21
177.5873642346478
 31
0.0
1001
ACAD
1000
ASC_BOUNDS
1002
{
1070
    19
1005
0
1002
}
  0
DIMENSION
  5
1B3
330
2
100
AcDbEntity
  8
BEM
100
AcDbDimension
  2
*D42
 10
622.0343872437979
 20
111.3086649425695
 30
0.0
 11
658.5343872437979
 21
120.3086649425695
 31
0.0
 70
    32
 71
     5
 42
73.0
  3
ISO-25
100
AcDbAlignedDimension
 13
695.0343872437979
 23
173.4882335111995
 33
0.0
 14
622.0343872437979
 24
155.3782300990805
 34
0.0
100
AcDbRotatedDimension
1001
ACAD
1000
DSTYLE
1002
{
1070
    40
1040
1.0
1002
}
  0
SPLINE
  5
1C0
330
2
100
AcDbEntity
  8
LINIE
 48
10.0
100
AcDbSpline
210
0.0
220
0.0
230
1.0
 70
     8
 71
     3
 72
    12
 73
     8
 74
     6
 42
0.0000000001
 43
0.0000000001
 44
0.0000000001
 40
0.0
 40
0.0
 40
0.0
 40
0.0
 40
4.851711911382247
 40
18.01859907913513
 40
32.66528729343511
 40
43.80667159575175
 40
46.09696782555252
 40
46.09696782555252
 40
46.09696782555252
 40
46.09696782555252
 10
670.5343872437978
 20
185.5947308478894
 30
0.0
 10
672.0185910741492
 20
186.2366564893687
 30
0.0
 10
677.5307225154409
 20
188.6206811354522
 30
0.0
 10
688.6512650588196
 20
190.2789229403987
 30
0.0
 10
701.3809690917748
 20
186.6455402499311
 30
0.0
 10
710.8765392310849
 20
188.7063617087309
 30
0.0
 10
715.2576196521608
 20
187.7157903312192
 30
0.0
 10
716.0046573699544
 20
187.5468835525151
 30
0.0
 11
670.5343872437978
 21
185.5947308478894
 31
0.0
 11
675.0321023859917
 21
187.4139798607318
 31
0.0
 11
688.0623433510615
 21
189.305999437943
 31
0.0
 11
702.6212743046555
 21
187.705060608569
 31
0.0
 11
713.7588555972431
 21
187.9961398467687
 31
0.0
 11
716.0046573699544
 21
187.5468835525151
 31
0.0
  0
HATCH
  5
1C1
330
2
100
AcDbEntity
  8
LINIE
 48
10.0
100
AcDbHatch
 10
0.0
 20
0.0
 30
0.0
210
0.0
220
0.0
230
1.0
  2
ANSI31
 70
     0
 71
     0
 91
        4
 92
        5
 93
        6
 72
     1
 10
711.6588872437978
 20
177.5873642346478
 11
715.483876986581
 21
177.5873642346478
 72
     2
 10
713.0343872437979
 20
178.0873642346473
 40
2.499999999999964
 50
348.4630409671946
 51
360.0
 73
     1
 72
     1
 10
715.5343872437978
 20
178.0873642346473
 11
715.5343872437978
 21
186.0873642346478
 72
     2
 10
718.0343872437978
 20
186.0873642346478
 40
2.499999999999997
 50
179.9999999999987
 51
215.7188059857673
 73
     0
 72
     4
 94
        3
 73
     0
 74
     0
 95
        9
 96
        5
 40
41.68509778057305
 40
41.68509778057305
 40
41.68509778057305
 40
41.68509778057305
 40
43.97539401037382
 40
46.09696782555253
 40
46.09696782555253
 40
46.09696782555253
 40
46.09696782555253
 10
716.0046573699544
 20
187.5468835525151
 10
715.2576196521608
 20
187.7157903312192
 10
713.8185772755816
 20
188.0411607997475
 10
712.3621365883756
 20
188.1532963733971
 10
711.6588872437971
 20
188.1728396892728
 72
     1
 10
711.658887243798
 20
188.1728396892727
 11
711.6588872437978
 21
177.5873642346478
 97
        0
 92
        5
 93
        4
 72
     4
 94
        3
 73
     0
 74
     0
 95
        8
 96
        4
 40
40.20165906937324
 40
40.20165906937324
 40
40.20165906937324
 40
40.20165906937324
 40
41.68509778057305
 40
41.68509778057305
 40
41.68509778057305
 40
41.68509778057305
 10
711.658887243797
 20
188.1728396892728
 10
711.1671639325882
 20
188.1865046916912
 10
710.6740334547534
 20
188.1833610636022
 10
710.1798872437978
 20
188.168512288442
 72
     1
 10
710.1798872437979
 20
188.168512288442
 11
710.1798872437978
 21
179.0663642346479
 72
     1
 10
710.1798872437978
 20
179.0663642346479
 11
711.6588872437978
 21
177.5873642346477
 72
     1
 10
711.6588872437978
 20
177.5873642346477
 11
711.6588872437979
 21
188.1728396892727
 97
        0
 92
        5
 93
        4
 72
     1
 10
678.4098872437978
 20
177.5873642346478
 11
679.8888872437977
 21
179.0663642346477
 72
     1
 10
679.8888872437977
 20
179.0663642346477
 11
679.8888872437978
 21
188.7251529190062
 72
     4
 94
        3
 73
     0
 74
     0
 95
        8
 96
        4
 40
8.357331474458055
 40
8.357331474458055
 40
8.357331474458055
 40
8.357331474458055
 40
9.859576091809559
 40
9.859576091809559
 40
9.859576091809559
 40
9.859576091809559
 10
679.8888872438007
 20
188.7251529190069
 10
679.3934226342941
 20
188.6293373737499
 10
678.9002160337108
 20
188.5227482665035
 10
678.4098872438018
 20
188.4055537432681
 72
     1
 10
678.4098872437979
 20
188.4055537432672
 11
678.4098872437978
 21
177.5873642346478
 97
        0
 92
        5
 93
        5
 72
     4
 94
        3
 73
     0
 74
     0
 95
        9
 96
        5
 40
0.0
 40
0.0
 40
0.0
 40
0.0
 40
3.505619563075807
 40
8.357331474458055
 40
8.357331474458055
 40
8.357331474458055
 40
8.357331474458055
 10
678.4098872438018
 20
188.4055537432681
 10
677.2656620101815
 20
188.1320700452113
 10
674.575211007993
 20
187.3424075038118
 10
672.0185910741492
 20
186.2366564893687
 10
670.5343872437978
 20
185.5947308478894
 72
     1
 10
670.5343872437979
 20
185.5947308478894
 11
670.5343872437979
 21
178.0873642346479
 72
     2
 10
673.0343872437979
 20
178.0873642346479
 40
2.500000000000018
 50
180.0
 51
191.5369590328181
 73
     1
 72
     1
 10
670.5848975010147
 20
177.5873642346478
 11
678.4098872437977
 21
177.5873642346478
 72
     1
 10
678.4098872437977
 20
177.5873642346478
 11
678.4098872437979
 21
188.4055537432669
 97
        0
 75
     0
 76
     1
 52
0.0
 41
25.0
 77
     0
 78
     1
 53
45.0
 43
136.2096326615492
 44
-67.12234548710558
 45
-2.20970869120796
 46
2.209708691207961
 79
     0
 47
0.3395931865206437
 98
        4
 10
712.6790676761832
 20
181.3740728361674
 10
711.3202340078908
 20
182.0532587317252
 10
679.0479407210288
 20
182.7324461369205
 10
675.3111481332241
 20
182.0532587317252
  0
MTEXT
  5
1C2
102
{ACAD_REACTORS
330
1C3
102
}
330
2
100
AcDbEntity
  8
BEM
 48
10.0
100
AcDbMText
 10
457.9302800175508
 20
202.179276141615
 30
0.0
 40
10.0
 41
0.0
 71
     6
 72
     1
  1
\A1;
 73
     1
 44
1.0
  0
LEADER
  5
1C3
330
2
100
AcDbEntity
  8
BEM
100
AcDbLeader
  3
ISO-25
 73
     0
 75
     1
 40
10.0
 76
     3
 10
622.0343872437979
 20
158.5873642346479
 30
0.0
 10
605.1399126790999
 20
126.0569306545094
 30
0.0
 10
598.1399126791
 20
126.0569306545094
 30
0.0
340
1C2
1001
ACAD
1000
DSTYLE
1002
{
1070
    40
1040
1.0
1002
}
  0
MTEXT
  5
1C4
330
2
100
AcDbEntity
  8
BEM
100
AcDbMText
 10
571.6512876054822
 20
135.8847682346452
 30
0.0
 40
10.0
 41
0.0
 71
     4
 72
     1
  1
G 1"
 73
     1
 44
1.0
  0
LINE
  5
1C5
330
2
100
AcDbEntity
  8
BEM
100
AcDbLine
 10
598.1399126791
 20
126.0569306545094
 30
0.0
 11
571.2037175536277
 21
126.0569306545094
 31
0.0
  0
ARC
  5
1C6
330
2
100
AcDbEntity
  8
0
100
AcDbCircle
 10
594.0343872437979
 20
193.5873642346478
 30
0.0
 40
4.0
100
AcDbArc
 50
0.0
 51
90.0
1001
ACAD
1000
ASC_BOUNDS
1002
{
1070
    19
1002
}
  0
LINE
  5
1C7
330
2
100
AcDbEntity
  8
0
100
AcDbLine
 10
582.5343872437979
 20
189.5873642346478
 30
0.0
 11
665.0343872437978
 21
189.5873642346478
 31
0.0
1001
ACAD
1000
ASC_BOUNDS
1002
{
1070
    19
1002
}
  0
LINE
  5
1C8
330
2
100
AcDbEntity
  8
0
100
AcDbLine
 10
582.0343872437979
 20
191.0873642346478
 30
0.0
 11
582.0343872437979
 21
197.2518763701727
 31
0.0
  0
ARC
  5
1C9
330
2
100
AcDbEntity
  8
0
100
AcDbCircle
 10
584.6028897612764
 20
187.5873642346479
 30
0.0
 40
10.0
100
AcDbArc
 50
90.0
 51
131.4096221092709
1001
ACAD
1000
ASC_BOUNDS
1002
{
1070
    19
1002
}
  0
LINE
  5
1CA
330
2
100
AcDbEntity
  8
0
100
AcDbLine
 10
518.0343872437986
 20
208.5873642346478
 30
0.0
 11
518.0343872437988
 21
181.5873642346477
 31
0.0
1001
ACAD
1000
ASC_BOUNDS
1002
{
1070
    19
1005
0
1005
0
1002
}
  0
LINE
  5
1CB
330
2
100
AcDbEntity
  8
0
100
AcDbLine
 10
518.0343872437979
 20
192.5873642346478
 30
0.0
 11
558.0343872437979
 21
192.5873642346478
 31
0.0
1001
ACAD
1000
ASC_BOUNDS
1002
{
1070
    19
1005
0
1002
}
  0
ARC
  5
1CC
330
2
100
AcDbEntity
  8
0
100
AcDbCircle
 10
571.3741332059535
 20
202.5873642346478
 30
0.0
 40
10.0
100
AcDbArc
 50
270.0
 51
311.4096221092709
1001
ACAD
1000
ASC_BOUNDS
1002
{
1070
    19
1002
}
  0
LINE
  5
1CD
330
2
100
AcDbEntity
  8
0
100
AcDbLine
 10
558.0343872437977
 20
192.5873642346478
 30
0.0
 11
571.3741332059534
 21
192.5873642346478
 31
0.0
1001
ACAD
1000
ASC_BOUNDS
1002
{
1070
    19
1002
}
  0
ARC
  5
1CE
330
2
100
AcDbEntity
  8
0
100
AcDbCircle
 10
584.5343872437979
 20
191.0873642346478
 30
0.0
 40
2.5
100
AcDbArc
 50
180.0
 51
216.8698976458436
  0
LINE
  5
1CF
330
2
100
AcDbEntity
  8
LINIE
 48
10.0
100
AcDbLine
 10
559.407408035335
 20
197.5873642346478
 30
0.0
 11
582.3624434619516
 21
197.5873642346478
 31
0.0
  0
LINE
  5
1D0
330
2
100
AcDbEntity
  8
0
100
AcDbLine
 10
584.6028897612764
 20
197.5873642346479
 30
0.0
 11
594.0343872437979
 21
197.5873642346478
 31
0.0
1001
ACAD
1000
ASC_BOUNDS
1002
{
1070
    19
1002
}
  0
LINE
  5
1D1
330
2
100
AcDbEntity
  8
0
100
AcDbLine
 10
635.151098773631
 20
178.2331463085142
 30
0.0
 11
631.3080057392936
 21
178.2331463085142
 31
0.0
  0
LINE
  5
1D2
330
2
100
AcDbEntity
  8
0
100
AcDbLine
 10
635.151098773631
 20
160.0962826991608
 30
0.0
 11
631.3080057392936
 21
160.0962826991608
 31
0.0
  0
LINE
  5
1D3
330
2
100
AcDbEntity
  8
0
100
AcDbLine
 10
644.5343872437979
 20
179.7420647730271
 30
0.0
 11
599.5343872437979
 21
179.7420647730271
 31
0.0
  0
LINE
  5
1D4
330
2
100
AcDbEntity
  8
0
100
AcDbLine
 10
643.0254687792849
 20
158.5873642346479
 30
0.0
 11
601.0433057083108
 21
158.5873642346479
 31
0.0
  0
LINE
  5
1D5
330
2
100
AcDbEntity
  8
0
100
AcDbLine
 10
644.5343872437979
 20
189.5873642346479
 30
0.0
 11
599.5343872437979
 21
189.5873642346477
 31
0.0
1001
ACAD
1000
ASC_BOUNDS
1002
{
1070
    19
1002
}
  0
LINE
  5
1D6
330
2
100
AcDbEntity
  8
0
100
AcDbLine
 10
631.3080057392936
 20
159.8209328247318
 30
0.0
 11
631.3080057392935
 21
178.5084961829437
 31
0.0
  0
LINE
  5
1D7
330
2
100
AcDbEntity
  8
0
100
AcDbLine
 10
599.5343872437979
 20
160.0962826991608
 30
0.0
 11
599.5343872437979
 21
178.2331463085142
 31
0.0
  0
LINE
  5
1D8
330
2
100
AcDbEntity
  8
0
100
AcDbLine
 10
608.9176757139648
 20
160.0962826991608
 30
0.0
 11
608.9176757139648
 21
178.2331463085142
 31
0.0
  0
LINE
  5
1D9
330
2
100
AcDbEntity
  8
0
100
AcDbLine
 10
612.7607687483021
 20
159.8209328247318
 30
0.0
 11
612.7607687483021
 21
178.5084961829433
 31
0.0
  0
LINE
  5
1DA
330
2
100
AcDbEntity
  8
MITTE
 48
8.0
100
AcDbLine
 10
622.0343872437979
 20
195.1133338309474
 30
0.0
 11
622.0343872437979
 21
155.3782300990805
 31
0.0
  0
ARC
  5
1DB
330
2
100
AcDbEntity
  8
0
100
AcDbCircle
 10
622.0343872437979
 20
194.0623642346479
 30
0.0
 40
35.475
100
AcDbArc
 50
254.8460917587437
 51
285.1539082412563
  0
LINE
  5
1DC
330
2
100
AcDbEntity
  8
0
100
AcDbLine
 10
599.5343872437979
 20
160.0962826991608
 30
0.0
 11
601.0433057083108
 21
158.5873642346479
 31
0.0
1001
ACAD
1000
ASC_BOUNDS
1002
{
1070
    19
1002
}
  0
ARC
  5
1DD
330
2
100
AcDbEntity
  8
0
100
AcDbCircle
 10
604.2260314788814
 20
166.635632292982
 30
0.0
 40
8.048268058334087
100
AcDbArc
 50
234.3425218101836
 51
305.6574781898165
  0
LINE
  5
1DE
330
2
100
AcDbEntity
  8
0
100
AcDbLine
 10
608.9176757139648
 20
160.0962826991608
 30
0.0
 11
612.7607687483021
 21
160.0962826991608
 31
0.0
  0
ARC
  5
1DF
330
2
100
AcDbEntity
  8
0
100
AcDbCircle
 10
622.0343872437979
 20
144.2670647730271
 30
0.0
 40
35.475
100
AcDbArc
 50
74.84609175874371
 51
105.1539082412563
  0
LINE
  5
1E0
330
2
100
AcDbEntity
  8
0
100
AcDbLine
 10
599.5343872437979
 20
179.7420647730272
 30
0.0
 11
599.5343872437979
 21
189.5873642346478
 31
0.0
1001
ACAD
1000
ASC_BOUNDS
1002
{
1070
    19
1002
}
  0
ARC
  5
1E1
330
2
100
AcDbEntity
  8
0
100
AcDbCircle
 10
604.2260314788814
 20
171.693796714693
 30
0.0
 40
8.048268058334087
100
AcDbArc
 50
54.34252181018322
 51
125.6574781898164
  0
LINE
  5
1E2
330
2
100
AcDbEntity
  8
0
100
AcDbLine
 10
599.5343872437979
 20
178.2331463085142
 30
0.0
 11
601.0433057083108
 21
179.7420647730271
 31
0.0
1001
ACAD
1000
ASC_BOUNDS
1002
{
1070
    19
1002
}
  0
LINE
  5
1E3
330
2
100
AcDbEntity
  8
0
100
AcDbLine
 10
608.9176757139648
 20
178.2331463085142
 30
0.0
 11
612.7607687483021
 21
178.2331463085142
 31
0.0
  0
LINE
  5
1E4
330
2
100
AcDbEntity
  8
0
100
AcDbLine
 10
598.034387243798
 20
192.5873642346478
 30
0.0
 11
598.0343872437979
 21
193.5873642346478
 31
0.0
1001
ACAD
1000
ASC_BOUNDS
1002
{
1070
    19
1002
}
  0
ARC
  5
1E5
330
2
100
AcDbEntity
  8
0
100
AcDbCircle
 10
602.034387243798
 20
192.5873642346478
 30
0.0
 40
4.0
100
AcDbArc
 50
180.0
 51
228.590377890729
1001
ACAD
1000
ASC_BOUNDS
1002
{
1070
    19
1002
}
  0
LINE
  5
1E6
330
2
100
AcDbEntity
  8
0
100
AcDbLine
 10
635.151098773631
 20
160.0962826991608
 30
0.0
 11
635.1510987736311
 21
178.2331463085142
 31
0.0
  0
LINE
  5
1E7
330
2
100
AcDbEntity
  8
0
100
AcDbLine
 10
644.5343872437979
 20
160.0962826991609
 30
0.0
 11
644.5343872437979
 21
178.2331463085142
 31
0.0
  0
ARC
  5
1E8
330
2
100
AcDbEntity
  8
0
100
AcDbCircle
 10
639.8427430087145
 20
166.635632292982
 30
0.0
 40
8.048268058334087
100
AcDbArc
 50
234.3425218101832
 51
305.6574781898164
  0
LINE
  5
1E9
330
2
100
AcDbEntity
  8
0
100
AcDbLine
 10
644.5343872437979
 20
160.0962826991609
 30
0.0
 11
643.0254687792849
 21
158.5873642346479
 31
0.0
1001
ACAD
1000
ASC_BOUNDS
1002
{
1070
    19
1002
}
  0
LINE
  5
1EA
330
2
100
AcDbEntity
  8
0
100
AcDbLine
 10
644.5343872437979
 20
179.7420647730271
 30
0.0
 11
644.5343872437979
 21
189.5873642346478
 31
0.0
1001
ACAD
1000
ASC_BOUNDS
1002
{
1070
    19
1002
}
  0
LINE
  5
1EB
330
2
100
AcDbEntity
  8
0
100
AcDbLine
 10
644.5343872437979
 20
178.2331463085142
 30
0.0
 11
643.0254687792851
 21
179.7420647730271
 31
0.0
1001
ACAD
1000
ASC_BOUNDS
1002
{
1070
    19
1002
}
  0
ARC
  5
1EC
330
2
100
AcDbEntity
  8
0
100
AcDbCircle
 10
639.8427430087145
 20
171.693796714693
 30
0.0
 40
8.048268058334087
100
AcDbArc
 50
54.3425218101836
 51
125.6574781898168
  0
LINE
  5
1ED
330
2
100
AcDbEntity
  8
0
100
AcDbLine
 10
670.5343872437978
 20
186.0873642346478
 30
0.0
 11
670.5343872437979
 21
178.0873642346478
 31
0.0
1001
ACAD
1000
ASC_BOUNDS
1002
{
1070
    19
1002
}
  0
ARC
  5
1EE
330
2
100
AcDbEntity
  8
0
100
AcDbCircle
 10
673.0343872437979
 20
178.0873642346478
 30
0.0
 40
2.5
100
AcDbArc
 50
180.0
 51
191.5369590328156
1001
ACAD
1000
ASC_BOUNDS
1002
{
1070
    19
1002
}
  0
ARC
  5
1EF
330
2
100
AcDbEntity
  8
0
100
AcDbCircle
 10
655.5343872437979
 20
192.0873642346478
 30
0.0
 40
2.5
100
AcDbArc
 50
270.0
 51
0.0
1001
ACAD
1000
ASC_BOUNDS
1002
{
1070
    19
1002
}
  0
LINE
  5
1F0
330
2
100
AcDbEntity
  8
0
100
AcDbLine
 10
665.0343872437978
 20
189.5873642346478
 30
0.0
 11
665.0343872437977
 21
188.5873642346478
 31
0.0
1001
ACAD
1000
ASC_BOUNDS
1002
{
1070
    19
1002
}
  0
ARC
  5
1F1
330
2
100
AcDbEntity
  8
0
100
AcDbCircle
 10
668.0343872437978
 20
186.0873642346478
 30
0.0
 40
2.5
100
AcDbArc
 50
0.0
 51
90.0
1001
ACAD
1000
ASC_BOUNDS
1002
{
1070
    19
1002
}
  0
MTEXT
  5
1F2
102
{ACAD_REACTORS
330
1F3
102
}
330
2
100
AcDbEntity
  8
BEM
 48
10.0
100
AcDbMText
 10
613.0433420937672
 20
186.1266045212951
 30
0.0
 40
10.0
 41
0.0
 71
     4
 72
     1
  1
\A1;
 73
     1
 44
1.0
  0
LEADER
  5
1F3
330
2
100
AcDbEntity
  8
BEM
100
AcDbLeader
  3
ISO-25
 73
     0
 74
     0
 75
     1
 40
10.0
 76
     3
 10
695.0343872437979
 20
177.5873642346478
 30
0.0
 10
738.2529747553165
 20
110.0042590341895
 30
0.0
 10
745.2529747553164
 20
110.0042590341895
 30
0.0
340
1F2
1001
ACAD
1000
DSTYLE
1002
{
1070
    40
1040
1.0
1002
}
  0
MTEXT
  5
1F6
330
2
100
AcDbEntity
  8
BEM
100
AcDbMText
 10
740.5205081853056
 20
119.8320953242796
 30
0.0
 40
10.0
 41
0.0
 71
     4
 72
     1
  1
G 1"
 73
     1
 44
1.0
  0
LINE
  5
1F7
330
2
100
AcDbEntity
  8
BEM
100
AcDbLine
 10
745.2529747553164
 20
110.0042590341895
 30
0.0
 11
774.7791890939854
 21
110.0042590341895
 31
0.0
  0
LINE
  5
1F8
330
2
100
AcDbEntity
  8
0
100
AcDbLine
 10
725.0343872437979
 20
188.5873642346478
 30
0.0
 11
694.1475348693887
 21
188.5873642346478
 31
0.0
1001
ACAD
1000
ASC_BOUNDS
1002
{
1070
    19
1002
}
  0
LINE
  5
1F9
330
2
100
AcDbEntity
  8
0
100
AcDbLine
 10
679.8888872437978
 20
179.0663642346478
 30
0.0
 11
710.179887243798
 21
179.0663642346478
 31
0.0
1001
ACAD
1000
ASC_BOUNDS
1002
{
1070
    19
1002
}
  0
LINE
  5
1FA
330
2
100
AcDbEntity
  8
0
100
AcDbLine
 10
679.8888872437978
 20
188.7251529190216
 30
0.0
 11
679.8888872437977
 21
179.0663642346478
 31
0.0
1001
ACAD
1000
ASC_BOUNDS
1002
{
1070
    19
1002
}
  0
LINE
  5
1FB
330
2
100
AcDbEntity
  8
LINIE
 48
10.0
100
AcDbLine
 10
678.4098872437979
 20
188.4055537432831
 30
0.0
 11
678.4098872437978
 21
177.5873642346478
 31
0.0
1001
ACAD
1000
ASC_BOUNDS
1002
{
1070
    19
1002
}
  0
LINE
  5
1FC
330
2
100
AcDbEntity
  8
0
100
AcDbLine
 10
679.8888872437978
 20
179.0663642346478
 30
0.0
 11
678.4098872437978
 21
177.5873642346478
 31
0.0
1001
ACAD
1000
ASC_BOUNDS
1002
{
1070
    19
1002
}
  0
LINE
  5
1FD
330
2
100
AcDbEntity
  8
0
100
AcDbLine
 10
710.1798872437979
 20
188.1685122884444
 30
0.0
 11
710.1798872437978
 21
179.0663642346478
 31
0.0
1001
ACAD
1000
ASC_BOUNDS
1002
{
1070
    19
1002
}
  0
LINE
  5
1FE
330
2
100
AcDbEntity
  8
LINIE
 48
10.0
100
AcDbLine
 10
711.6588872437979
 20
188.1728396892818
 30
0.0
 11
711.6588872437978
 21
177.5873642346477
 31
0.0
1001
ACAD
1000
ASC_BOUNDS
1002
{
1070
    19
1002
}
  0
LINE
  5
1FF
330
2
100
AcDbEntity
  8
MITTE
 48
10.0
100
AcDbLine
 10
695.0343872437979
 20
194.2887085617089
 30
0.0
 11
695.0343872437979
 21
173.4882335111995
 31
0.0
  0
LINE
  5
200
330
2
100
AcDbEntity
  8
0
100
AcDbLine
 10
710.1798872437979
 20
179.0663642346478
 30
0.0
 11
711.6588872437978
 21
177.5873642346477
 31
0.0
1001
ACAD
1000
ASC_BOUNDS
1002
{
1070
    19
1002
}
  0
LINE
  5
201
330
2
100
AcDbEntity
  8
BEM
100
AcDbLine
 10
725.0343872437979
 20
188.5873642346478
 30
0.0
 11
743.9906099628122
 21
188.5873642346478
 31
0.0
  0
LINE
  5
202
330
2
100
AcDbEntity
  8
0
100
AcDbLine
 10
715.5343872437978
 20
186.0873642346478
 30
0.0
 11
715.5343872437978
 21
178.0873642346477
 31
0.0
1001
ACAD
1000
ASC_BOUNDS
1002
{
1070
    19
1002
}
  0
ARC
  5
203
330
2
100
AcDbEntity
  8
0
100
AcDbCircle
 10
713.0343872437978
 20
178.0873642346477
 30
0.0
 40
2.5
100
AcDbArc
 50
348.4630409671843
 51
0.0
1001
ACAD
1000
ASC_BOUNDS
1002
{
1070
    19
1002
}
  0
ARC
  5
204
330
2
100
AcDbEntity
  8
0
100
AcDbCircle
 10
718.0343872437978
 20
186.0873642346478
 30
0.0
 40
2.5
100
AcDbArc
 50
90.0
 51
180.0
1001
ACAD
1000
ASC_BOUNDS
1002
{
1070
    19
1002
}
  0
ARC
  5
205
330
2
100
AcDbEntity
  8
0
100
AcDbCircle
 10
725.0343872437979
 20
193.5873642346478
 30
0.0
 40
5.0
100
AcDbArc
 50
270.0
 51
0.0
1001
ACAD
1000
ASC_BOUNDS
1002
{
1070
    19
1002
}
  0
LINE
  5
206
330
2
100
AcDbEntity
  8
BEM
100
AcDbLine
 10
758.3216373346661
 20
188.5873642346478
 30
0.0
 11
779.1421841519452
 21
188.5873642346478
 31
0.0
  0
CIRCLE
  5
207
330
2
100
AcDbEntity
  8
0
100
AcDbCircle
 10
886.3879156079699
 20
177.375423457522
 30
0.0
 40
4.5
  0
ARC
  5
208
330
2
100
AcDbEntity
  8
0
100
AcDbCircle
 10
888.6759748308444
 20
181.2373642346479
 30
0.0
 40
23.65000000000001
100
AcDbArc
 50
260.3637376065616
 51
289.8516022315858
  0
LINE
  5
209
330
2
100
AcDbEntity
  8
0
100
AcDbLine
 10
884.2202381537957
 20
157.5873642346479
 30
0.0
 11
897.9259748308443
 21
157.5873642346479
 31
0.0
1001
ACAD
1000
ASC_BOUNDS
1002
{
1070
    19
1002
}
  0
DIMENSION
  5
20A
330
2
100
AcDbEntity
  8
BEM
100
AcDbDimension
  2
*D43
 10
980.9610987852597
 20
178.3765323895094
 30
0.0
 11
1021.941224946823
 21
169.025398096071
 31
0.0
 70
   163
 71
     5
 42
9.000000000000227
  3
ISO-25
100
AcDbDiametricDimension
 15
989.735557379679
 25
176.3743145255344
 35
0.0
 40
0.0
1001
ACAD
1000
DSTYLE
1002
{
1070
    40
1040
1.0
1002
}
  0
DIMENSION
  5
216
330
2
100
AcDbEntity
  8
BEM
100
AcDbDimension
  2
*D44
 10
861.8501677760166
 20
238.4745588591447
 30
0.0
 11
1060.828632286086
 21
199.6285103716606
 31
0.0
 70
   163
 71
     5
 42
157.9999999999999
  3
ISO-25
100
AcDbDiametricDimension
 15
1016.922606834672
 25
208.200169610151
 35
0.0
 40
0.0
1001
ACAD
1000
DSTYLE
1002
{
1070
    40
1040
1.0
1002
}
  0
LINE
  5
222
330
2
100
AcDbEntity
  8
MITTE
 48
3.0
100
AcDbLine
 10
880.7576502040385
 20
183.0056888614534
 30
0.0
 11
891.0437403545067
 21
172.7195987109852
 31
0.0
  0
LINE
  5
223
330
2
100
AcDbEntity
  8
MITTE
 48
10.0
100
AcDbLine
 10
921.6248596237186
 20
223.3373642346478
 30
0.0
 11
759.1943265460979
 21
223.3373642346478
 31
0.0
  0
LINE
  5
224
330
2
100
AcDbEntity
  8
MITTE
 48
3.0
100
AcDbLine
 10
801.547077341411
 20
184.4584667452145
 30
0.0
 11
788.5764045300963
 21
171.4877939338999
 31
0.0
  0
ARC
  5
225
330
2
100
AcDbEntity
  8
0
100
AcDbCircle
 10
792.1759748308443
 20
181.2373642346479
 30
0.0
 40
23.65000000000001
100
AcDbArc
 50
250.1483977684142
 51
279.6362623934384
  0
LINE
  5
226
330
2
100
AcDbEntity
  8
0
100
AcDbLine
 10
782.9259748308443
 20
157.5873642346479
 30
0.0
 11
796.6317115078928
 21
157.5873642346479
 31
0.0
1001
ACAD
1000
ASC_BOUNDS
1002
{
1070
    19
1005
0
1002
}
  0
LINE
  5
227
330
2
100
AcDbEntity
  8
0
100
AcDbLine
 10
784.1447856287397
 20
158.9927581468791
 30
0.0
 11
784.1447856287397
 21
167.8988600881891
 31
0.0
  0
LINE
  5
228
330
2
100
AcDbEntity
  8
0
100
AcDbLine
 10
781.9259748308443
 20
158.5873642346479
 30
0.0
 11
781.9259748308443
 21
170.2454627806595
 31
0.0
1001
ACAD
1000
ASC_BOUNDS
1002
{
1070
    19
1002
}
  0
LINE
  5
229
330
2
100
AcDbEntity
  8
0
100
AcDbLine
 10
781.9259748308443
 20
158.5873642346479
 30
0.0
 11
782.9259748308443
 21
157.5873642346479
 31
0.0
1001
ACAD
1000
ASC_BOUNDS
1002
{
1070
    19
1002
}
  0
LINE
  5
22A
330
2
100
AcDbEntity
  8
0
100
AcDbLine
 10
784.1447856287397
 20
158.9927581468791
 30
0.0
 11
781.9259748308443
 21
158.5873642346479
 31
0.0
  0
CIRCLE
  5
22B
330
2
100
AcDbEntity
  8
0
100
AcDbCircle
 10
794.4640340537187
 20
177.3754234575223
 30
0.0
 40
4.5
  0
ARC
  5
22C
330
2
100
AcDbEntity
  8
0
100
AcDbCircle
 10
840.4259748308444
 20
223.3373642346478
 30
0.0
 40
14.0
100
AcDbArc
 50
106.6015495990197
 51
73.39845040098025
  0
CIRCLE
  5
22D
330
2
100
AcDbEntity
  8
0
100
AcDbCircle
 10
840.4259748308444
 20
223.3373642346478
 30
0.0
 40
11.0
  0
CIRCLE
  5
22E
330
2
100
AcDbEntity
  8
0
100
AcDbCircle
 10
840.4259748308444
 20
223.3373642346478
 30
0.0
 40
12.0
  0
LINE
  5
22F
330
2
100
AcDbEntity
  8
0
100
AcDbLine
 10
836.4259748308443
 20
238.2373642346478
 30
0.0
 11
844.4259748308443
 21
238.2373642346478
 31
0.0
  0
LINE
  5
230
330
2
100
AcDbEntity
  8
0
100
AcDbLine
 10
836.4259748308443
 20
238.2373642346478
 30
0.0
 11
836.4259748308443
 21
234.6510727336325
 31
0.0
  0
LINE
  5
231
330
2
100
AcDbEntity
  8
0
100
AcDbLine
 10
844.4259748308443
 20
238.2373642346478
 30
0.0
 11
844.4259748308443
 21
234.6510727336325
 31
0.0
  0
LINE
  5
232
330
2
100
AcDbEntity
  8
0
100
AcDbLine
 10
896.7071640329489
 20
158.9927581468791
 30
0.0
 11
896.7071640329489
 21
167.8988600881891
 31
0.0
  0
LINE
  5
233
330
2
100
AcDbEntity
  8
0
100
AcDbLine
 10
898.9259748308443
 20
158.5873642346479
 30
0.0
 11
898.9259748308443
 21
170.2454627806595
 31
0.0
1001
ACAD
1000
ASC_BOUNDS
1002
{
1070
    19
1002
}
  0
LINE
  5
234
330
2
100
AcDbEntity
  8
0
100
AcDbLine
 10
898.9259748308443
 20
158.5873642346479
 30
0.0
 11
897.9259748308443
 21
157.5873642346479
 31
0.0
1001
ACAD
1000
ASC_BOUNDS
1002
{
1070
    19
1002
}
  0
LINE
  5
235
330
2
100
AcDbEntity
  8
0
100
AcDbLine
 10
898.9259748308443
 20
158.5873642346479
 30
0.0
 11
896.7071640329489
 21
158.9927581468791
 31
0.0
  0
LINE
  5
236
330
2
100
AcDbEntity
  8
0
100
AcDbLine
 10
584.6028897612764
 20
319.5873642346477
 30
0.0
 11
725.0343872437979
 21
319.5873642346478
 31
0.0
1001
ACAD
1000
ASC_BOUNDS
1002
{
1070
    19
1002
}
  0
ARC
  5
237
330
2
100
AcDbEntity
  8
0
100
AcDbCircle
 10
574.3741332059535
 20
253.5873642346479
 30
0.0
 40
10.0
100
AcDbArc
 50
48.59037789072908
 51
90.0
  0
LINE
  5
238
330
2
100
AcDbEntity
  8
0
100
AcDbLine
 10
558.0343872437979
 20
263.5873642346478
 30
0.0
 11
574.3741332059535
 21
263.5873642346479
 31
0.0
  0
LINE
  5
239
330
2
100
AcDbEntity
  8
0
100
AcDbLine
 10
518.0343872437979
 20
324.5873642346478
 30
0.0
 11
558.0343872437979
 21
324.5873642346478
 31
0.0
1001
ACAD
1000
ASC_BOUNDS
1002
{
1070
    19
1005
0
1002
}
  0
LINE
  5
23A
330
2
100
AcDbEntity
  8
0
100
AcDbLine
 10
518.0343872437978
 20
324.5873642346479
 30
0.0
 11
518.0343872437979
 21
308.5873642346478
 31
0.0
1001
ACAD
1000
ASC_BOUNDS
1002
{
1070
    19
1005
0
1005
0
1002
}
  0
ARC
  5
23B
330
2
100
AcDbEntity
  8
0
100
AcDbCircle
 10
571.3741332059535
 20
314.5873642346477
 30
0.0
 40
10.0
100
AcDbArc
 50
48.59037789072908
 51
90.0
1001
ACAD
1000
ASC_BOUNDS
1002
{
1070
    19
1002
}
  0
LINE
  5
23C
330
2
100
AcDbEntity
  8
LINIE
 48
10.0
100
AcDbLine
 10
577.5795676922022
 20
319.5873642346477
 30
0.0
 11
559.4476345721663
 21
319.5873642346477
 31
0.0
  0
LINE
  5
23D
330
2
100
AcDbEntity
  8
LINIE
 48
10.0
100
AcDbLine
 10
559.407408035335
 20
319.5873642346478
 30
0.0
 11
582.3624434619516
 21
319.5873642346478
 31
0.0
  0
LINE
  5
23E
330
2
100
AcDbEntity
  8
0
100
AcDbLine
 10
558.034387243798
 20
324.5873642346479
 30
0.0
 11
571.3741332059534
 21
324.5873642346478
 31
0.0
1001
ACAD
1000
ASC_BOUNDS
1002
{
1070
    19
1002
}
  0
ARC
  5
23F
330
2
100
AcDbEntity
  8
0
100
AcDbCircle
 10
584.6028897612764
 20
329.5873642346477
 30
0.0
 40
10.0
100
AcDbArc
 50
228.590377890729
 51
270.0
1001
ACAD
1000
ASC_BOUNDS
1002
{
1070
    19
1002
}
  0
ARC
  5
240
330
2
100
AcDbEntity
  8
0
100
AcDbCircle
 10
660.5343872437979
 20
255.6546863560045
 30
0.0
 40
2.5
100
AcDbArc
 50
90.0
 51
180.0
1001
ACAD
1000
ASC_BOUNDS
1002
{
1070
    19
1002
}
  0
ARC
  5
241
330
2
100
AcDbEntity
  8
0
100
AcDbCircle
 10
725.0343872437979
 20
314.5873642346478
 30
0.0
 40
5.0
100
AcDbArc
 50
0.0
 51
90.0
1001
ACAD
1000
ASC_BOUNDS
1002
{
1070
    19
1002
}
  0
CIRCLE
  5
242
330
2
100
AcDbEntity
  8
0
100
AcDbCircle
 10
886.3879156079699
 20
269.2993050117734
 30
0.0
 40
4.5
  0
ARC
  5
243
330
2
100
AcDbEntity
  8
0
100
AcDbCircle
 10
840.4259748308444
 20
258.5873642346478
 30
0.0
 40
61.0
100
AcDbArc
 50
17.28014201780217
 51
162.7198579821978
1001
ACAD
1000
ASC_BOUNDS
1002
{
1070
    19
1005
0
1002
}
  0
LINE
  5
244
330
2
100
AcDbEntity
  8
MITTE
 48
3.0
100
AcDbLine
 10
892.0538061738955
 20
274.965195577699
 30
0.0
 11
881.2790879319376
 21
264.190477335741
 31
0.0
  0
ARC
  5
245
330
2
100
AcDbEntity
  8
0
100
AcDbCircle
 10
840.4259748308444
 20
257.8373642346478
 30
0.0
 40
55.0
100
AcDbArc
 50
32.262191978859
 51
147.7378080211409
  0
CIRCLE
  5
246
330
2
100
AcDbEntity
  8
0
100
AcDbCircle
 10
794.4640340537181
 20
269.2993050117727
 30
0.0
 40
4.5
  0
LINE
  5
247
330
2
100
AcDbEntity
  8
MITTE
 48
3.0
100
AcDbLine
 10
789.0960182617332
 20
274.6673208037574
 30
0.0
 11
800.0489762691866
 21
263.7143627963043
 31
0.0
  0
ARC
  5
248
330
2
100
AcDbEntity
  8
0
100
AcDbCircle
 10
840.4259748308444
 20
316.5873642346478
 30
0.0
 40
8.0
100
AcDbArc
 50
18.40505542230711
 51
161.5949445776928
  0
MTEXT
  5
2B1
102
{ACAD_REACTORS
330
2B2
102
}
330
2
100
AcDbEntity
  8
BEM
100
AcDbMText
 10
173.8263578764072
 20
457.9940354041829
 30
0.0
 40
10.0
 41
0.0
 71
     1
 72
     1
  1
Paßfeder\PFitting key\PClavette d'ajustage\PLinguetta\PA 8x7x40 DIN 6885
 73
     1
 44
1.0
  0
LEADER
  5
2B2
330
2
100
AcDbEntity
  8
BEM
100
AcDbLeader
  3
STANDARD
 73
     0
 75
     1
 40
78.57142857142858
 41
153.3333333333334
 76
     3
 10
395.9810548161349
 20
238.2373642346478
 30
0.0
 10
337.3390606373269
 20
375.3810852194717
 30
0.0
 10
330.3390606373269
 20
375.3810852194717
 30
0.0
340
2B1
213
-0.8206305724136768
223
-0.0415216132826188
233
0.0
  0
ENDSEC
  0
SECTION
  2
OBJECTS
  0
DICTIONARY
  5
1A
330
0
100
AcDbDictionary
281
     1
  3
ACAD_COLOR
350
300
  3
ACAD_GROUP
350
18
  3
ACAD_LAYOUT
350
328
  3
ACAD_MATERIAL
350
2D6
  3
ACAD_MLEADERSTYLE
350
325
  3
ACAD_MLINESTYLE
350
19
  3
ACAD_PLOTSETTINGS
350
329
  3
ACAD_PLOTSTYLENAME
350
2D4
  3
ACAD_SCALELIST
350
303
  3
ACAD_TABLESTYLE
350
301
  3
ACAD_VISUALSTYLE
350
2EF
  3
ACDB_RECOMPOSE_DATA
350
45C
  3
ACDBVARIABLEDICTIONARY
350
26E
  3
ACMDICTIONARY
350
28C
  3
AMG
350
332
  3
AMGSNAPSETTINGS
350
48E
  3
ASE_INDEX_DICTIONARY
350
7AF
  0
DICTIONARY
  5
43D
330
4
100
AcDbDictionary
280
     1
281
     1
  3
ADSK_XREC_LAYER_RECONCILED
360
43E
  0
DICTIONARY
  5
43F
330
21
100
AcDbDictionary
280
     1
281
     1
  3
ADSK_XREC_LAYER_RECONCILED
360
440
  0
DICTIONARY
  5
441
330
4A
100
AcDbDictionary
280
     1
281
     1
  3
ADSK_XREC_LAYER_RECONCILED
360
442
  0
DICTIONARY
  5
443
330
87
100
AcDbDictionary
280
     1
281
     1
  3
ADSK_XREC_LAYER_RECONCILED
360
444
  0
DICTIONARY
  5
270
330
2
100
AcDbDictionary
280
     1
281
     1
  3
ACAD_SORTENTS
360
498
  0
DICTIONARY
  5
7EB
330
778
100
AcDbDictionary
280
     1
281
     1
  3
ACAD_MTEXT_2008_RT
360
7EC
  0
DICTIONARY
  5
7ED
330
7A4
100
AcDbDictionary
280
     1
281
     1
  3
ACAD_MTEXT_2008_RT
360
7EE
  0
DICTIONARY
  5
7EF
330
7AC
100
AcDbDictionary
280
     1
281
     1
  3
ACAD_MTEXT_2008_RT
360
7F0
  0
DICTIONARY
  5
300
102
{ACAD_REACTORS
330
1A
102
}
330
1A
100
AcDbDictionary
281
     1
  0
DICTIONARY
  5
18
102
{ACAD_REACTORS
330
1A
102
}
330
1A
100
AcDbDictionary
281
     1
  0
DICTIONARY
  5
328
102
{ACAD_REACTORS
330
1A
102
}
330
1A
100
AcDbDictionary
281
     1
  3
Layout1
350
32B
  3
Model
350
32A
  0
DICTIONARY
  5
2D6
102
{ACAD_REACTORS
330
1A
102
}
330
1A
100
AcDbDictionary
281
     1
  3
ByBlock
350
2DF
  3
ByLayer
350
2D7
  3
Global
350
2E7
  0
DICTIONARY
  5
325
102
{ACAD_REACTORS
330
1A
102
}
330
1A
100
AcDbDictionary
281
     1
  3
Standard
350
326
  0
DICTIONARY
  5
19
102
{ACAD_REACTORS
330
1A
102
}
330
1A
100
AcDbDictionary
281
     1
  3
STANDARD
350
1B
  0
DICTIONARY
  5
329
102
{ACAD_REACTORS
330
1A
102
}
330
1A
100
AcDbDictionary
281
     1
  0
ACDBDICTIONARYWDFLT
  5
2D4
102
{ACAD_REACTORS
330
1A
102
}
330
1A
100
AcDbDictionary
281
     1
  3
Normal
350
2D5
100
AcDbDictionaryWithDefault
340
2D5
  0
DICTIONARY
  5
303
102
{ACAD_REACTORS
330
1A
102
}
330
1A
100
AcDbDictionary
281
     1
  3
A0
350
304
  3
A1
350
305
  3
A2
350
306
  3
A3
350
307
  3
A4
350
308
  3
A5
350
309
  3
A6
350
30A
  3
A7
350
30B
  3
A8
350
30C
  3
A9
350
30D
  3
B0
350
30E
  3
B1
350
30F
  3
B2
350
310
  3
B3
350
311
  3
B4
350
312
  3
B5
350
313
  3
B6
350
314
  3
B7
350
315
  3
B8
350
316
  3
B9
350
317
  3
C0
350
318
  3
C1
350
319
  3
C2
350
31A
  3
C3
350
31B
  3
C4
350
31C
  3
C5
350
31D
  3
C6
350
31E
  3
C7
350
31F
  3
C8
350
320
  3
C9
350
321
  3
D0
350
322
  3
D1
350
323
  3
D2
350
324
  0
DICTIONARY
  5
301
102
{ACAD_REACTORS
330
1A
102
}
330
1A
100
AcDbDictionary
281
     1
  3
Standard
350
302
  0
DICTIONARY
  5
2EF
102
{ACAD_REACTORS
330
1A
102
}
330
1A
100
AcDbDictionary
281
     1
  3
2dWireframe
350
2F5
  3
3D Hidden
350
2F7
  3
3dWireframe
350
2F6
  3
Basic
350
2F4
  3
Brighten
350
2FB
  3
ColorChange
350
2FF
  3
Conceptual
350
2F8
  3
Dim
350
2FA
  3
Facepattern
350
2FE
  3
Flat
350
2F0
  3
FlatWithEdges
350
2F1
  3
Gouraud
350
2F2
  3
GouraudWithEdges
350
2F3
  3
Linepattern
350
2FD
  3
Realistic
350
2F9
  3
Thicken
350
2FC
  0
XRECORD
  5
45C
102
{ACAD_REACTORS
330
1A
102
}
330
1A
100
AcDbXrecord
280
     1
 90
        1
330
302
  0
DICTIONARY
  5
26E
102
{ACAD_REACTORS
330
1A
102
}
330
1A
100
AcDbDictionary
281
     1
  3
CANNOSCALE
350
460
  3
CMLEADERSTYLE
350
45E
  3
CTABLESTYLE
350
45D
  3
INDEXCTL
350
26F
  3
LIGHTINGUNITS
350
461
  3
MSLTSCALE
350
45F
  0
DICTIONARY
  5
28C
102
{ACAD_REACTORS
330
1A
102
}
330
1A
100
AcDbDictionary
281
     1
  3
ACMSTDDICTIONARY
350
28D
  0
DICTIONARY
  5
332
102
{ACAD_REACTORS
330
1A
102
}
330
1A
100
AcDbDictionary
281
     1
  0
DICTIONARY
  5
48E
102
{ACAD_REACTORS
330
1A
102
}
330
1A
100
AcDbDictionary
281
     1
  0
DICTIONARY
  5
7AF
102
{ACAD_REACTORS
330
1A
102
}
330
1A
100
AcDbDictionary
281
     1
  3
ASEBlockHierarchyIndexRecord
350
7B0
1001
DCO15
1040
1730438039.678
  0
XRECORD
  5
43E
102
{ACAD_REACTORS
330
43D
102
}
330
43D
100
AcDbXrecord
280
     1
290
     1
  0
XRECORD
  5
440
102
{ACAD_REACTORS
330
43F
102
}
330
43F
100
AcDbXrecord
280
     1
290
     1
  0
XRECORD
  5
442
102
{ACAD_REACTORS
330
441
102
}
330
441
100
AcDbXrecord
280
     1
290
     1
  0
XRECORD
  5
444
102
{ACAD_REACTORS
330
443
102
}
330
443
100
AcDbXrecord
280
     1
290
     1
  0
SORTENTSTABLE
  5
498
102
{ACAD_REACTORS
330
270
102
}
330
270
100
AcDbSortentsTable
330
2
331
168
  5
168
331
1CE
  5
1CE
331
1E8
  5
1E8
331
20A
  5
20A
331
22C
  5
22C
331
11B
  5
11B
331
F9
  5
F9
331
DF
  5
DF
331
BD
  5
BD
331
9B
  5
9B
331
15F
  5
15F
331
1F9
  5
1F9
331
1DF
  5
1DF
331
23D
  5
23D
331
14E
  5
14E
331
12C
  5
12C
331
10A
  5
10A
331
4E
  5
4E
331
1CC
  5
1CC
331
208
  5
208
331
1E6
  5
1E6
331
22A
  5
22A
331
119
  5
119
331
DD
  5
DD
331
BB
  5
BB
331
99
  5
99
331
15D
  5
15D
331
1F7
  5
1F7
331
1DD
  5
1DD
331
23B
  5
23B
331
12A
  5
12A
331
108
  5
108
331
CC
  5
CC
331
4C
  5
4C
331
1CA
  5
1CA
331
206
  5
206
331
1E4
  5
1E4
331
228
  5
228
331
15B
  5
15B
331
117
  5
117
331
DB
  5
DB
331
B9
  5
B9
331
1DB
  5
1DB
331
239
  5
239
331
106
  5
106
331
EC
  5
EC
331
CA
  5
CA
331
86
  5
86
331
97
  5
97
331
5B
  5
5B
331
1C8
  5
1C8
331
204
  5
204
331
1E2
  5
1E2
331
248
  5
248
331
226
  5
226
331
159
  5
159
331
115
  5
115
331
D9
  5
D9
331
1F3
  5
1F3
331
1D9
  5
1D9
331
237
  5
237
331
126
  5
126
331
104
  5
104
331
C8
  5
C8
331
B7
  5
B7
331
95
  5
95
331
59
  5
59
331
202
  5
202
331
1E0
  5
1E0
331
246
  5
246
331
224
  5
224
331
157
  5
157
331
113
  5
113
331
1F1
  5
1F1
331
1D7
  5
1D7
331
235
  5
235
331
124
  5
124
331
C6
  5
C6
331
1C6
  5
1C6
331
D7
  5
D7
331
B5
  5
B5
331
93
  5
93
331
57
  5
57
331
200
  5
200
331
244
  5
244
331
222
  5
222
331
2B2
  5
2B2
331
1B3
  5
1B3
331
155
  5
155
331
111
  5
111
331
1EF
  5
1EF
331
1D5
  5
1D5
331
233
  5
233
331
122
  5
122
331
C4
  5
C4
331
166
  5
166
331
1C4
  5
1C4
331
D5
  5
D5
331
B3
  5
B3
331
91
  5
91
331
55
  5
55
331
242
  5
242
331
153
  5
153
331
1B1
  5
1B1
331
1ED
  5
1ED
331
1D3
  5
1D3
331
231
  5
231
331
120
  5
120
331
C2
  5
C2
331
A0
  5
A0
331
164
  5
164
331
1C2
  5
1C2
331
1FE
  5
1FE
331
10F
  5
10F
331
D3
  5
D3
331
B1
  5
B1
331
8F
  5
8F
331
53
  5
53
331
20
  5
20
331
240
  5
240
331
16B
  5
16B
331
151
  5
151
331
1AF
  5
1AF
331
1EB
  5
1EB
331
1D1
  5
1D1
331
11E
  5
11E
331
C0
  5
C0
331
9E
  5
9E
331
22F
  5
22F
331
162
  5
162
331
1C0
  5
1C0
331
1FC
  5
1FC
331
10D
  5
10D
331
D1
  5
D1
331
AF
  5
AF
331
8D
  5
8D
331
51
  5
51
331
2F
  5
2F
331
1E
  5
1E
331
169
  5
169
331
1E9
  5
1E9
331
1CF
  5
1CF
331
22D
  5
22D
331
11C
  5
11C
331
FA
  5
FA
331
BE
  5
BE
331
9C
  5
9C
331
160
  5
160
331
1FA
  5
1FA
331
23E
  5
23E
331
14F
  5
14F
331
12D
  5
12D
331
10B
  5
10B
331
CF
  5
CF
331
8B
  5
8B
331
4F
  5
4F
331
1CD
  5
1CD
331
209
  5
209
331
1E7
  5
1E7
331
22B
  5
22B
331
11A
  5
11A
331
DE
  5
DE
331
BC
  5
BC
331
9A
  5
9A
331
78
  5
78
331
15E
  5
15E
331
1F8
  5
1F8
331
1DE
  5
1DE
331
12B
  5
12B
331
109
  5
109
331
CD
  5
CD
331
89
  5
89
331
4D
  5
4D
331
23C
  5
23C
331
5E
  5
5E
331
3C
  5
3C
331
1CB
  5
1CB
331
207
  5
207
331
1E5
  5
1E5
331
229
  5
229
331
15C
  5
15C
331
118
  5
118
331
DC
  5
DC
331
1F6
  5
1F6
331
1DC
  5
1DC
331
23A
  5
23A
331
107
  5
107
331
CB
  5
CB
331
BA
  5
BA
331
98
  5
98
331
187
  5
187
331
5C
  5
5C
331
1C9
  5
1C9
331
205
  5
205
331
1E3
  5
1E3
331
227
  5
227
331
116
  5
116
331
DA
  5
DA
331
B8
  5
B8
331
15A
  5
15A
331
1DA
  5
1DA
331
216
  5
216
331
238
  5
238
331
127
  5
127
331
105
  5
105
331
C9
  5
C9
331
85
  5
85
331
6B
  5
6B
331
5A
  5
5A
331
49
  5
49
331
203
  5
203
331
1E1
  5
1E1
331
247
  5
247
331
225
  5
225
331
194
  5
194
331
158
  5
158
331
114
  5
114
331
D8
  5
D8
331
1F2
  5
1F2
331
1D8
  5
1D8
331
236
  5
236
331
125
  5
125
331
C7
  5
C7
331
1C7
  5
1C7
331
B6
  5
B6
331
94
  5
94
331
58
  5
58
331
201
  5
201
331
245
  5
245
331
223
  5
223
331
156
  5
156
331
112
  5
112
331
1F0
  5
1F0
331
1D6
  5
1D6
331
234
  5
234
331
123
  5
123
331
C5
  5
C5
331
167
  5
167
331
1C5
  5
1C5
331
D6
  5
D6
331
B4
  5
B4
331
92
  5
92
331
56
  5
56
331
243
  5
243
331
2B1
  5
2B1
331
1B2
  5
1B2
331
154
  5
154
331
110
  5
110
331
1EE
  5
1EE
331
1D4
  5
1D4
331
232
  5
232
331
121
  5
121
331
C3
  5
C3
331
165
  5
165
331
1A1
  5
1A1
331
1C3
  5
1C3
331
1FF
  5
1FF
331
D4
  5
D4
331
B2
  5
B2
331
90
  5
90
331
54
  5
54
331
241
  5
241
331
16C
  5
16C
331
152
  5
152
331
130
  5
130
331
1B0
  5
1B0
331
1EC
  5
1EC
331
1D2
  5
1D2
331
230
  5
230
331
11F
  5
11F
331
C1
  5
C1
331
9F
  5
9F
331
163
  5
163
331
1C1
  5
1C1
331
1FD
  5
1FD
331
10E
  5
10E
331
D2
  5
D2
331
B0
  5
B0
331
8E
  5
8E
331
52
  5
52
331
16A
  5
16A
331
150
  5
150
331
1AE
  5
1AE
331
1EA
  5
1EA
331
1D0
  5
1D0
331
22E
  5
22E
331
13F
  5
13F
331
11D
  5
11D
331
FB
  5
FB
331
BF
  5
BF
331
9D
  5
9D
331
17B
  5
17B
331
161
  5
161
331
1FB
  5
1FB
331
10C
  5
10C
331
D0
  5
D0
331
8C
  5
8C
331
50
  5
50
331
23F
  5
23F
331
12E
  5
12E
331
1D
  5
1D
  0
XRECORD
  5
7EC
102
{ACAD_REACTORS
330
7EB
102
}
330
7EB
100
AcDbXrecord
280
     1
 40
5712.0
  1
\A1;\U+2205130
  0
XRECORD
  5
7EE
102
{ACAD_REACTORS
330
7ED
102
}
330
7ED
100
AcDbXrecord
280
     1
 40
4473.0
  1
\A1;\U+22059
  0
XRECORD
  5
7F0
102
{ACAD_REACTORS
330
7EF
102
}
330
7EF
100
AcDbXrecord
280
     1
 40
5850.0
  1
\A1;\U+2205158
  0
LAYOUT
  5
32B
102
{ACAD_REACTORS
330
328
102
}
330
328
100
AcDbPlotSettings
  1

  2
Konstruktion
  4

  6

 40
0.0
 41
0.0
 42
0.0
 43
0.0
 44
0.0
 45
0.0
 46
0.0
 47
0.0
 48
0.0
 49
0.0
140
0.0
141
0.0
142
1.0
143
1.0
 70
   688
 72
     0
 73
     0
 74
     5
  7

 75
    16
147
1.0
 76
     0
 77
     2
 78
   300
148
0.0
149
0.0
100
AcDbLayout
  1
Layout1
 70
     0
 71
     1
 10
0.0
 20
0.0
 11
420.0
 21
297.0
 12
0.0
 22
0.0
 32
0.0
 14
1.000000000000000E+20
 24
1.000000000000000E+20
 34
1.000000000000000E+20
 15
-1.000000000000000E+20
 25
-1.000000000000000E+20
 35
-1.000000000000000E+20
146
0.0
 13
0.0
 23
0.0
 33
0.0
 16
1.0
 26
0.0
 36
0.0
 17
0.0
 27
1.0
 37
0.0
 76
     0
330
7
  0
LAYOUT
  5
32A
102
{ACAD_REACTORS
330
328
102
}
330
328
100
AcDbPlotSettings
  1

  2
Konstruktion
  4
A4
  6

 40
7.143749713897705
 41
7.186082363128662
 42
7.059066772460937
 43
5.027069091796875
 44
209.9733276367187
 45
296.9683227539062
 46
37.76208255330756
 47
0.0
 48
0.0
 49
0.0
140
0.0
141
0.0
142
1.0
143
3.764847853528793
 70
  3764
 72
     1
 73
     1
 74
     1
  7
Zeich.ctb
 75
     0
147
0.2656149833685044
 76
     0
 77
     2
 78
   300
148
126.4233910868215
149
-77.08549654004809
100
AcDbLayout
  1
Model
 70
     1
 71
     0
 10
0.0
 20
0.0
 11
12.0
 21
9.0
 12
0.0
 22
0.0
 32
0.0
 14
0.0
 24
0.0
 34
0.0
 15
0.0
 25
0.0
 35
0.0
146
0.0
 13
0.0
 23
0.0
 33
0.0
 16
1.0
 26
0.0
 36
0.0
 17
0.0
 27
1.0
 37
0.0
 76
     0
330
2
331
2D2
1001
ACAD_PSEXT
1000
Konstruktion
1000
Kyocera FS-1030D
1000
IP_192.168.10.181
1000

1070
     0
  0
MATERIAL
  5
2DF
102
{ACAD_XDICTIONARY
360
2E0
102
}
102
{ACAD_REACTORS
330
2D6
102
}
330
2D6
100
AcDbMaterial
  1
ByBlock
 72
     0
 43
0.0208333333333333
 43
0.0
 43
0.0
 43
0.0
 43
0.0
 43
0.0208333333333333
 43
0.0
 43
0.0
 43
0.0
 43
0.0
 43
1.0
 43
0.0
 43
0.0
 43
0.0
 43
0.0
 43
1.0
 77
     0
 47
0.0208333333333333
 47
0.0
 47
0.0
 47
0.0
 47
0.0
 47
0.0208333333333333
 47
0.0
 47
0.0
 47
0.0
 47
0.0
 47
1.0
 47
0.0
 47
0.0
 47
0.0
 47
0.0
 47
1.0
171
     0
 49
0.0208333333333333
 49
0.0
 49
0.0
 49
0.0
 49
0.0
 49
0.0208333333333333
 49
0.0
 49
0.0
 49
0.0
 49
0.0
 49
1.0
 49
0.0
 49
0.0
 49
0.0
 49
0.0
 49
1.0
175
     0
142
0.0208333333333333
142
0.0
142
0.0
142
0.0
142
0.0
142
0.0208333333333333
142
0.0
142
0.0
142
0.0
142
0.0
142
1.0
142
0.0
142
0.0
142
0.0
142
0.0
142
1.0
179
     0
144
0.0208333333333333
144
0.0
144
0.0
144
0.0
144
0.0
144
0.0208333333333333
144
0.0
144
0.0
144
0.0
144
0.0
144
1.0
144
0.0
144
0.0
144
0.0
144
0.0
144
1.0
147
0.0208333333333333
147
0.0
147
0.0
147
0.0
147
0.0
147
0.0208333333333333
147
0.0
147
0.0
147
0.0
147
0.0
147
1.0
147
0.0
147
0.0
147
0.0
147
0.0
147
1.0
  0
MATERIAL
  5
2D7
102
{ACAD_XDICTIONARY
360
2D8
102
}
102
{ACAD_REACTORS
330
2D6
102
}
330
2D6
100
AcDbMaterial
  1
ByLayer
 72
     0
 43
0.0208333333333333
 43
0.0
 43
0.0
 43
0.0
 43
0.0
 43
0.0208333333333333
 43
0.0
 43
0.0
 43
0.0
 43
0.0
 43
1.0
 43
0.0
 43
0.0
 43
0.0
 43
0.0
 43
1.0
 77
     0
 47
0.0208333333333333
 47
0.0
 47
0.0
 47
0.0
 47
0.0
 47
0.0208333333333333
 47
0.0
 47
0.0
 47
0.0
 47
0.0
 47
1.0
 47
0.0
 47
0.0
 47
0.0
 47
0.0
 47
1.0
171
     0
 49
0.0208333333333333
 49
0.0
 49
0.0
 49
0.0
 49
0.0
 49
0.0208333333333333
 49
0.0
 49
0.0
 49
0.0
 49
0.0
 49
1.0
 49
0.0
 49
0.0
 49
0.0
 49
0.0
 49
1.0
175
     0
142
0.0208333333333333
142
0.0
142
0.0
142
0.0
142
0.0
142
0.0208333333333333
142
0.0
142
0.0
142
0.0
142
0.0
142
1.0
142
0.0
142
0.0
142
0.0
142
0.0
142
1.0
179
     0
144
0.0208333333333333
144
0.0
144
0.0
144
0.0
144
0.0
144
0.0208333333333333
144
0.0
144
0.0
144
0.0
144
0.0
144
1.0
144
0.0
144
0.0
144
0.0
144
0.0
144
1.0
147
0.0208333333333333
147
0.0
147
0.0
147
0.0
147
0.0
147
0.0208333333333333
147
0.0
147
0.0
147
0.0
147
0.0
147
1.0
147
0.0
147
0.0
147
0.0
147
0.0
147
1.0
  0
MATERIAL
  5
2E7
102
{ACAD_XDICTIONARY
360
2E8
102
}
102
{ACAD_REACTORS
330
2D6
102
}
330
2D6
100
AcDbMaterial
  1
Global
 72
     0
 43
0.0208333333333333
 43
0.0
 43
0.0
 43
0.0
 43
0.0
 43
0.0208333333333333
 43
0.0
 43
0.0
 43
0.0
 43
0.0
 43
1.0
 43
0.0
 43
0.0
 43
0.0
 43
0.0
 43
1.0
 77
     0
 47
0.0208333333333333
 47
0.0
 47
0.0
 47
0.0
 47
0.0
 47
0.0208333333333333
 47
0.0
 47
0.0
 47
0.0
 47
0.0
 47
1.0
 47
0.0
 47
0.0
 47
0.0
 47
0.0
 47
1.0
171
     0
 49
0.0208333333333333
 49
0.0
 49
0.0
 49
0.0
 49
0.0
 49
0.0208333333333333
 49
0.0
 49
0.0
 49
0.0
 49
0.0
 49
1.0
 49
0.0
 49
0.0
 49
0.0
 49
0.0
 49
1.0
175
     0
142
0.0208333333333333
142
0.0
142
0.0
142
0.0
142
0.0
142
0.0208333333333333
142
0.0
142
0.0
142
0.0
142
0.0
142
1.0
142
0.0
142
0.0
142
0.0
142
0.0
142
1.0
179
     0
144
0.0208333333333333
144
0.0
144
0.0
144
0.0
144
0.0
144
0.0208333333333333
144
0.0
144
0.0
144
0.0
144
0.0
144
1.0
144
0.0
144
0.0
144
0.0
144
0.0
144
1.0
147
0.0208333333333333
147
0.0
147
0.0
147
0.0
147
0.0
147
0.0208333333333333
147
0.0
147
0.0
147
0.0
147
0.0
147
1.0
147
0.0
147
0.0
147
0.0
147
0.0
147
1.0
  0
MLEADERSTYLE
  5
326
102
{ACAD_REACTORS
330
325
102
}
330
325
100
AcDbMLeaderStyle
170
     2
171
     1
172
     0
 90
        2
 40
0.0
 41
0.0
173
     1
 91
-1056964608
340
E
 92
       -2
290
     1
 42
0.09
291
     1
 43
0.36
  3
Standard
 44
0.18
300

342
C
174
     1
178
     6
175
     1
176
     0
 93
-1056964608
 45
0.18
292
     0
297
     0
 46
0.18
 94
-1056964608
 47
1.0
 49
1.0
140
1.0
293
     1
141
0.0
294
     1
177
     0
142
1.0
295
     0
296
     0
143
0.125
1001
ACAD_MLEADERVER
1070
     2
  0
MLINESTYLE
  5
1B
102
{ACAD_REACTORS
330
19
102
}
330
19
100
AcDbMlineStyle
  2
STANDARD
 70
     0
  3

 62
     0
 51
90.0
 52
90.0
 71
     2
 49
0.5
 62
   256
  6
BYLAYER
 49
-0.5
 62
   256
  6
BYLAYER
  0
ACDBPLACEHOLDER
  5
2D5
102
{ACAD_REACTORS
330
2D4
102
}
330
2D4
  0
SCALE
  5
304
102
{ACAD_REACTORS
330
303
102
}
330
303
100
AcDbScale
 70
     0
300
1:1
140
1.0
141
1.0
290
     1
  0
SCALE
  5
305
102
{ACAD_REACTORS
330
303
102
}
330
303
100
AcDbScale
 70
     0
300
1:2
140
1.0
141
2.0
290
     0
  0
SCALE
  5
306
102
{ACAD_REACTORS
330
303
102
}
330
303
100
AcDbScale
 70
     0
300
1:4
140
1.0
141
4.0
290
     0
  0
SCALE
  5
307
102
{ACAD_REACTORS
330
303
102
}
330
303
100
AcDbScale
 70
     0
300
1:5
140
1.0
141
5.0
290
     0
  0
SCALE
  5
308
102
{ACAD_REACTORS
330
303
102
}
330
303
100
AcDbScale
 70
     0
300
1:8
140
1.0
141
8.0
290
     0
  0
SCALE
  5
309
102
{ACAD_REACTORS
330
303
102
}
330
303
100
AcDbScale
 70
     0
300
1:10
140
1.0
141
10.0
290
     0
  0
SCALE
  5
30A
102
{ACAD_REACTORS
330
303
102
}
330
303
100
AcDbScale
 70
     0
300
1:16
140
1.0
141
16.0
290
     0
  0
SCALE
  5
30B
102
{ACAD_REACTORS
330
303
102
}
330
303
100
AcDbScale
 70
     0
300
1:20
140
1.0
141
20.0
290
     0
  0
SCALE
  5
30C
102
{ACAD_REACTORS
330
303
102
}
330
303
100
AcDbScale
 70
     0
300
1:30
140
1.0
141
30.0
290
     0
  0
SCALE
  5
30D
102
{ACAD_REACTORS
330
303
102
}
330
303
100
AcDbScale
 70
     0
300
1:40
140
1.0
141
40.0
290
     0
  0
SCALE
  5
30E
102
{ACAD_REACTORS
330
303
102
}
330
303
100
AcDbScale
 70
     0
300
1:50
140
1.0
141
50.0
290
     0
  0
SCALE
  5
30F
102
{ACAD_REACTORS
330
303
102
}
330
303
100
AcDbScale
 70
     0
300
1:100
140
1.0
141
100.0
290
     0
  0
SCALE
  5
310
102
{ACAD_REACTORS
330
303
102
}
330
303
100
AcDbScale
 70
     0
300
2:1
140
2.0
141
1.0
290
     0
  0
SCALE
  5
311
102
{ACAD_REACTORS
330
303
102
}
330
303
100
AcDbScale
 70
     0
300
4:1
140
4.0
141
1.0
290
     0
  0
SCALE
  5
312
102
{ACAD_REACTORS
330
303
102
}
330
303
100
AcDbScale
 70
     0
300
8:1
140
8.0
141
1.0
290
     0
  0
SCALE
  5
313
102
{ACAD_REACTORS
330
303
102
}
330
303
100
AcDbScale
 70
     0
300
10:1
140
10.0
141
1.0
290
     0
  0
SCALE
  5
314
102
{ACAD_REACTORS
330
303
102
}
330
303
100
AcDbScale
 70
     0
300
100:1
140
100.0
141
1.0
290
     0
  0
SCALE
  5
315
102
{ACAD_REACTORS
330
303
102
}
330
303
100
AcDbScale
 70
     0
300
1/128" = 1'-0"
140
0.0078125
141
12.0
290
     0
  0
SCALE
  5
316
102
{ACAD_REACTORS
330
303
102
}
330
303
100
AcDbScale
 70
     0
300
1/64" = 1'-0"
140
0.015625
141
12.0
290
     0
  0
SCALE
  5
317
102
{ACAD_REACTORS
330
303
102
}
330
303
100
AcDbScale
 70
     0
300
1/32" = 1'-0"
140
0.03125
141
12.0
290
     0
  0
SCALE
  5
318
102
{ACAD_REACTORS
330
303
102
}
330
303
100
AcDbScale
 70
     0
300
1/16" = 1'-0"
140
0.0625
141
12.0
290
     0
  0
SCALE
  5
319
102
{ACAD_REACTORS
330
303
102
}
330
303
100
AcDbScale
 70
     0
300
3/32" = 1'-0"
140
0.09375
141
12.0
290
     0
  0
SCALE
  5
31A
102
{ACAD_REACTORS
330
303
102
}
330
303
100
AcDbScale
 70
     0
300
1/8" = 1'-0"
140
0.125
141
12.0
290
     0
  0
SCALE
  5
31B
102
{ACAD_REACTORS
330
303
102
}
330
303
100
AcDbScale
 70
     0
300
3/16" = 1'-0"
140
0.1875
141
12.0
290
     0
  0
SCALE
  5
31C
102
{ACAD_REACTORS
330
303
102
}
330
303
100
AcDbScale
 70
     0
300
1/4" = 1'-0"
140
0.25
141
12.0
290
     0
  0
SCALE
  5
31D
102
{ACAD_REACTORS
330
303
102
}
330
303
100
AcDbScale
 70
     0
300
3/8" = 1'-0"
140
0.375
141
12.0
290
     0
  0
SCALE
  5
31E
102
{ACAD_REACTORS
330
303
102
}
330
303
100
AcDbScale
 70
     0
300
1/2" = 1'-0"
140
0.5
141
12.0
290
     0
  0
SCALE
  5
31F
102
{ACAD_REACTORS
330
303
102
}
330
303
100
AcDbScale
 70
     0
300
3/4" = 1'-0"
140
0.75
141
12.0
290
     0
  0
SCALE
  5
320
102
{ACAD_REACTORS
330
303
102
}
330
303
100
AcDbScale
 70
     0
300
1" = 1'-0"
140
1.0
141
12.0
290
     0
  0
SCALE
  5
321
102
{ACAD_REACTORS
330
303
102
}
330
303
100
AcDbScale
 70
     0
300
1-1/2" = 1'-0"
140
1.5
141
12.0
290
     0
  0
SCALE
  5
322
102
{ACAD_REACTORS
330
303
102
}
330
303
100
AcDbScale
 70
     0
300
3" = 1'-0"
140
3.0
141
12.0
290
     0
  0
SCALE
  5
323
102
{ACAD_REACTORS
330
303
102
}
330
303
100
AcDbScale
 70
     0
300
6" = 1'-0"
140
6.0
141
12.0
290
     0
  0
SCALE
  5
324
102
{ACAD_REACTORS
330
303
102
}
330
303
100
AcDbScale
 70
     0
300
1'-0" = 1'-0"
140
12.0
141
12.0
290
     0
  0
TABLESTYLE
  5
302
102
{ACAD_XDICTIONARY
360
45A
102
}
102
{ACAD_REACTORS
330
301
102
}
330
301
100
AcDbTableStyle
  3
Standard
 70
     0
 71
     0
 40
0.06
 41
0.06
280
     0
281
     0
  7
STANDARD
140
0.18
170
     2
 62
     0
 63
     7
283
     0
274
    -2
284
     1
 64
     0
275
    -2
285
     1
 65
     0
276
    -2
286
     1
 66
     0
277
    -2
287
     1
 67
     0
278
    -2
288
     1
 68
     0
279
    -2
289
     1
 69
     0
  7
STANDARD
140
0.25
170
     5
 62
     0
 63
     7
283
     0
274
    -2
284
     1
 64
     0
275
    -2
285
     1
 65
     0
276
    -2
286
     1
 66
     0
277
    -2
287
     1
 67
     0
278
    -2
288
     1
 68
     0
279
    -2
289
     1
 69
     0
  7
STANDARD
140
0.18
170
     5
 62
     0
 63
     7
283
     0
274
    -2
284
     1
 64
     0
275
    -2
285
     1
 65
     0
276
    -2
286
     1
 66
     0
277
    -2
287
     1
 67
     0
278
    -2
288
     1
 68
     0
279
    -2
289
     1
 69
     0
  0
VISUALSTYLE
  5
2F5
102
{ACAD_REACTORS
330
2EF
102
}
330
2EF
100
AcDbVisualStyle
  2
2dWireframe
 70
     4
 71
     0
 72
     2
 73
     0
 90
        0
 40
-0.6
 41
-30.0
 62
     5
 63
     7
421
 16777215
 74
     1
 91
        4
 64
     7
 65
   257
 75
     1
175
     1
 42
1.0
 92
        0
 66
   257
 43
1.0
 76
     1
 77
     6
 78
     2
 67
     7
 79
     5
170
     0
171
     0
290
     0
174
     0
 93
        1
 44
0.0
173
     0
291
     0
 45
0.0
1001
ACAD
1000
AcDbSavedByObjectVersion
1070
     0
  0
VISUALSTYLE
  5
2F7
102
{ACAD_REACTORS
330
2EF
102
}
330
2EF
100
AcDbVisualStyle
  2
3D Hidden
 70
     6
 71
     1
 72
     2
 73
     2
 90
        0
 40
-0.6
 41
-30.0
 62
     5
 63
     7
421
 16777215
 74
     2
 91
        2
 64
     7
 65
   257
 75
     2
175
     1
 42
40.0
 92
        0
 66
   257
 43
1.0
 76
     1
 77
     6
 78
     2
 67
     7
 79
     3
170
     0
171
     0
290
     0
174
     0
 93
        1
 44
0.0
173
     0
291
     0
 45
0.0
1001
ACAD
1000
AcDbSavedByObjectVersion
1070
     0
  0
VISUALSTYLE
  5
2F6
102
{ACAD_REACTORS
330
2EF
102
}
330
2EF
100
AcDbVisualStyle
  2
3dWireframe
 70
     5
 71
     0
 72
     2
 73
     0
 90
        0
 40
-0.6
 41
-30.0
 62
     5
 63
     7
421
 16777215
 74
     1
 91
        4
 64
     7
 65
   257
 75
     1
175
     1
 42
1.0
 92
        0
 66
   257
 43
1.0
 76
     1
 77
     6
 78
     2
 67
     7
 79
     5
170
     0
171
     0
290
     0
174
     0
 93
        1
 44
0.0
173
     0
291
     0
 45
0.0
1001
ACAD
1000
AcDbSavedByObjectVersion
1070
     0
  0
VISUALSTYLE
  5
2F4
102
{ACAD_REACTORS
330
2EF
102
}
330
2EF
100
AcDbVisualStyle
  2
Basic
 70
     7
 71
     1
 72
     0
 73
     1
 90
        0
 40
-0.6
 41
-30.0
 62
     5
 63
     7
421
 16777215
 74
     0
 91
        4
 64
     7
 65
   257
 75
     1
175
     1
 42
1.0
 92
        8
 66
     7
 43
1.0
 76
     1
 77
     6
 78
     2
 67
     7
 79
     5
170
     0
171
     0
290
     0
174
     0
 93
        1
 44
0.0
173
     0
291
     1
 45
0.0
1001
ACAD
1000
AcDbSavedByObjectVersion
1070
     0
  0
VISUALSTYLE
  5
2FB
102
{ACAD_REACTORS
330
2EF
102
}
330
2EF
100
AcDbVisualStyle
  2
Brighten
 70
    12
 71
     2
 72
     2
 73
     0
 90
        0
 40
-0.6
 41
-30.0
 62
     5
 63
     7
421
 16777215
 74
     1
 91
        4
 64
     7
 65
   257
 75
     1
175
     1
 42
1.0
 92
        8
 66
     7
 43
1.0
 76
     1
 77
     6
 78
     2
 67
     7
 79
     5
170
     0
171
     0
290
     0
174
     0
 93
        1
 44
50.0
173
     0
291
     1
 45
0.0
1001
ACAD
1000
AcDbSavedByObjectVersion
1070
     0
  0
VISUALSTYLE
  5
2FF
102
{ACAD_REACTORS
330
2EF
102
}
330
2EF
100
AcDbVisualStyle
  2
ColorChange
 70
    16
 71
     2
 72
     2
 73
     3
 90
        0
 40
-0.6
 41
-30.0
 62
     5
 63
     8
421
  8421504
 74
     1
 91
        4
 64
     7
 65
   257
 75
     1
175
     1
 42
1.0
 92
        8
 66
     8
424
  8421504
 43
1.0
 76
     1
 77
     6
 78
     2
 67
     7
 79
     5
170
     0
171
     0
290
     0
174
     0
 93
        1
 44
0.0
173
     0
291
     1
 45
0.0
1001
ACAD
1000
AcDbSavedByObjectVersion
1070
     0
  0
VISUALSTYLE
  5
2F8
102
{ACAD_REACTORS
330
2EF
102
}
330
2EF
100
AcDbVisualStyle
  2
Conceptual
 70
     9
 71
     3
 72
     2
 73
     0
 90
        0
 40
-0.6
 41
-30.0
 62
     5
 63
     7
421
 16777215
 74
     2
 91
        2
 64
     7
 65
   257
 75
     1
175
     1
 42
40.0
 92
        8
 66
     7
 43
1.0
 76
     1
 77
     6
 78
     2
 67
     7
 79
     3
170
     0
171
     0
290
     0
174
     0
 93
        1
 44
0.0
173
     0
291
     0
 45
0.0
1001
ACAD
1000
AcDbSavedByObjectVersion
1070
     0
  0
VISUALSTYLE
  5
2FA
102
{ACAD_REACTORS
330
2EF
102
}
330
2EF
100
AcDbVisualStyle
  2
Dim
 70
    11
 71
     2
 72
     2
 73
     0
 90
        0
 40
-0.6
 41
-30.0
 62
     5
 63
     7
421
 16777215
 74
     1
 91
        4
 64
     7
 65
   257
 75
     1
175
     1
 42
1.0
 92
        8
 66
     7
 43
1.0
 76
     1
 77
     6
 78
     2
 67
     7
 79
     5
170
     0
171
     0
290
     0
174
     0
 93
        1
 44
-50.0
173
     0
291
     1
 45
0.0
1001
ACAD
1000
AcDbSavedByObjectVersion
1070
     0
  0
VISUALSTYLE
  5
2FE
102
{ACAD_REACTORS
330
2EF
102
}
330
2EF
100
AcDbVisualStyle
  2
Facepattern
 70
    15
 71
     2
 72
     2
 73
     0
 90
        0
 40
-0.6
 41
-30.0
 62
     5
 63
     7
421
 16777215
 74
     1
 91
        4
 64
     7
 65
   257
 75
     1
175
     1
 42
1.0
 92
        8
 66
     7
 43
1.0
 76
     1
 77
     6
 78
     2
 67
     7
 79
     5
170
     0
171
     0
290
     0
174
     0
 93
        1
 44
0.0
173
     0
291
     1
 45
0.0
1001
ACAD
1000
AcDbSavedByObjectVersion
1070
     0
  0
VISUALSTYLE
  5
2F0
102
{ACAD_REACTORS
330
2EF
102
}
330
2EF
100
AcDbVisualStyle
  2
Flat
 70
     0
 71
     2
 72
     1
 73
     1
 90
        2
 40
-0.6
 41
30.0
 62
     5
 63
     7
421
 16777215
 74
     0
 91
        4
 64
     7
 65
   257
 75
     1
175
     1
 42
1.0
 92
        8
 66
     7
 43
1.0
 76
     1
 77
     6
 78
     2
 67
     7
 79
     5
170
     0
171
     0
290
     0
174
     0
 93
       13
 44
0.0
173
     0
291
     1
 45
0.0
1001
ACAD
1000
AcDbSavedByObjectVersion
1070
     0
  0
VISUALSTYLE
  5
2F1
102
{ACAD_REACTORS
330
2EF
102
}
330
2EF
100
AcDbVisualStyle
  2
FlatWithEdges
 70
     1
 71
     2
 72
     1
 73
     1
 90
        2
 40
-0.6
 41
30.0
 62
     5
 63
     7
421
 16777215
 74
     1
 91
        4
 64
     7
 65
   257
 75
     1
175
     1
 42
1.0
 92
        0
 66
   257
 43
1.0
 76
     1
 77
     6
 78
     2
 67
     7
 79
     5
170
     0
171
     0
290
     0
174
     0
 93
       13
 44
0.0
173
     0
291
     1
 45
0.0
1001
ACAD
1000
AcDbSavedByObjectVersion
1070
     0
  0
VISUALSTYLE
  5
2F2
102
{ACAD_REACTORS
330
2EF
102
}
330
2EF
100
AcDbVisualStyle
  2
Gouraud
 70
     2
 71
     2
 72
     2
 73
     1
 90
        2
 40
-0.6
 41
30.0
 62
     5
 63
     7
421
 16777215
 74
     0
 91
        4
 64
     7
 65
   257
 75
     1
175
     1
 42
1.0
 92
        0
 66
     7
 43
1.0
 76
     1
 77
     6
 78
     2
 67
     7
 79
     5
170
     0
171
     0
290
     0
174
     0
 93
       13
 44
0.0
173
     0
291
     1
 45
0.0
1001
ACAD
1000
AcDbSavedByObjectVersion
1070
     0
  0
VISUALSTYLE
  5
2F3
102
{ACAD_REACTORS
330
2EF
102
}
330
2EF
100
AcDbVisualStyle
  2
GouraudWithEdges
 70
     3
 71
     2
 72
     2
 73
     1
 90
        2
 40
-0.6
 41
30.0
 62
     5
 63
     7
421
 16777215
 74
     1
 91
        4
 64
     7
 65
   257
 75
     1
175
     1
 42
1.0
 92
        0
 66
   257
 43
1.0
 76
     1
 77
     6
 78
     2
 67
     7
 79
     5
170
     0
171
     0
290
     0
174
     0
 93
       13
 44
0.0
173
     0
291
     1
 45
0.0
1001
ACAD
1000
AcDbSavedByObjectVersion
1070
     0
  0
VISUALSTYLE
  5
2FD
102
{ACAD_REACTORS
330
2EF
102
}
330
2EF
100
AcDbVisualStyle
  2
Linepattern
 70
    14
 71
     2
 72
     2
 73
     0
 90
        0
 40
-0.6
 41
-30.0
 62
     5
 63
     7
421
 16777215
 74
     1
 91
        4
 64
     7
 65
   257
 75
     7
175
     7
 42
1.0
 92
        8
 66
     7
 43
1.0
 76
     1
 77
     6
 78
     2
 67
     7
 79
     5
170
     0
171
     0
290
     0
174
     0
 93
        1
 44
0.0
173
     0
291
     1
 45
0.0
1001
ACAD
1000
AcDbSavedByObjectVersion
1070
     0
  0
VISUALSTYLE
  5
2F9
102
{ACAD_REACTORS
330
2EF
102
}
330
2EF
100
AcDbVisualStyle
  2
Realistic
 70
     8
 71
     2
 72
     2
 73
     0
 90
        0
 40
-0.6
 41
-30.0
 62
     5
 63
     7
421
 16777215
 74
     1
 91
        0
 64
     7
 65
   257
 75
     1
175
     1
 42
1.0
 92
        8
 66
     8
424
  7895160
 43
1.0
 76
     1
 77
     6
 78
     2
 67
     7
 79
     5
170
     0
171
     0
290
     0
174
     0
 93
       13
 44
0.0
173
     0
291
     0
 45
0.0
1001
ACAD
1000
AcDbSavedByObjectVersion
1070
     0
  0
VISUALSTYLE
  5
2FC
102
{ACAD_REACTORS
330
2EF
102
}
330
2EF
100
AcDbVisualStyle
  2
Thicken
 70
    13
 71
     2
 72
     2
 73
     0
 90
        0
 40
-0.6
 41
-30.0
 62
     5
 63
     7
421
 16777215
 74
     1
 91
        4
 64
     7
 65
   257
 75
     1
175
     1
 42
1.0
 92
       12
 66
     7
 43
1.0
 76
     1
 77
     6
 78
     2
 67
     7
 79
     5
170
     0
171
     0
290
     0
174
     0
 93
        1
 44
0.0
173
     0
291
     1
 45
0.0
1001
ACAD
1000
AcDbSavedByObjectVersion
1070
     0
  0
DICTIONARYVAR
  5
460
102
{ACAD_REACTORS
330
26E
102
}
330
26E
100
DictionaryVariables
280
     0
  1
1:1
  0
DICTIONARYVAR
  5
45E
102
{ACAD_REACTORS
330
26E
102
}
330
26E
100
DictionaryVariables
280
     0
  1
STANDARD
  0
DICTIONARYVAR
  5
45D
102
{ACAD_REACTORS
330
26E
102
}
330
26E
100
DictionaryVariables
280
     0
  1
STANDARD
  0
DICTIONARYVAR
  5
26F
102
{ACAD_REACTORS
330
26E
102
}
330
26E
100
DictionaryVariables
280
     0
  1
1
  0
DICTIONARYVAR
  5
461
102
{ACAD_REACTORS
330
26E
102
}
330
26E
100
DictionaryVariables
280
     0
  1
0
  0
DICTIONARYVAR
  5
45F
102
{ACAD_REACTORS
330
26E
102
}
330
26E
100
DictionaryVariables
280
     0
  1
0
  0
DICTIONARY
  5
28D
102
{ACAD_REACTORS
330
28C
102
}
330
28C
100
AcDbDictionary
281
     1
  0
XRECORD
  5
7B0
102
{ACAD_REACTORS
330
7AF
102
}
330
7AF
100
AcDbXrecord
280
     1
  0
DICTIONARY
  5
2E0
330
2DF
100
AcDbDictionary
280
     1
281
     1
  3
ACAD_XREC_ROUNDTRIP
360
7E6
  3
BUMPTILE
360
2E2
  3
DIFFUSETILE
360
2E1
  3
OPACITYTILE
360
2E5
  3
REFLECTIONTILE
360
2E4
  3
REFRACTIONTILE
360
2E6
  3
SPECULARTILE
360
2E3
  0
DICTIONARY
  5
2D8
330
2D7
100
AcDbDictionary
280
     1
281
     1
  3
ACAD_XREC_ROUNDTRIP
360
7E5
  3
BUMPTILE
360
2DA
  3
DIFFUSETILE
360
2D9
  3
OPACITYTILE
360
2DD
  3
REFLECTIONTILE
360
2DC
  3
REFRACTIONTILE
360
2DE
  3
SPECULARTILE
360
2DB
  0
DICTIONARY
  5
2E8
330
2E7
100
AcDbDictionary
280
     1
281
     1
  3
ACAD_XREC_ROUNDTRIP
360
7E7
  3
BUMPTILE
360
2EA
  3
DIFFUSETILE
360
2E9
  3
OPACITYTILE
360
2ED
  3
REFLECTIONTILE
360
2EC
  3
REFRACTIONTILE
360
2EE
  3
SPECULARTILE
360
2EB
  0
DICTIONARY
  5
45A
330
302
100
AcDbDictionary
280
     1
281
     1
  3
ACAD_ROUNDTRIP_2008_TABLESTYLE_CELLSTYLEMAP
360
7DA
  3
ACAD_XREC_ROUNDTRIP
360
7E8
  0
XRECORD
  5
7E6
102
{ACAD_REACTORS
330
2E0
102
}
330
2E0
100
AcDbXrecord
280
     1
102
MATERIAL
148
0.0
149
0.0
149
0.0
 93
        0
 94
      127
282
     0
 72
     0
 77
     0
171
     0
175
     0
179
     0
273
     0
  0
XRECORD
  5
2E2
102
{ACAD_REACTORS
330
2E0
102
}
330
2E0
100
AcDbXrecord
280
     1
270
     1
271
     1
  0
XRECORD
  5
2E1
102
{ACAD_REACTORS
330
2E0
102
}
330
2E0
100
AcDbXrecord
280
     1
270
     1
271
     1
  0
XRECORD
  5
2E5
102
{ACAD_REACTORS
330
2E0
102
}
330
2E0
100
AcDbXrecord
280
     1
270
     1
271
     1
  0
XRECORD
  5
2E4
102
{ACAD_REACTORS
330
2E0
102
}
330
2E0
100
AcDbXrecord
280
     1
270
     1
271
     1
  0
XRECORD
  5
2E6
102
{ACAD_REACTORS
330
2E0
102
}
330
2E0
100
AcDbXrecord
280
     1
270
     1
271
     1
  0
XRECORD
  5
2E3
102
{ACAD_REACTORS
330
2E0
102
}
330
2E0
100
AcDbXrecord
280
     1
270
     1
271
     1
  0
XRECORD
  5
7E5
102
{ACAD_REACTORS
330
2D8
102
}
330
2D8
100
AcDbXrecord
280
     1
102
MATERIAL
148
0.0
149
0.0
149
0.0
 93
        0
 94
      127
282
     0
 72
     0
 77
     0
171
     0
175
     0
179
     0
273
     0
  0
XRECORD
  5
2DA
102
{ACAD_REACTORS
330
2D8
102
}
330
2D8
100
AcDbXrecord
280
     1
270
     1
271
     1
  0
XRECORD
  5
2D9
102
{ACAD_REACTORS
330
2D8
102
}
330
2D8
100
AcDbXrecord
280
     1
270
     1
271
     1
  0
XRECORD
  5
2DD
102
{ACAD_REACTORS
330
2D8
102
}
330
2D8
100
AcDbXrecord
280
     1
270
     1
271
     1
  0
XRECORD
  5
2DC
102
{ACAD_REACTORS
330
2D8
102
}
330
2D8
100
AcDbXrecord
280
     1
270
     1
271
     1
  0
XRECORD
  5
2DE
102
{ACAD_REACTORS
330
2D8
102
}
330
2D8
100
AcDbXrecord
280
     1
270
     1
271
     1
  0
XRECORD
  5
2DB
102
{ACAD_REACTORS
330
2D8
102
}
330
2D8
100
AcDbXrecord
280
     1
270
     1
271
     1
  0
XRECORD
  5
7E7
102
{ACAD_REACTORS
330
2E8
102
}
330
2E8
100
AcDbXrecord
280
     1
102
MATERIAL
148
0.0
149
0.0
149
0.0
 93
        0
 94
      127
282
     0
 72
     0
 77
     0
171
     0
175
     0
179
     0
273
     0
  0
XRECORD
  5
2EA
102
{ACAD_REACTORS
330
2E8
102
}
330
2E8
100
AcDbXrecord
280
     1
270
     1
271
     1
  0
XRECORD
  5
2E9
102
{ACAD_REACTORS
330
2E8
102
}
330
2E8
100
AcDbXrecord
280
     1
270
     1
271
     1
  0
XRECORD
  5
2ED
102
{ACAD_REACTORS
330
2E8
102
}
330
2E8
100
AcDbXrecord
280
     1
270
     1
271
     1
  0
XRECORD
  5
2EC
102
{ACAD_REACTORS
330
2E8
102
}
330
2E8
100
AcDbXrecord
280
     1
270
     1
271
     1
  0
XRECORD
  5
2EE
102
{ACAD_REACTORS
330
2E8
102
}
330
2E8
100
AcDbXrecord
280
     1
270
     1
271
     1
  0
XRECORD
  5
2EB
102
{ACAD_REACTORS
330
2E8
102
}
330
2E8
100
AcDbXrecord
280
     1
270
     1
271
     1
  0
CELLSTYLEMAP
  5
7DA
102
{ACAD_REACTORS
330
45A
102
}
330
45A
100
AcDbCellStyleMap
 90
        3
300
CELLSTYLE
  1
TABLEFORMAT_BEGIN
 90
        5
170
     1
 91
        0
 92
    32768
 62
   257
 93
        1
300
CONTENTFORMAT
  1
CONTENTFORMAT_BEGIN
 90
        0
 91
        0
 92
      512
 93
        0
300

 40
0.0
140
1.0
 94
        5
 62
     0
340
C
144
0.25
309
CONTENTFORMAT_END
171
     0
 94
        0
309
TABLEFORMAT_END
  1
CELLSTYLE_BEGIN
 90
        1
 91
        1
300
_TITLE
309
CELLSTYLE_END
300
CELLSTYLE
  1
TABLEFORMAT_BEGIN
 90
        5
170
     1
 91
        0
 92
        0
 62
   257
 93
        1
300
CONTENTFORMAT
  1
CONTENTFORMAT_BEGIN
 90
        0
 91
        0
 92
      512
 93
        0
300

 40
0.0
140
1.0
 94
        5
 62
     0
340
C
144
0.18
309
CONTENTFORMAT_END
171
     0
 94
        0
309
TABLEFORMAT_END
  1
CELLSTYLE_BEGIN
 90
        2
 91
        1
300
_HEADER
309
CELLSTYLE_END
300
CELLSTYLE
  1
TABLEFORMAT_BEGIN
 90
        5
170
     1
 91
        0
 92
        0
 62
   257
 93
        1
300
CONTENTFORMAT
  1
CONTENTFORMAT_BEGIN
 90
        0
 91
        0
 92
      512
 93
        0
300

 40
0.0
140
1.0
 94
        2
 62
     0
340
C
144
0.18
309
CONTENTFORMAT_END
171
     0
 94
        0
309
TABLEFORMAT_END
  1
CELLSTYLE_BEGIN
 90
        3
 91
        2
300
_DATA
309
CELLSTYLE_END
  0
XRECORD
  5
7E8
102
{ACAD_REACTORS
330
45A
102
}
330
45A
100
AcDbXrecord
280
     1
102
ACAD_ROUNDTRIP_PRE2007_TABLESTYLE
 90
      512
 91
        0
  1

 92
      512
 93
        0
  2

 94
      512
 95
        0
  3

  0
ENDSEC
  0
EOF
